葛底斯堡 [DIY简繁中字] / Gettysburg (1993) 4K蓝光版本下载

[复制链接]

主题

帖子

0

积分

超级版主

Rank: 8Rank: 8

积分
0
 楼主| 发表于 2022-11-10 12:00:51 | 显示全部楼层 |阅读模式
本帖最后由 没完没了 于 2022-11-13 16:02 编辑

QQ图片20221110115229_副本.png

◎译  名 葛底斯堡/盖茨堡之役/美国战火
◎片  名 Gettysburg
◎年  代 1993
◎产  地 美国
◎类  别 剧情 / 历史 / 战争
◎语  言 英语
◎上映日期 1993-10-08
◎IMDb评分 7.6/10 from 29534 users 更新 : 2022-11-10
◎IMDb链接 https://www.imdb.com/title/tt0107007/
◎豆瓣评分 8.3/10 from 2674 users 更新 : 2022-11-10
◎豆瓣链接 https://movie.douban.com/subject/1292851/
◎片  长 271 分钟
◎导  演 罗纳德·F·麦克斯维尔 Ronald F. Maxwell
◎编  剧 米歇尔·沙阿拉 Michael Shaara / 罗纳德·F·麦克斯维尔 Ronald F. Maxwell
◎主  演 马丁·辛 Martin Sheen
       史蒂芬·朗 Stephen Lang
       杰夫·丹尼尔斯 Jeff Daniels
       乔舒亚·D·毛雷尔 Joshua D. Maurer
       汤姆·贝伦杰 Tom Berenger
       凯文·康韦 Kevin Conway
       C·托马斯·豪威尔 C. Thomas Howell
       戴维·费什 David Fiske


◎简  介


  1863年7月1日,十五万名士兵在命运安排下,相会于美国的盖兹堡;他们各自为了理想中的民主政治抛头颅洒热血。结果,有三分之一的人倒于寂静的麦田中;他们的生命创造了南北战争的转折点,这场战役是历史上的盖兹堡大战。
General
Complete name                  : D:\DIY电影\[4Kjia小组压制分享]葛底斯堡[DIY简繁中字]Gettysburg.1993.Directors.Cut.BDRip.2160p.SDR.HEVC.DDP5.1.ALANG
Format                         : Matroska
Format version                 : Version 4
File size                      : 25.8 GiB
Duration                       : 4 h 31 min
Overall bit rate               : 13.6 Mb/s
Movie name                     : Gettysburg Director's Cut
Encoded date                   : UTC 2022-11-10 05:36:26
Writing application            : mkvmerge v68.0.0 ('The Curtain') 64-bit
Writing library                : libebml v1.4.2 + libmatroska v1.6.4

Video
ID                             : 1
Format                         : HEVC
Format/Info                    : High Efficiency Video Coding
Format profile                 : Main 10@L5.2@High
Codec ID                       : V_MPEGH/ISO/HEVC
Duration                       : 4 h 31 min
Bit rate                       : 12.9 Mb/s
Width                          : 3 840 pixels
Height                         : 2 160 pixels
Display aspect ratio           : 16:9
Frame rate mode                : Variable
Frame rate                     : 23.976 (24000/1001) FPS
Color space                    : YUV
Chroma subsampling             : 4:2:0
Bit depth                      : 10 bits
Bits/(Pixel*Frame)             : 0.065
Stream size                    : 24.4 GiB (95%)
Title                          : Gettysburg Director's Cut
Default                        : Yes
Forced                         : No
Color range                    : Limited
Color primaries                : BT.709
Transfer characteristics       : BT.709
Matrix coefficients            : BT.709

Audio
ID                             : 2
Format                         : E-AC-3
Format/Info                    : Enhanced AC-3
Commercial name                : Dolby Digital Plus
Codec ID                       : A_EAC3
Duration                       : 4 h 31 min
Bit rate mode                  : Constant
Bit rate                       : 640 kb/s
Channel(s)                     : 6 channels
Channel layout                 : L R C LFE Ls Rs
Sampling rate                  : 48.0 kHz
Frame rate                     : 31.250 FPS (1536 SPF)
Compression mode               : Lossy
Stream size                    : 1.21 GiB (5%)
Title                          : Dolby Digital Plus 5.1
Language                       : English
Service kind                   : Complete Main
Default                        : Yes
Forced                         : No

Text #1
ID                             : 3
Format                         : PGS
Muxing mode                    : zlib
Codec ID                       : S_HDMV/PGS
Codec ID/Info                  : Picture based subtitle format used on BDs/HD-DVDs
Duration                       : 4 h 26 min
Bit rate                       : 32.9 kb/s
Frame rate                     : 0.363 FPS
Count of elements              : 5816
Stream size                    : 62.9 MiB (0%)
Title                          : English (SDH)
Language                       : English
Default                        : No
Forced                         : No

Text #2
ID                             : 4
Format                         : PGS
Muxing mode                    : zlib
Codec ID                       : S_HDMV/PGS
Codec ID/Info                  : Picture based subtitle format used on BDs/HD-DVDs
Duration                       : 4 h 30 min
Bit rate                       : 30.0 kb/s
Frame rate                     : 0.341 FPS
Count of elements              : 5522
Stream size                    : 58.0 MiB (0%)
Title                          : French
Language                       : French
Default                        : No
Forced                         : No

Text #3
ID                             : 5
Format                         : PGS
Muxing mode                    : zlib
Codec ID                       : S_HDMV/PGS
Codec ID/Info                  : Picture based subtitle format used on BDs/HD-DVDs
Duration                       : 4 h 26 min
Bit rate                       : 35.8 kb/s
Frame rate                     : 0.371 FPS
Count of elements              : 5948
Stream size                    : 68.4 MiB (0%)
Title                          : German (SDH)
Language                       : German
Default                        : No
Forced                         : No

Text #4
ID                             : 6
Format                         : PGS
Muxing mode                    : zlib
Codec ID                       : S_HDMV/PGS
Codec ID/Info                  : Picture based subtitle format used on BDs/HD-DVDs
Duration                       : 4 h 26 min
Bit rate                       : 32.0 kb/s
Frame rate                     : 0.356 FPS
Count of elements              : 5703
Stream size                    : 61.2 MiB (0%)
Title                          : Portuguese (Brazilian)
Language                       : Portuguese
Default                        : No
Forced                         : No

Text #5
ID                             : 7
Format                         : PGS
Muxing mode                    : zlib
Codec ID                       : S_HDMV/PGS
Codec ID/Info                  : Picture based subtitle format used on BDs/HD-DVDs
Duration                       : 4 h 26 min
Bit rate                       : 31.3 kb/s
Frame rate                     : 0.356 FPS
Count of elements              : 5703
Stream size                    : 59.7 MiB (0%)
Title                          : Spanish (Latin American)
Language                       : Spanish
Default                        : No
Forced                         : No

Text #6
ID                             : 8
Format                         : ASS
Codec ID                       : S_TEXT/ASS
Codec ID/Info                  : Advanced Sub Station Alpha
Duration                       : 4 h 24 min
Bit rate                       : 213 b/s
Frame rate                     : 0.183 FPS
Count of elements              : 2898
Compression mode               : Lossless
Stream size                    : 413 KiB (0%)
Title                          : 繁体中文c&英文
Language                       : Chinese
Default                        : Yes
Forced                         : No

Text #7
ID                             : 9
Format                         : ASS
Codec ID                       : S_TEXT/ASS
Codec ID/Info                  : Advanced Sub Station Alpha
Duration                       : 4 h 24 min
Bit rate                       : 213 b/s
Frame rate                     : 0.183 FPS
Count of elements              : 2898
Compression mode               : Lossless
Stream size                    : 413 KiB (0%)
Title                          : 简体中文&英文
Language                       : Chinese
Default                        : Yes
Forced                         : No

新种推荐使用qBittorrent、uTorrent、BitComet等下载软件,有条件的推荐115更好的下载软件!

[4Kjia小组压制分享]葛底斯堡(25.76GB)[DIY简繁中字]Gettysburg.1993.Directors.Cut.BDRip.2160p.SDR.HEVC.DDP5.1.ALANG
游客,如果您要查看本帖隐藏内容请回复


以下为英文字幕版本
葛底斯堡(25.76GB)Gettysburg.1993.Directors.Cut.BDRip.2160p.SDR.HEVC.DDP5.1.gerald99
游客,如果您要查看本帖隐藏内容请回复





4K海报.gif


上一篇:落水狗 / Reservoir Dogs (1992) 4K蓝光[原盘+REMUX]版本下载
下一篇:美国豚鼠3:所罗门之歌 (2017) 4K蓝光[原盘+REMUX]版本下载
回复

使用道具 举报

201

主题

1780

帖子

4902

积分

4K家园VIP

Rank: 9Rank: 9Rank: 9

积分
4902
发表于 2022-11-10 12:01:10 | 显示全部楼层
前排顶起
回复 支持 反对

使用道具 举报

主题

帖子

0

积分

新手上路

Rank: 1

积分
0
发表于 2022-11-11 13:49:28 | 显示全部楼层
谢谢楼主分享
回复 支持 反对

使用道具 举报

主题

帖子

15

积分

新手上路

Rank: 1

积分
15
发表于 2022-11-11 22:17:43 | 显示全部楼层
谢谢提供好片员
回复 支持 反对

使用道具 举报

主题

帖子

0

积分

新手上路

Rank: 1

积分
0
发表于 2022-11-12 00:58:32 | 显示全部楼层
支持一下楼主,顶起来
回复 支持 反对

使用道具 举报

主题

帖子

0

积分

4K家园VIP

Rank: 9Rank: 9Rank: 9

积分
0
发表于 2022-11-12 08:13:24 | 显示全部楼层
太好啦&萬分感謝版主的無私發佈分享%
回复 支持 反对

使用道具 举报

1

主题

654

帖子

9434

积分

4K家园VIP

Rank: 9Rank: 9Rank: 9

积分
9434
发表于 2022-11-13 17:41:58 | 显示全部楼层
感谢楼主!
回复

使用道具 举报

主题

帖子

0

积分

新手上路

Rank: 1

积分
0
发表于 2022-11-14 11:19:24 | 显示全部楼层
感谢分享好片
回复 支持 反对

使用道具 举报

0

主题

3

帖子

12

积分

新手上路

Rank: 1

积分
12
发表于 2022-11-14 16:35:59 | 显示全部楼层
主旋律电影,谢谢楼主大人
回复 支持 反对

使用道具 举报

主题

帖子

0

积分

新手上路

Rank: 1

积分
0
发表于 2022-11-19 19:27:04 | 显示全部楼层
回复

使用道具 举报

您需要登录后才可以回帖 登录 | 立即注册

本版积分规则

精彩图文
Archiver|手机版|TAG|Sitemap|新帖|专题|联系我们:邮箱: 4kjia.com@gmail.com   

4k家园   ©2019