蛮战[简繁中字]/Barbarians (2020) 第一季全/4K高清版本下载

[复制链接]

主题

帖子

0

积分

超级版主

Rank: 8Rank: 8

积分
0
 楼主| 发表于 2022-11-10 20:39:04 | 显示全部楼层 |阅读模式
本帖最后由 美剧小虾 于 2022-11-10 20:43 编辑

QQ图片20221110203355_副本.png

◎标  题 蛮战
◎译  名 蛮战之森(台) / 野蛮人
◎片  名 Barbarians
◎年  代 2020
◎产  地 德国
◎类  别 剧情 / 动作 / 历史 / 冒险
◎语  言 德语 / 拉丁语
◎IMDb评分 7.2/10 from 26144 users 更新 : 2022-11-07
◎IMDb链接 https://www.imdb.com/title/tt9184986/
◎豆瓣评分 7.4/10 from 1269 users 更新 : 2022-11-10
◎豆瓣链接 https://movie.douban.com/subject/35209271/
◎演  员 杰里米·米里克 Jeremy Miliker
       劳伦斯·鲁波 Laurence Rupp
       大卫·舒特 David Schütter
       伯恩哈德·舒茨 Bernhard Schütz
       瑟吉·诺普科 Sergej Onopko
       尼基·冯·坦珀霍夫 Nicki von Tempelhoff
       尼科莱·金斯基 Nikolai Kinski
       马迪斯·兰德维尔 Mathis Landwehr
       辛哈·梅琳娜·吉尔克 Sinha Melina Gierke
       乌尔斯·瑞恩 Urs Rechn
       阿提拉·阿帕 Attila Árpa
       达扬娜·拉季奇 Dajana Rajic
       埃娃·维纶娜·穆勒 Eva Verena Müller

◎简  介

  聚焦两千年前的著名大战、德国历史重要事件——日耳曼人与罗马帝国的条顿堡森林战役,其中“那不为人知的故事”,以三个命运相互联系起来的年轻人的视角展开。

Video
ID : 1
Format : HEVC
Format/Info : High Efficiency Video Coding
Format profile : Main 10@L5@Main
Codec ID : V_MPEGH/ISO/HEVC
Duration : 51 min 48 s
Bit rate : 10.2 Mb/s
Width : 3 840 pixels
Height : 2 160 pixels
Display aspect ratio : 16:9
Frame rate mode : Constant
Frame rate : 24.000 FPS
Color space : YUV
Chroma subsampling : 4:2:0
Bit depth : 10 bits
Bits/(Pixel*Frame) : 0.051
Stream size : 3.70 GiB (89%)
Language : German
Default : Yes
Forced : No
Color range : Limited
Color primaries : BT.709
Transfer characteristics : BT.709
Matrix coefficients : BT.709

Audio #1
ID : 2
Format : E-AC-3
Format/Info : Enhanced AC-3
Commercial name : Dolby Digital Plus
Codec ID : A_EAC3
Duration : 51 min 48 s
Bit rate mode : Constant
Bit rate : 640 kb/s
Channel(s) : 6 channels
Channel layout : L R C LFE Ls Rs
Sampling rate : 48.0 kHz
Frame rate : 31.250 FPS (1536 SPF)
Compression mode : Lossy
Stream size : 237 MiB (6%)
Language : German
Service kind : Complete Main
Default : Yes
Forced : No

Audio #2
ID : 3
Format : E-AC-3
Format/Info : Enhanced AC-3
Commercial name : Dolby Digital Plus
Codec ID : A_EAC3
Duration : 51 min 48 s
Bit rate mode : Constant
Bit rate : 640 kb/s
Channel(s) : 6 channels
Channel layout : L R C LFE Ls Rs
Sampling rate : 48.0 kHz
Frame rate : 31.250 FPS (1536 SPF)
Compression mode : Lossy
Stream size : 237 MiB (6%)
Language : English
Service kind : Complete Main
Default : No
Forced : No

Text #1
ID : 4
Format : UTF-8
Codec ID : S_TEXT/UTF8
Codec ID/Info : UTF-8 Plain Text
Duration : 46 min 29 s
Bit rate : 33 b/s
Frame rate : 0.147 FPS
Count of elements : 409
Stream size : 11.4 KiB (0%)
Language : German
Default : No
Forced : No

Text #2
ID : 5
Format : UTF-8
Codec ID : S_TEXT/UTF8
Codec ID/Info : UTF-8 Plain Text
Duration : 46 min 32 s
Bit rate : 47 b/s
Frame rate : 0.217 FPS
Count of elements : 606
Stream size : 16.3 KiB (0%)
Title : SDH
Language : German
Default : No
Forced : No

Text #3
ID : 6
Format : UTF-8
Codec ID : S_TEXT/UTF8
Codec ID/Info : UTF-8 Plain Text
Duration : 43 min 39 s
Bit rate : 6 b/s
Frame rate : 0.030 FPS
Count of elements : 78
Stream size : 2.12 KiB (0%)
Title : Forced
Language : English
Default : No
Forced : Yes

Text #4
ID : 7
Format : UTF-8
Codec ID : S_TEXT/UTF8
Codec ID/Info : UTF-8 Plain Text
Duration : 50 min 55 s
Bit rate : 26 b/s
Frame rate : 0.130 FPS
Count of elements : 397
Stream size : 10.1 KiB (0%)
Language : English
Default : No
Forced : No

Text #5
ID : 8
Format : UTF-8
Codec ID : S_TEXT/UTF8
Codec ID/Info : UTF-8 Plain Text
Duration : 46 min 41 s
Bit rate : 42 b/s
Frame rate : 0.206 FPS
Count of elements : 578
Stream size : 14.4 KiB (0%)
Title : SDH
Language : English
Default : No
Forced : No

Text #6
ID : 9
Format : UTF-8
Codec ID : S_TEXT/UTF8
Codec ID/Info : UTF-8 Plain Text
Duration : 50 min 57 s
Bit rate : 48 b/s
Frame rate : 0.132 FPS
Count of elements : 404
Stream size : 18.2 KiB (0%)
Language : Arabic
Default : No
Forced : No

Text #7
ID : 10
Format : UTF-8
Codec ID : S_TEXT/UTF8
Codec ID/Info : UTF-8 Plain Text
Duration : 50 min 55 s
Bit rate : 26 b/s
Frame rate : 0.132 FPS
Count of elements : 403
Stream size : 9.89 KiB (0%)
Language : Czech
Default : No
Forced : No

Text #8
ID : 11
Format : UTF-8
Codec ID : S_TEXT/UTF8
Codec ID/Info : UTF-8 Plain Text
Duration : 50 min 55 s
Bit rate : 26 b/s
Frame rate : 0.115 FPS
Count of elements : 350
Stream size : 9.85 KiB (0%)
Language : Danish
Default : No
Forced : No

Text #9
ID : 12
Format : UTF-8
Codec ID : S_TEXT/UTF8
Codec ID/Info : UTF-8 Plain Text
Duration : 50 min 51 s
Bit rate : 46 b/s
Frame rate : 0.128 FPS
Count of elements : 392
Stream size : 17.4 KiB (0%)
Language : Greek
Default : No
Forced : No

Text #10
ID : 13
Format : UTF-8
Codec ID : S_TEXT/UTF8
Codec ID/Info : UTF-8 Plain Text
Duration : 50 min 55 s
Bit rate : 27 b/s
Frame rate : 0.133 FPS
Count of elements : 406
Stream size : 10.2 KiB (0%)
Title : Latin American
Language : Spanish
Default : No
Forced : No

Text #11
ID : 14
Format : UTF-8
Codec ID : S_TEXT/UTF8
Codec ID/Info : UTF-8 Plain Text
Duration : 50 min 57 s
Bit rate : 27 b/s
Frame rate : 0.131 FPS
Count of elements : 400
Stream size : 10.4 KiB (0%)
Language : Spanish
Default : No
Forced : No

Text #12
ID : 15
Format : UTF-8
Codec ID : S_TEXT/UTF8
Codec ID/Info : UTF-8 Plain Text
Duration : 50 min 55 s
Bit rate : 25 b/s
Frame rate : 0.131 FPS
Count of elements : 399
Stream size : 9.37 KiB (0%)
Language : Finnish
Default : No
Forced : No

Text #13
ID : 16
Format : UTF-8
Codec ID : S_TEXT/UTF8
Codec ID/Info : UTF-8 Plain Text
Duration : 50 min 57 s
Bit rate : 28 b/s
Frame rate : 0.131 FPS
Count of elements : 402
Stream size : 10.8 KiB (0%)
Language : French
Default : No
Forced : No

Text #14
ID : 17
Format : UTF-8
Codec ID : S_TEXT/UTF8
Codec ID/Info : UTF-8 Plain Text
Duration : 46 min 36 s
Bit rate : 47 b/s
Frame rate : 0.145 FPS
Count of elements : 406
Stream size : 16.4 KiB (0%)
Language : Hebrew
Default : No
Forced : No

Text #15
ID : 18
Format : UTF-8
Codec ID : S_TEXT/UTF8
Codec ID/Info : UTF-8 Plain Text
Duration : 50 min 57 s
Bit rate : 25 b/s
Frame rate : 0.131 FPS
Count of elements : 402
Stream size : 9.38 KiB (0%)
Language : Croatian
Default : No
Forced : No

Text #16
ID : 19
Format : UTF-8
Codec ID : S_TEXT/UTF8
Codec ID/Info : UTF-8 Plain Text
Duration : 50 min 55 s
Bit rate : 27 b/s
Frame rate : 0.133 FPS
Count of elements : 406
Stream size : 10.1 KiB (0%)
Language : Hungarian
Default : No
Forced : No

Text #17
ID : 20
Format : UTF-8
Codec ID : S_TEXT/UTF8
Codec ID/Info : UTF-8 Plain Text
Duration : 50 min 54 s
Bit rate : 28 b/s
Frame rate : 0.133 FPS
Count of elements : 405
Stream size : 10.6 KiB (0%)
Language : Indonesian
Default : No
Forced : No

Text #18
ID : 21
Format : UTF-8
Codec ID : S_TEXT/UTF8
Codec ID/Info : UTF-8 Plain Text
Duration : 50 min 57 s
Bit rate : 27 b/s
Frame rate : 0.130 FPS
Count of elements : 398
Stream size : 10.2 KiB (0%)
Language : Italian
Default : No
Forced : No

Text #19
ID : 22
Format : UTF-8
Codec ID : S_TEXT/UTF8
Codec ID/Info : UTF-8 Plain Text
Duration : 50 min 55 s
Bit rate : 29 b/s
Frame rate : 0.132 FPS
Count of elements : 403
Stream size : 11.1 KiB (0%)
Language : Japanese
Default : No
Forced : No

Text #20
ID : 23
Format : UTF-8
Codec ID : S_TEXT/UTF8
Codec ID/Info : UTF-8 Plain Text
Duration : 50 min 55 s
Bit rate : 37 b/s
Frame rate : 0.137 FPS
Count of elements : 419
Stream size : 14.0 KiB (0%)
Language : Korean
Default : No
Forced : No

Text #21
ID : 24
Format : UTF-8
Codec ID : S_TEXT/UTF8
Codec ID/Info : UTF-8 Plain Text
Duration : 50 min 57 s
Bit rate : 26 b/s
Frame rate : 0.131 FPS
Count of elements : 402
Stream size : 10.0 KiB (0%)
Language : Malay
Default : No
Forced : No

Text #22
ID : 25
Format : UTF-8
Codec ID : S_TEXT/UTF8
Codec ID/Info : UTF-8 Plain Text
Duration : 50 min 57 s
Bit rate : 25 b/s
Frame rate : 0.132 FPS
Count of elements : 405
Stream size : 9.36 KiB (0%)
Language : Norwegian Bokmal
Default : No
Forced : No

Text #23
ID : 26
Format : UTF-8
Codec ID : S_TEXT/UTF8
Codec ID/Info : UTF-8 Plain Text
Duration : 50 min 57 s
Bit rate : 28 b/s
Frame rate : 0.131 FPS
Count of elements : 399
Stream size : 10.5 KiB (0%)
Language : Dutch
Default : No
Forced : No

Text #24
ID : 27
Format : UTF-8
Codec ID : S_TEXT/UTF8
Codec ID/Info : UTF-8 Plain Text
Duration : 50 min 55 s
Bit rate : 25 b/s
Frame rate : 0.132 FPS
Count of elements : 404
Stream size : 9.64 KiB (0%)
Language : Polish
Default : No
Forced : No

Text #25
ID : 28
Format : UTF-8
Codec ID : S_TEXT/UTF8
Codec ID/Info : UTF-8 Plain Text
Duration : 50 min 57 s
Bit rate : 28 b/s
Frame rate : 0.133 FPS
Count of elements : 407
Stream size : 10.5 KiB (0%)
Title : Brazilian
Language : Portuguese
Default : No
Forced : No

Text #26
ID : 29
Format : UTF-8
Codec ID : S_TEXT/UTF8
Codec ID/Info : UTF-8 Plain Text
Duration : 50 min 57 s
Bit rate : 26 b/s
Frame rate : 0.132 FPS
Count of elements : 405
Stream size : 10.0 KiB (0%)
Language : Portuguese
Default : No
Forced : No

Text #27
ID : 30
Format : UTF-8
Codec ID : S_TEXT/UTF8
Codec ID/Info : UTF-8 Plain Text
Duration : 50 min 57 s
Bit rate : 29 b/s
Frame rate : 0.131 FPS
Count of elements : 399
Stream size : 10.9 KiB (0%)
Language : Romanian
Default : No
Forced : No

Text #28
ID : 31
Format : UTF-8
Codec ID : S_TEXT/UTF8
Codec ID/Info : UTF-8 Plain Text
Duration : 50 min 56 s
Bit rate : 44 b/s
Frame rate : 0.134 FPS
Count of elements : 410
Stream size : 16.8 KiB (0%)
Language : Russian
Default : No
Forced : No

Text #29
ID : 32
Format : UTF-8
Codec ID : S_TEXT/UTF8
Codec ID/Info : UTF-8 Plain Text
Duration : 50 min 57 s
Bit rate : 27 b/s
Frame rate : 0.132 FPS
Count of elements : 404
Stream size : 10.4 KiB (0%)
Language : Swedish
Default : No
Forced : No

Text #30
ID : 33
Format : UTF-8
Codec ID : S_TEXT/UTF8
Codec ID/Info : UTF-8 Plain Text
Duration : 50 min 57 s
Bit rate : 78 b/s
Frame rate : 0.132 FPS
Count of elements : 405
Stream size : 29.4 KiB (0%)
Language : Thai
Default : No
Forced : No

Text #31
ID : 34
Format : UTF-8
Codec ID : S_TEXT/UTF8
Codec ID/Info : UTF-8 Plain Text
Duration : 50 min 55 s
Bit rate : 27 b/s
Frame rate : 0.133 FPS
Count of elements : 407
Stream size : 10.3 KiB (0%)
Language : Turkish
Default : No
Forced : No

Text #32
ID : 35
Format : UTF-8
Codec ID : S_TEXT/UTF8
Codec ID/Info : UTF-8 Plain Text
Duration : 50 min 54 s
Bit rate : 39 b/s
Frame rate : 0.130 FPS
Count of elements : 397
Stream size : 14.8 KiB (0%)
Language : Vietnamese
Default : No
Forced : No

Text #33
ID : 36
Format : UTF-8
Codec ID : S_TEXT/UTF8
Codec ID/Info : UTF-8 Plain Text
Duration : 50 min 57 s
Bit rate : 30 b/s
Frame rate : 0.132 FPS
Count of elements : 403
Stream size : 11.3 KiB (0%)
Title : 简体中字
Language : Chinese
Default : No
Forced : No

Text #34
ID : 37
Format : UTF-8
Codec ID : S_TEXT/UTF8
Codec ID/Info : UTF-8 Plain Text
Duration : 50 min 57 s
Bit rate : 29 b/s
Frame rate : 0.138 FPS
Count of elements : 422
Stream size : 11.2 KiB (0%)
Title : 繁体中字
Language : Chinese
Default : No
Forced : No

下载地址:

游客,如果您要查看本帖隐藏内容请回复






上一篇:制裁者[简繁粤中字]/The Punisher (2019) 第二季全/4K高清版本下载
下一篇:幽灵写手[简繁粤中字]/Ghostwriter(2020)第三季全/4K高清版本下载
回复

使用道具 举报

21

主题

1224

帖子

3666

积分

4K家园VIP

Rank: 9Rank: 9Rank: 9

积分
3666
发表于 2022-11-10 21:04:12 | 显示全部楼层
LZ敢整点更有创意的不?兄弟们等着围观捏~
回复 支持 反对

使用道具 举报

主题

帖子

0

积分

4K家园VIP

Rank: 9Rank: 9Rank: 9

积分
0
发表于 2022-11-11 08:03:54 | 显示全部楼层
太好啦&萬分感謝版主的無私發佈分享%
回复 支持 反对

使用道具 举报

0

主题

2

帖子

9

积分

新手上路

Rank: 1

积分
9
发表于 2022-11-13 23:28:01 来自手机 | 显示全部楼层
希望更好
回复

使用道具 举报

0

主题

2

帖子

9

积分

新手上路

Rank: 1

积分
9
发表于 2022-11-13 23:29:13 来自手机 | 显示全部楼层
yhy694286700 发表于 2022-11-13 23:28
希望更好

什么时候可以下载
回复 支持 反对

使用道具 举报

您需要登录后才可以回帖 登录 | 立即注册

本版积分规则

精彩图文
Archiver|手机版|TAG|Sitemap|新帖|专题|联系我们:邮箱: 4kjia.com@gmail.com   

4k家园   ©2019