幽灵写手[简繁粤中字]/Ghostwriter(2020)第三季全/4K高清版本下载

[复制链接]

主题

帖子

0

积分

超级版主

Rank: 8Rank: 8

积分
0
 楼主| 发表于 2022-11-10 20:58:06 | 显示全部楼层 |阅读模式
本帖最后由 美剧小虾 于 2022-11-10 21:00 编辑

p2571153411_副本.jpg

◎译  名 幽灵写手 第三季
◎片  名 Ghostwriter Season 3
◎年  代 2022
◎产  地 美国
◎类  别 悬疑/奇幻
◎语  言 英语
◎上映日期 2022-10-21(美国)
◎IMDb评分 5.7/10 from 953 users 更新 : 2022-11-08
◎IMDb链接  https://www.imdb.com/title/tt21942674/
◎豆瓣评分 5.9/10 from 132 users 更新 : 2022-11-10
◎豆瓣链接 https://douban.com/subject/36112209/
◎导  演    Mars Horodyski / Mars Horodyski / 梅兰妮·奥尔 Melanie Orr / 卢克·梅瑟尼 Luke Matheny
◎编  剧 阿明塔·戈耶尔 Aminta Goyel / 卢克·梅瑟尼 Luke Matheny
◎演  员 艾萨克·阿雷兰斯 Isaac Arellanes
                    汉娜·莱文森 Hannah Levinson
                    阿马迪·查帕塔 Amadi Chapata
                    J 圣地亚哥苏亚雷斯J. Santiago Suárez
                    贾斯汀·桑切斯 Justin Sanchez
                    尼古拉·科雷亚·达穆德 Nicola Correia-Damude
                    罗梅尔·德席尔瓦 Romel De Silva
                    丽莎·贝瑞 Lisa Berry
                    迈克尔·布朗 Michael Brown

                    阿里·科恩 Ari Cohen
                    托尼·奥福里 Tony Ofori
                    朱莉娅·托马森 Julia Tomasone
                    卢卡·维拉奇斯 Luca Villacis
                    塔玛拉·阿尔梅达 Tamara Almeida
                    帕克·劳森 Parker Lauzon
                    道格·麦克劳德Doug MacLeod
                    Rhoslynne Bugay Rhoslynne Bugay
                    罗曼·佩西诺 Roman Pesino


◎简  介

  哪里有书,哪里就有冒险。10月21日,《幽灵作家》的所有新剧集在苹果电视台首播,与新朋友尼娅、萨米尔和查理一起探索当地书店的神秘和神奇+
Video
ID : 1
Format : HEVC
Format/Info : High Efficiency Video Coding
Format profile : Main 10@L5@High
HDR format : Dolby Vision, Version 1.0, dvhe.05.06, BL+RPU
Codec ID : dvhe
Codec ID/Info : High Efficiency Video Coding with Dolby Vision
Duration : 31 min 52 s
Bit rate : 24.5 Mb/s
Width : 3 840 pixels
Height : 1 920 pixels
Display aspect ratio : 2.000
Frame rate mode : Constant
Frame rate : 23.976 (24000/1001) FPS
Color space : YUV
Chroma subsampling : 4:2:0
Bit depth : 10 bits
Bits/(Pixel*Frame) : 0.139
Stream size : 5.46 GiB (97%)
Default : Yes
Alternate group : 1
Encoded date : UTC 2022-10-21 06:42:27
Tagged date : UTC 2022-10-21 06:42:47
Codec configuration box : hvcC+dvcC

Audio
ID : 2
Format : E-AC-3 JOC
Format/Info : Enhanced AC-3 with Joint Object Coding
Commercial name : Dolby Digital Plus with Dolby Atmos
Codec ID : ec-3
Duration : 31 min 52 s
Bit rate mode : Constant
Bit rate : 768 kb/s
Maximum bit rate : 811 kb/s
Channel(s) : 6 channels
Channel layout : L R C LFE Ls Rs
Sampling rate : 48.0 kHz
Frame rate : 31.250 FPS (1536 SPF)
Compression mode : Lossy
Stream size : 175 MiB (3%)
Title : English
Language : English
Service kind : Complete Main
Default : Yes
Alternate group : 1
Tagged date : UTC 2022-10-21 06:42:47
Complexity index : Not present / 16
Number of dynamic objects : 15
Bed channel count : 1 channel
Bed channel configuration : LFE

Text #1
ID : 3
Format : Timed Text
Codec ID : tx3g
Duration : 30 min 27 s
Bit rate mode : Variable
Bit rate : 105 b/s
Frame rate : 0.500 FPS
Stream size : 23.4 KiB (0%)
Title : English
Language : English
Forced : No
Encoded date : UTC 2022-10-21 06:42:45
Tagged date : UTC 2022-10-21 06:42:47

Text #2
ID : 4
Format : Timed Text
Codec ID : tx3g
Duration : 30 min 27 s
Bit rate mode : Variable
Bit rate : 98 b/s
Frame rate : 0.478 FPS
Stream size : 21.9 KiB (0%)
Title : English
Language : English
Forced : No
Encoded date : UTC 2022-10-21 06:42:45
Tagged date : UTC 2022-10-21 06:42:47

Text #3
ID : 5
Format : Timed Text
Codec ID : tx3g
Duration : 31 min 42 s
Bit rate mode : Variable
Bit rate : 115 b/s
Frame rate : 0.468 FPS
Stream size : 26.7 KiB (0%)
Title : Arabic
Language : Arabic
Forced : No
Encoded date : UTC 2022-10-21 06:42:45
Tagged date : UTC 2022-10-21 06:42:47

Text #4
ID : 6
Format : Timed Text
Codec ID : tx3g
Duration : 31 min 42 s
Bit rate mode : Variable
Bit rate : 116 b/s
Frame rate : 0.400 FPS
Stream size : 27.0 KiB (0%)
Title : Bulgarian
Language : Bulgarian
Forced : No
Encoded date : UTC 2022-10-21 06:42:45
Tagged date : UTC 2022-10-21 06:42:47

Text #5
ID : 7
Format : Timed Text
Codec ID : tx3g
Duration : 31 min 42 s
Bit rate mode : Variable
Bit rate : 75 b/s
Frame rate : 0.469 FPS
Stream size : 17.4 KiB (0%)
Title : 粤语中字
Language : Chinese
Forced : No
Encoded date : UTC 2022-10-21 06:42:45
Tagged date : UTC 2022-10-21 06:42:47

Text #6
ID : 8
Format : Timed Text
Codec ID : tx3g
Duration : 31 min 42 s
Bit rate mode : Variable
Bit rate : 76 b/s
Frame rate : 0.469 FPS
Stream size : 17.6 KiB (0%)
Title : 简体中字
Language : Chinese
Forced : No
Encoded date : UTC 2022-10-21 06:42:45
Tagged date : UTC 2022-10-21 06:42:47

Text #7
ID : 9
Format : Timed Text
Codec ID : tx3g
Duration : 31 min 42 s
Bit rate mode : Variable
Bit rate : 77 b/s
Frame rate : 0.469 FPS
Stream size : 17.9 KiB (0%)
Title : 繁体中字
Language : Chinese
Forced : No
Encoded date : UTC 2022-10-21 06:42:45
Tagged date : UTC 2022-10-21 06:42:47


Text #8
ID : 10
Format : Timed Text
Codec ID : tx3g
Duration : 31 min 42 s
Bit rate mode : Variable
Bit rate : 73 b/s
Frame rate : 0.414 FPS
Stream size : 17.0 KiB (0%)
Title : Czech
Language : Czech
Forced : No
Encoded date : UTC 2022-10-21 06:42:45
Tagged date : UTC 2022-10-21 06:42:47

Text #9
ID : 11
Format : Timed Text
Codec ID : tx3g
Duration : 31 min 42 s
Bit rate mode : Variable
Bit rate : 85 b/s
Frame rate : 0.406 FPS
Stream size : 19.8 KiB (0%)
Title : Danish
Language : Danish
Forced : No
Encoded date : UTC 2022-10-21 06:42:46
Tagged date : UTC 2022-10-21 06:42:47

Text #10
ID : 12
Format : Timed Text
Codec ID : tx3g
Duration : 31 min 42 s
Bit rate mode : Variable
Bit rate : 70 b/s
Frame rate : 0.335 FPS
Stream size : 16.3 KiB (0%)
Title : Dutch
Language : Dutch
Forced : No
Encoded date : UTC 2022-10-21 06:42:46
Tagged date : UTC 2022-10-21 06:42:47

Text #11
ID : 13
Format : Timed Text
Codec ID : tx3g
Duration : 31 min 42 s
Bit rate mode : Variable
Bit rate : 73 b/s
Frame rate : 0.385 FPS
Stream size : 16.9 KiB (0%)
Title : Estonian
Language : Estonian
Forced : No
Encoded date : UTC 2022-10-21 06:42:46
Tagged date : UTC 2022-10-21 06:42:47

Text #12
ID : 14
Format : Timed Text
Codec ID : tx3g
Duration : 31 min 42 s
Bit rate mode : Variable
Bit rate : 77 b/s
Frame rate : 0.421 FPS
Stream size : 17.8 KiB (0%)
Title : Finnish
Language : Finnish
Forced : No
Encoded date : UTC 2022-10-21 06:42:46
Tagged date : UTC 2022-10-21 06:42:47

Text #13
ID : 15
Format : Timed Text
Codec ID : tx3g
Duration : 31 min 6 s
Bit rate mode : Variable
Bit rate : 86 b/s
Frame rate : 0.485 FPS
Stream size : 19.6 KiB (0%)
Title : French
Language : French
Forced : No
Encoded date : UTC 2022-10-21 06:42:46
Tagged date : UTC 2022-10-21 06:42:47

Text #14
ID : 16
Format : Timed Text
Codec ID : tx3g
Duration : 31 min 6 s
Bit rate mode : Variable
Bit rate : 86 b/s
Frame rate : 0.485 FPS
Stream size : 19.6 KiB (0%)
Title : French-CA
Language : French
Forced : No
Encoded date : UTC 2022-10-21 06:42:46
Tagged date : UTC 2022-10-21 06:42:47

Text #15
ID : 17
Format : Timed Text
Codec ID : tx3g
Duration : 31 min 18 s
Bit rate mode : Variable
Bit rate : 96 b/s
Frame rate : 0.475 FPS
Stream size : 21.9 KiB (0%)
Title : German
Language : German
Forced : No
Encoded date : UTC 2022-10-21 06:42:46
Tagged date : UTC 2022-10-21 06:42:47

Text #16
ID : 18
Format : Timed Text
Codec ID : tx3g
Duration : 31 min 42 s
Bit rate mode : Variable
Bit rate : 122 b/s
Frame rate : 0.412 FPS
Stream size : 28.3 KiB (0%)
Title : Greek
Language : Greek
Forced : No
Encoded date : UTC 2022-10-21 06:42:46
Tagged date : UTC 2022-10-21 06:42:47

Text #17
ID : 19
Format : Timed Text
Codec ID : tx3g
Duration : 31 min 42 s
Bit rate mode : Variable
Bit rate : 114 b/s
Frame rate : 0.469 FPS
Stream size : 26.5 KiB (0%)
Title : Hebrew
Language : Hebrew
Forced : No
Encoded date : UTC 2022-10-21 06:42:46
Tagged date : UTC 2022-10-21 06:42:47

Text #18
ID : 20
Format : Timed Text
Codec ID : tx3g
Duration : 31 min 42 s
Bit rate mode : Variable
Bit rate : 216 b/s
Frame rate : 0.469 FPS
Stream size : 50.2 KiB (0%)
Title : Hindi
Language : Hindi
Forced : No
Encoded date : UTC 2022-10-21 06:42:46
Tagged date : UTC 2022-10-21 06:42:47

Text #19
ID : 21
Format : Timed Text
Codec ID : tx3g
Duration : 31 min 42 s
Bit rate mode : Variable
Bit rate : 87 b/s
Frame rate : 0.462 FPS
Stream size : 20.2 KiB (0%)
Title : Hungarian
Language : Hungarian
Forced : No
Encoded date : UTC 2022-10-21 06:42:46
Tagged date : UTC 2022-10-21 06:42:47

Text #20
ID : 22
Format : Timed Text
Codec ID : tx3g
Duration : 31 min 42 s
Bit rate mode : Variable
Bit rate : 93 b/s
Frame rate : 0.466 FPS
Stream size : 21.5 KiB (0%)
Title : Indonesian
Language : Indonesian
Forced : No
Encoded date : UTC 2022-10-21 06:42:46
Tagged date : UTC 2022-10-21 06:42:47

Text #21
ID : 23
Format : Timed Text
Codec ID : tx3g
Duration : 31 min 29 s
Bit rate mode : Variable
Bit rate : 96 b/s
Frame rate : 0.469 FPS
Stream size : 22.1 KiB (0%)
Title : Italian
Language : Italian
Forced : No
Encoded date : UTC 2022-10-21 06:42:46
Tagged date : UTC 2022-10-21 06:42:47

Text #22
ID : 24
Format : Timed Text
Codec ID : tx3g
Duration : 31 min 51 s
Bit rate mode : Variable
Bit rate : 68 b/s
Frame rate : 0.514 FPS
Stream size : 15.9 KiB (0%)
Title : Japanese
Language : Japanese
Forced : No
Encoded date : UTC 2022-10-21 06:42:46
Tagged date : UTC 2022-10-21 06:42:47

Text #23
ID : 25
Format : Timed Text
Codec ID : tx3g
Duration : 31 min 42 s
Bit rate mode : Variable
Bit rate : 96 b/s
Frame rate : 0.469 FPS
Stream size : 22.2 KiB (0%)
Title : Korean
Language : Korean
Forced : No
Encoded date : UTC 2022-10-21 06:42:46
Tagged date : UTC 2022-10-21 06:42:47

Text #24
ID : 26
Format : Timed Text
Codec ID : tx3g
Duration : 31 min 42 s
Bit rate mode : Variable
Bit rate : 94 b/s
Frame rate : 0.452 FPS
Stream size : 21.9 KiB (0%)
Title : Latvian
Language : Latvian
Forced : No
Encoded date : UTC 2022-10-21 06:42:46
Tagged date : UTC 2022-10-21 06:42:47

Text #25
ID : 27
Format : Timed Text
Codec ID : tx3g
Duration : 31 min 42 s
Bit rate mode : Variable
Bit rate : 95 b/s
Frame rate : 0.467 FPS
Stream size : 22.0 KiB (0%)
Title : Lithuanian
Language : Lithuanian
Forced : No
Encoded date : UTC 2022-10-21 06:42:46
Tagged date : UTC 2022-10-21 06:42:47

Text #26
ID : 28
Format : Timed Text
Codec ID : tx3g
Duration : 31 min 42 s
Bit rate mode : Variable
Bit rate : 95 b/s
Frame rate : 0.465 FPS
Stream size : 22.2 KiB (0%)
Title : Malay
Language : Malay
Forced : No
Encoded date : UTC 2022-10-21 06:42:46
Tagged date : UTC 2022-10-21 06:42:47

Text #27
ID : 29
Format : Timed Text
Codec ID : tx3g
Duration : 31 min 42 s
Bit rate mode : Variable
Bit rate : 70 b/s
Frame rate : 0.347 FPS
Stream size : 16.4 KiB (0%)
Title : Norwegian
Language : Norwegian
Forced : No
Encoded date : UTC 2022-10-21 06:42:46
Tagged date : UTC 2022-10-21 06:42:47

Text #28
ID : 30
Format : Timed Text
Codec ID : tx3g
Duration : 31 min 42 s
Bit rate mode : Variable
Bit rate : 78 b/s
Frame rate : 0.453 FPS
Stream size : 18.2 KiB (0%)
Title : Polish
Language : Polish
Forced : No
Encoded date : UTC 2022-10-21 06:42:46
Tagged date : UTC 2022-10-21 06:42:47

Text #29
ID : 31
Format : Timed Text
Codec ID : tx3g
Duration : 31 min 42 s
Bit rate mode : Variable
Bit rate : 80 b/s
Frame rate : 0.438 FPS
Stream size : 18.6 KiB (0%)
Title : Portuguese
Language : Portuguese
Forced : No
Encoded date : UTC 2022-10-21 06:42:46
Tagged date : UTC 2022-10-21 06:42:47

Text #30
ID : 32
Format : Timed Text
Codec ID : tx3g
Duration : 31 min 42 s
Bit rate mode : Variable
Bit rate : 73 b/s
Frame rate : 0.440 FPS
Stream size : 17.0 KiB (0%)
Title : Portuguese-BR
Language : Portuguese
Forced : No
Encoded date : UTC 2022-10-21 06:42:46
Tagged date : UTC 2022-10-21 06:42:47

Text #31
ID : 33
Format : Timed Text
Codec ID : tx3g
Duration : 31 min 51 s
Bit rate mode : Variable
Bit rate : 146 b/s
Frame rate : 0.464 FPS
Stream size : 34.0 KiB (0%)
Title : Russian
Language : Russian
Forced : No
Encoded date : UTC 2022-10-21 06:42:47
Tagged date : UTC 2022-10-21 06:42:47

Text #32
ID : 34
Format : Timed Text
Codec ID : tx3g
Duration : 31 min 42 s
Bit rate mode : Variable
Bit rate : 74 b/s
Frame rate : 0.463 FPS
Stream size : 17.3 KiB (0%)
Title : Slovak
Language : Slovak
Forced : No
Encoded date : UTC 2022-10-21 06:42:47
Tagged date : UTC 2022-10-21 06:42:47

Text #33
ID : 35
Format : Timed Text
Codec ID : tx3g
Duration : 31 min 42 s
Bit rate mode : Variable
Bit rate : 64 b/s
Frame rate : 0.421 FPS
Stream size : 14.8 KiB (0%)
Title : Slovenian
Language : Slovenian
Forced : No
Encoded date : UTC 2022-10-21 06:42:47
Tagged date : UTC 2022-10-21 06:42:47

Text #34
ID : 36
Format : Timed Text
Codec ID : tx3g
Duration : 31 min 42 s
Bit rate mode : Variable
Bit rate : 90 b/s
Frame rate : 0.467 FPS
Stream size : 21.0 KiB (0%)
Title : Spanish
Language : Spanish
Forced : No
Encoded date : UTC 2022-10-21 06:42:47
Tagged date : UTC 2022-10-21 06:42:47

Text #35
ID : 37
Format : Timed Text
Codec ID : tx3g
Duration : 31 min 42 s
Bit rate mode : Variable
Bit rate : 94 b/s
Frame rate : 0.472 FPS
Stream size : 21.9 KiB (0%)
Title : Spanish-EU
Language : Spanish
Forced : No
Encoded date : UTC 2022-10-21 06:42:47
Tagged date : UTC 2022-10-21 06:42:47

Text #36
ID : 38
Format : Timed Text
Codec ID : tx3g
Duration : 31 min 42 s
Bit rate mode : Variable
Bit rate : 84 b/s
Frame rate : 0.465 FPS
Stream size : 19.5 KiB (0%)
Title : Swedish
Language : Swedish
Forced : No
Encoded date : UTC 2022-10-21 06:42:47
Tagged date : UTC 2022-10-21 06:42:47

Text #37
ID : 39
Format : Timed Text
Codec ID : tx3g
Duration : 31 min 42 s
Bit rate mode : Variable
Bit rate : 247 b/s
Frame rate : 0.469 FPS
Stream size : 57.3 KiB (0%)
Title : Tamil
Language : Tamil
Forced : No
Encoded date : UTC 2022-10-21 06:42:47
Tagged date : UTC 2022-10-21 06:42:47

Text #38
ID : 40
Format : Timed Text
Codec ID : tx3g
Duration : 31 min 42 s
Bit rate mode : Variable
Bit rate : 229 b/s
Frame rate : 0.469 FPS
Stream size : 53.1 KiB (0%)
Title : Telugu
Language : Telugu
Forced : No
Encoded date : UTC 2022-10-21 06:42:47
Tagged date : UTC 2022-10-21 06:42:47

Text #39
ID : 41
Format : Timed Text
Codec ID : tx3g
Duration : 31 min 42 s
Bit rate mode : Variable
Bit rate : 204 b/s
Frame rate : 0.469 FPS
Stream size : 47.3 KiB (0%)
Title : Thai
Language : Thai
Forced : No
Encoded date : UTC 2022-10-21 06:42:47
Tagged date : UTC 2022-10-21 06:42:47

Text #40
ID : 42
Format : Timed Text
Codec ID : tx3g
Duration : 31 min 42 s
Bit rate mode : Variable
Bit rate : 86 b/s
Frame rate : 0.420 FPS
Stream size : 19.9 KiB (0%)
Title : Turkish
Language : Turkish
Forced : No
Encoded date : UTC 2022-10-21 06:42:47
Tagged date : UTC 2022-10-21 06:42:47

Text #41
ID : 43
Format : Timed Text
Codec ID : tx3g
Duration : 31 min 42 s
Bit rate mode : Variable
Bit rate : 123 b/s
Frame rate : 0.469 FPS
Stream size : 28.5 KiB (0%)
Title : Ukrainian
Language : Ukrainian
Forced : No
Encoded date : UTC 2022-10-21 06:42:47
Tagged date : UTC 2022-10-21 06:42:47

Text #42
ID : 44
Format : Timed Text
Codec ID : tx3g
Duration : 31 min 42 s
Bit rate mode : Variable
Bit rate : 119 b/s
Frame rate : 0.467 FPS
Stream size : 27.7 KiB (0%)
Title : Vietnamese
Language : Vietnamese
Forced : No
Encoded date : UTC 2022-10-21 06:42:47
Tagged date : UTC 2022-10-21 06:42:47

下载地址:

游客,如果您要查看本帖隐藏内容请回复

游客,如果您要查看本帖隐藏内容请回复

游客,如果您要查看本帖隐藏内容请回复

游客,如果您要查看本帖隐藏内容请回复





上一篇:蛮战[简繁中字]/Barbarians (2020) 第一季全/4K高清版本下载
下一篇:特殊病人 / The.Patient(2022)第一季全/4K高清版本下载
回复

使用道具 举报

3

主题

1766

帖子

4892

积分

4K家园VIP

Rank: 9Rank: 9Rank: 9

积分
4892
发表于 2022-11-10 21:04:46 | 显示全部楼层
OMG!介是啥东东!!!
回复 支持 反对

使用道具 举报

主题

帖子

0

积分

4K家园VIP

Rank: 9Rank: 9Rank: 9

积分
0
发表于 2022-11-12 08:12:44 | 显示全部楼层
太好啦&萬分感謝版主的無私發佈分享%
回复 支持 反对

使用道具 举报

您需要登录后才可以回帖 登录 | 立即注册

本版积分规则

精彩图文
Archiver|手机版|TAG|Sitemap|新帖|专题|联系我们:邮箱: 4kjia.com@gmail.com   

4k家园   ©2019