牢里的人[简繁中字] / Inside Man (2022) 第一季全/4K高清版本下载

[复制链接]

主题

帖子

0

积分

超级版主

Rank: 8Rank: 8

积分
0
 楼主| 发表于 2022-11-10 21:38:11 | 显示全部楼层 |阅读模式
p2881052432_副本.jpg

◎标  题 牢里的人
◎译  名 局内人
◎片  名 Inside Man
◎年  代 2022
◎产  地 英国
◎类  别 剧情 / 悬疑 / 惊悚
◎语  言 英语
◎上映日期 2022-09-26(英国)
◎IMDb评分 7.2/10 (67人评价)
◎IMDb链接 https://www.imdb.com/title/tt10948716/
◎豆瓣链接 https://movie.douban.com/subject/34803127/
◎片  长 60分钟
◎导  演 保罗·麦圭根 Paul McGuigan
◎编  剧 史蒂文·莫法特 Steven Moffat
◎演  员 大卫·田纳特 David Tennant
       斯坦利·图齐 Stanley Tucci
       多莉·韦尔斯 Dolly Wells
       莉迪娅·韦斯特 Lydia West
       埃克·楚库 Eke Chukwu
       迪伦·贝克 Dylan Baker
       凯特·迪基 Kate Dickie
       琳赛·马歇尔 Lyndsey Marshal
       蒂莉·沃斯堡 Tilly Vosburgh
       西蒙·德兰尼 Simon Delaney
       柯基·法尔考 Cokey Falkow
       阿特金斯·埃斯特蒙德 Atkins Estimond
       马克·夸特利 Mark Quartley
       朱莱·纳米尔 July Namir
       吉安尼·卡尔切蒂 Gianni Calchetti


◎简  介


  聚焦一个美国的死囚犯、一个安静的英国小镇上的牧师,以及一位被困在地窖中的数学老师,他们以最出乎意料的方式越过小径。图齐将饰演剧名所指代的中心人物,莫法特对该剧剧情高度保密,甚至故事的最终走向只有其本人知道。

Video
ID : 1
Format : HEVC
Format/Info : High Efficiency Video Coding
Format profile : Main 10@L5.1@Main
Codec ID : V_MPEGH/ISO/HEVC
Duration : 59 min 32 s
Bit rate : 18.5 Mb/s
Width : 3 840 pixels
Height : 2 160 pixels
Display aspect ratio : 16:9
Frame rate mode : Constant
Frame rate : 25.000 FPS
Standard : Component
Color space : YUV
Chroma subsampling : 4:2:0
Bit depth : 10 bits
Bits/(Pixel*Frame) : 0.089
Stream size : 7.69 GiB (97%)
Default : Yes
Forced : No
Color range : Limited
Color primaries : BT.2020
Transfer characteristics : HLG
transfer_characteristics_Original : HLG / BT.2020 (10-bit)
Matrix coefficients : BT.2020 non-constant

Audio
ID : 2
Format : E-AC-3
Format/Info : Enhanced AC-3
Commercial name : Dolby Digital Plus
Codec ID : A_EAC3
Duration : 1 h 1 min
Bit rate mode : Constant
Bit rate : 640 kb/s
Channel(s) : 6 channels
Channel layout : L R C LFE Ls Rs
Sampling rate : 48.0 kHz
Frame rate : 31.250 FPS (1536 SPF)
Compression mode : Lossy
Delay relative to video : 30 ms
Stream size : 280 MiB (3%)
Language : English
Service kind : Complete Main
Default : Yes
Forced : No

Text #1
ID : 3
Format : UTF-8
Codec ID : S_TEXT/UTF8
Codec ID/Info : UTF-8 Plain Text
Duration : 59 min 16 s
Bit rate : 69 b/s
Frame rate : 0.245 FPS
Count of elements : 870
Stream size : 30.1 KiB (0%)
Language : English
Default : No
Forced : No

Text #2
ID : 4
Format : UTF-8
Codec ID : S_TEXT/UTF8
Codec ID/Info : UTF-8 Plain Text
Duration : 59 min 27 s
Bit rate : 76 b/s
Frame rate : 0.274 FPS
Count of elements : 978
Stream size : 33.4 KiB (0%)
Title : SDH
Language : English
Default : No
Forced : No

Text #3
ID : 5
Format : UTF-8
Codec ID : S_TEXT/UTF8
Codec ID/Info : UTF-8 Plain Text
Duration : 59 min 31 s
Bit rate : 95 b/s
Frame rate : 0.247 FPS
Count of elements : 882
Stream size : 41.7 KiB (0%)
Language : Arabic
Default : No
Forced : No

Text #4
ID : 6
Format : UTF-8
Codec ID : S_TEXT/UTF8
Codec ID/Info : UTF-8 Plain Text
Duration : 59 min 31 s
Bit rate : 63 b/s
Frame rate : 0.219 FPS
Count of elements : 782
Stream size : 27.6 KiB (0%)
Language : Czech
Default : No
Forced : No

Text #5
ID : 7
Format : UTF-8
Codec ID : S_TEXT/UTF8
Codec ID/Info : UTF-8 Plain Text
Duration : 59 min 31 s
Bit rate : 60 b/s
Frame rate : 0.235 FPS
Count of elements : 838
Stream size : 26.3 KiB (0%)
Language : Danish
Default : No
Forced : No

Text #6
ID : 8
Format : UTF-8
Codec ID : S_TEXT/UTF8
Codec ID/Info : UTF-8 Plain Text
Duration : 59 min 31 s
Bit rate : 61 b/s
Frame rate : 0.241 FPS
Count of elements : 862
Stream size : 26.7 KiB (0%)
Language : German
Default : No
Forced : No

Text #7
ID : 9
Format : UTF-8
Codec ID : S_TEXT/UTF8
Codec ID/Info : UTF-8 Plain Text
Duration : 58 min 56 s
Bit rate : 99 b/s
Frame rate : 0.248 FPS
Count of elements : 877
Stream size : 43.1 KiB (0%)
Language : Greek
Default : No
Forced : No

Text #8
ID : 10
Format : UTF-8
Codec ID : S_TEXT/UTF8
Codec ID/Info : UTF-8 Plain Text
Duration : 59 min 31 s
Bit rate : 61 b/s
Frame rate : 0.247 FPS
Count of elements : 883
Stream size : 26.7 KiB (0%)
Title : Spanish (Latin America)
Language : Spanish
Default : No
Forced : No

Text #9
ID : 11
Format : UTF-8
Codec ID : S_TEXT/UTF8
Codec ID/Info : UTF-8 Plain Text
Duration : 59 min 31 s
Bit rate : 59 b/s
Frame rate : 0.242 FPS
Count of elements : 864
Stream size : 25.9 KiB (0%)
Title : Spanish (Spain)
Language : Spanish
Default : No
Forced : No

Text #10
ID : 12
Format : UTF-8
Codec ID : S_TEXT/UTF8
Codec ID/Info : UTF-8 Plain Text
Duration : 59 min 31 s
Bit rate : 62 b/s
Frame rate : 0.248 FPS
Count of elements : 885
Stream size : 27.2 KiB (0%)
Language : Finnish
Default : No
Forced : No

Text #11
ID : 13
Format : UTF-8
Codec ID : S_TEXT/UTF8
Codec ID/Info : UTF-8 Plain Text
Duration : 59 min 31 s
Bit rate : 66 b/s
Frame rate : 0.244 FPS
Count of elements : 871
Stream size : 28.9 KiB (0%)
Language : fil
Default : No
Forced : No

Text #12
ID : 14
Format : UTF-8
Codec ID : S_TEXT/UTF8
Codec ID/Info : UTF-8 Plain Text
Duration : 59 min 31 s
Bit rate : 67 b/s
Frame rate : 0.247 FPS
Count of elements : 882
Stream size : 29.3 KiB (0%)
Language : French
Default : No
Forced : No

Text #13
ID : 15
Format : UTF-8
Codec ID : S_TEXT/UTF8
Codec ID/Info : UTF-8 Plain Text
Duration : 59 min 31 s
Bit rate : 86 b/s
Frame rate : 0.244 FPS
Count of elements : 872
Stream size : 37.5 KiB (0%)
Language : Hebrew
Default : No
Forced : No

Text #14
ID : 16
Format : UTF-8
Codec ID : S_TEXT/UTF8
Codec ID/Info : UTF-8 Plain Text
Duration : 59 min 31 s
Bit rate : 56 b/s
Frame rate : 0.246 FPS
Count of elements : 878
Stream size : 24.6 KiB (0%)
Language : Croatian
Default : No
Forced : No

Text #15
ID : 17
Format : UTF-8
Codec ID : S_TEXT/UTF8
Codec ID/Info : UTF-8 Plain Text
Duration : 59 min 31 s
Bit rate : 61 b/s
Frame rate : 0.244 FPS
Count of elements : 871
Stream size : 27.0 KiB (0%)
Language : Hungarian
Default : No
Forced : No

Text #16
ID : 18
Format : UTF-8
Codec ID : S_TEXT/UTF8
Codec ID/Info : UTF-8 Plain Text
Duration : 59 min 31 s
Bit rate : 61 b/s
Frame rate : 0.247 FPS
Count of elements : 884
Stream size : 26.8 KiB (0%)
Language : Indonesian
Default : No
Forced : No

Text #17
ID : 19
Format : UTF-8
Codec ID : S_TEXT/UTF8
Codec ID/Info : UTF-8 Plain Text
Duration : 59 min 31 s
Bit rate : 60 b/s
Frame rate : 0.243 FPS
Count of elements : 868
Stream size : 26.5 KiB (0%)
Language : Italian
Default : No
Forced : No

Text #18
ID : 20
Format : UTF-8
Codec ID : S_TEXT/UTF8
Codec ID/Info : UTF-8 Plain Text
Duration : 59 min 31 s
Bit rate : 52 b/s
Frame rate : 0.274 FPS
Count of elements : 977
Stream size : 22.9 KiB (0%)
Language : Japanese
Default : No
Forced : No

Text #19
ID : 21
Format : UTF-8
Codec ID : S_TEXT/UTF8
Codec ID/Info : UTF-8 Plain Text
Duration : 59 min 31 s
Bit rate : 72 b/s
Frame rate : 0.254 FPS
Count of elements : 906
Stream size : 31.5 KiB (0%)
Language : Korean
Default : No
Forced : No

Text #20
ID : 22
Format : UTF-8
Codec ID : S_TEXT/UTF8
Codec ID/Info : UTF-8 Plain Text
Duration : 59 min 31 s
Bit rate : 65 b/s
Frame rate : 0.247 FPS
Count of elements : 884
Stream size : 28.4 KiB (0%)
Language : Malay
Default : No
Forced : No

Text #21
ID : 23
Format : UTF-8
Codec ID : S_TEXT/UTF8
Codec ID/Info : UTF-8 Plain Text
Duration : 59 min 31 s
Bit rate : 60 b/s
Frame rate : 0.212 FPS
Count of elements : 758
Stream size : 26.6 KiB (0%)
Language : Norwegian Bokmal
Default : No
Forced : No

Text #22
ID : 24
Format : UTF-8
Codec ID : S_TEXT/UTF8
Codec ID/Info : UTF-8 Plain Text
Duration : 59 min 28 s
Bit rate : 57 b/s
Frame rate : 0.226 FPS
Count of elements : 805
Stream size : 25.0 KiB (0%)
Language : Dutch
Default : No
Forced : No

Text #23
ID : 25
Format : UTF-8
Codec ID : S_TEXT/UTF8
Codec ID/Info : UTF-8 Plain Text
Duration : 59 min 31 s
Bit rate : 60 b/s
Frame rate : 0.246 FPS
Count of elements : 877
Stream size : 26.4 KiB (0%)
Language : Polish
Default : No
Forced : No

Text #24
ID : 26
Format : UTF-8
Codec ID : S_TEXT/UTF8
Codec ID/Info : UTF-8 Plain Text
Duration : 59 min 31 s
Bit rate : 59 b/s
Frame rate : 0.240 FPS
Count of elements : 858
Stream size : 26.0 KiB (0%)
Title : Portuguese (Brazil)
Language : Portuguese
Default : No
Forced : No

Text #25
ID : 27
Format : UTF-8
Codec ID : S_TEXT/UTF8
Codec ID/Info : UTF-8 Plain Text
Duration : 59 min 31 s
Bit rate : 57 b/s
Frame rate : 0.243 FPS
Count of elements : 867
Stream size : 25.1 KiB (0%)
Title : Portuguese (Portugal)
Language : Portuguese
Default : No
Forced : No

Text #26
ID : 28
Format : UTF-8
Codec ID : S_TEXT/UTF8
Codec ID/Info : UTF-8 Plain Text
Duration : 59 min 30 s
Bit rate : 62 b/s
Frame rate : 0.247 FPS
Count of elements : 882
Stream size : 27.1 KiB (0%)
Language : Romanian
Default : No
Forced : No

Text #27
ID : 29
Format : UTF-8
Codec ID : S_TEXT/UTF8
Codec ID/Info : UTF-8 Plain Text
Duration : 59 min 31 s
Bit rate : 61 b/s
Frame rate : 0.237 FPS
Count of elements : 846
Stream size : 26.8 KiB (0%)
Language : Swedish
Default : No
Forced : No

Text #28
ID : 30
Format : UTF-8
Codec ID : S_TEXT/UTF8
Codec ID/Info : UTF-8 Plain Text
Duration : 59 min 31 s
Bit rate : 157 b/s
Frame rate : 0.247 FPS
Count of elements : 884
Stream size : 68.5 KiB (0%)
Language : Thai
Default : No
Forced : No

Text #29
ID : 31
Format : UTF-8
Codec ID : S_TEXT/UTF8
Codec ID/Info : UTF-8 Plain Text
Duration : 59 min 31 s
Bit rate : 64 b/s
Frame rate : 0.242 FPS
Count of elements : 863
Stream size : 28.2 KiB (0%)
Language : Turkish
Default : No
Forced : No

Text #30
ID : 32
Format : UTF-8
Codec ID : S_TEXT/UTF8
Codec ID/Info : UTF-8 Plain Text
Duration : 59 min 31 s
Bit rate : 108 b/s
Frame rate : 0.246 FPS
Count of elements : 877
Stream size : 47.5 KiB (0%)
Language : Ukrainian
Default : No
Forced : No

Text #31
ID : 33
Format : UTF-8
Codec ID : S_TEXT/UTF8
Codec ID/Info : UTF-8 Plain Text
Duration : 59 min 31 s
Bit rate : 80 b/s
Frame rate : 0.220 FPS
Count of elements : 787
Stream size : 35.1 KiB (0%)
Language : Vietnamese
Default : No
Forced : No

Text #32
ID : 34
Format : UTF-8
Codec ID : S_TEXT/UTF8
Codec ID/Info : UTF-8 Plain Text
Duration : 59 min 31 s
Bit rate : 60 b/s
Frame rate : 0.247 FPS
Count of elements : 884
Stream size : 26.6 KiB (0%)
Title : 简体中字
Language : Chinese
Default : No
Forced : No

Text #33
ID : 35
Format : UTF-8
Codec ID : S_TEXT/UTF8
Codec ID/Info : UTF-8 Plain Text
Duration : 59 min 31 s
Bit rate : 55 b/s
Frame rate : 0.262 FPS
Count of elements : 937
Stream size : 24.0 KiB (0%)
Title : 繁体中字
Language : Chinese
Default : No
Forced : No


下载地址:

游客,如果您要查看本帖隐藏内容请回复

游客,如果您要查看本帖隐藏内容请回复






上一篇:星球大战:绝地传奇 [简繁粤] (2022)第一季全/4K高清版本下载
下一篇:吸血鬼学院 / Vampire Academy (2022) 第一季全/4K高清版本下载
回复

使用道具 举报

38

主题

1591

帖子

4553

积分

4K家园VIP

Rank: 9Rank: 9Rank: 9

积分
4553
发表于 2022-11-10 21:39:33 | 显示全部楼层
小白一个 顶一下
回复 支持 反对

使用道具 举报

主题

帖子

60

积分

新手上路

Rank: 1

积分
60
发表于 2022-11-11 23:32:42 | 显示全部楼层
支持支持支持
回复 支持 反对

使用道具 举报

您需要登录后才可以回帖 登录 | 立即注册

本版积分规则

精彩图文
Archiver|手机版|TAG|Sitemap|新帖|专题|联系我们:邮箱: 4kjia.com@gmail.com   

4k家园   ©2019