[4K电影] 阿姆斯特丹 / Amsterdam (2022) 4K高清版本下载

  [复制链接]

主题

帖子

0

积分

超级版主

Rank: 8Rank: 8

积分
0
 楼主| 发表于 2022-11-11 20:51:47 | 显示全部楼层 |阅读模式
本帖最后由 最爱4K哟 于 2022-11-14 13:26 编辑

QQ图片20221114132442_副本.png

◎标  题 阿姆斯特丹
◎译  名 坎特伯雷花窗 / Canterbury Glass
◎片  名 Amsterdam
◎年  代 2022
◎产  地 美国
◎类  别 喜剧 / 悬疑 / 历史
◎语  言 英语
◎上映日期 2022-09-27(美国IMAX) / 2022-10-07(美国)
◎IMDb评分 6.2/10 from 16200 users   更新 : 2022-11-11
◎IMDb链接 https://www.imdb.com/title/tt10304142/
◎豆瓣评分 5.9/10 from 816 users   更新 : 2022-11-11
◎豆瓣链接 https://movie.douban.com/subject/33434802/
◎片  长 134分钟
◎导  演 大卫·O·拉塞尔 David O. Russell
◎编  剧 大卫·O·拉塞尔 David O. Russell
◎演  员 克里斯蒂安·贝尔 Christian Bale
       玛格特·罗比 Margot Robbie
       约翰·大卫·华盛顿 John David Washington
       亚历桑德罗·尼沃拉 Alessandro Nivola
       安德丽娅·赖斯伯勒 Andrea Riseborough
       安雅·泰勒-乔伊 Anya Taylor-Joy
       克里斯·洛克 Chris Rock
       马提亚斯·修奈尔 Matthias Schoenaerts
       迈克尔·珊农 Michael Shannon
       麦克·梅尔斯 Mike Myers
       泰勒·斯威夫特 Taylor Swift
       蒂莫西·奥利芬特 Timothy Olyphant
       佐伊·索尔达娜 Zoe Saldana
       拉米·马雷克 Rami Malek
       罗伯特·德尼罗 Robert De Niro
       梅尔·法尔 Mel Fair
       邦尼·赫尔曼 Bonnie Hellman
       马克斯·佩利希 Max Perlich
       小艾德·博格里 Ed Begley Jr.
       考林·加普 Colleen Camp
       劳伦·肖 Lauren Shaw
       布兰登·戴维斯 Brandon Davis
       凯西·比格斯 Casey Biggs
       戴·扬 Dey Young
       肖恩·艾弗里 Sean Avery
       洁基伯明翰 Gigi Bermingham
       瑞贝卡·薇索基 Rebecca Wisocky
       史蒂文·哈克 Steven Hack
       贝丝·格兰特 Beth Grant
       汤姆·埃尔文 Tom Irwin
       利兰·奥瑟 Leland Orser
       马丁·威廉·哈里斯 Martin William Harris
       文森特·M·比肖内 Vincent M. Biscione
       詹姆斯·亨特 James Hunter
       亚当·G·西蒙 Adam G. Simon
       希尔迪·居兹纳多蒂尔 Hildur Guðnadóttir
       艾曼努尔·卢贝兹基 Emmanuel Lubezki
       朱迪·贝克尔 Judy Becker
       艾伯特·沃斯基 Albert Wolsky
       J.R. Hawbaker J.R. Hawbaker


◎简  介


   三位好友,一桩谜案,惊天阴谋,即将揭晓...... 全明星阵容共同演绎,奥斯卡提名导演大卫·O·拉塞尔执导,克里斯蒂安·贝尔、玛格特·罗比、约翰·大卫·华盛顿主演,泰勒·斯威夫特惊喜亮相!当目击者变成嫌疑人,身处风暴中心的他们,该如何守护彼此,发现真相?

Video
ID : 1
Format : HEVC
Format/Info : High Efficiency Video Coding
Format profile : Main 10@L5@High
HDR format : SMPTE ST 2094 App 4, Version 1, HDR10+ Profile B compatible
Codec ID : V_MPEGH/ISO/HEVC
Duration : 2 h 14 min
Bit rate : 24.1 Mb/s
Width : 3 840 pixels
Height : 1 608 pixels
Display aspect ratio : 2.40:1
Frame rate mode : Constant
Frame rate : 23.976 (24000/1001) FPS
Color space : YUV
Chroma subsampling : 4:2:0 (Type 2)
Bit depth : 10 bits
Bits/(Pixel*Frame) : 0.163
Stream size : 22.6 GiB (95%)
Language : English
Default : Yes
Forced : No
Color range : Limited
Color primaries : BT.2020
Transfer characteristics : PQ
Matrix coefficients : BT.2020 non-constant
Mastering display color primaries : BT.2020
Mastering display luminance : min: 0.0050 cd/m2, max: 1000 cd/m2
Maximum Content Light Level : 243 cd/m2
Maximum Frame-Average Light Level : 103 cd/m2

Audio
ID : 2
Format : E-AC-3 JOC
Format/Info : Enhanced AC-3 with Joint Object Coding
Commercial name : Dolby Digital Plus with Dolby Atmos
Codec ID : A_EAC3
Duration : 2 h 14 min
Bit rate mode : Constant
Bit rate : 768 kb/s
Channel(s) : 6 channels
Channel layout : L R C LFE Ls Rs
Sampling rate : 48.0 kHz
Frame rate : 31.250 FPS (1536 SPF)
Compression mode : Lossy
Stream size : 737 MiB (3%)
Language : English
Service kind : Complete Main
Default : Yes
Forced : No
Complexity index : 16
Number of dynamic objects : 15
Bed channel count : 1 channel
Bed channel configuration : LFE

Text #1
ID : 3
Format : UTF-8
Codec ID : S_TEXT/UTF8
Codec ID/Info : UTF-8 Plain Text
Title : English
Language : English
Default : No
Forced : No

Text #2
ID : 4
Format : UTF-8
Codec ID : S_TEXT/UTF8
Codec ID/Info : UTF-8 Plain Text
Title : English [Forced]
Language : English
Default : Yes
Forced : Yes

Text #3
ID : 5
Format : UTF-8
Codec ID : S_TEXT/UTF8
Codec ID/Info : UTF-8 Plain Text
Title : English
Language : English
Default : No
Forced : No

Text #4
ID : 6
Format : UTF-8
Codec ID : S_TEXT/UTF8
Codec ID/Info : UTF-8 Plain Text
Title : French Canadian
Language : French
Default : No
Forced : No

Text #5
ID : 7
Format : UTF-8
Codec ID : S_TEXT/UTF8
Codec ID/Info : UTF-8 Plain Text
Title : Latin America Spanish
Language : Spanish
Default : No
Forced : No

资源速度为零或资源敏感被和谐时,推荐使用qBittorrent等下载软件,有条件的推荐115更好的下载软件!

下载地址:

游客,如果您要查看本帖隐藏内容请回复

游客,如果您要查看本帖隐藏内容请回复

游客,如果您要查看本帖隐藏内容请回复

游客,如果您要查看本帖隐藏内容请回复

游客,如果您要查看本帖隐藏内容请回复

游客,如果您要查看本帖隐藏内容请回复







上一篇:蕾哈娜内衣秀4 [简繁中字] (2022) 4K高清版本下载
下一篇:天堂门票 / Ticket To Paradise (2022) 4K高清版本下载
回复

使用道具 举报

1

主题

1472

帖子

4260

积分

4K家园VIP

Rank: 9Rank: 9Rank: 9

积分
4260
发表于 2022-11-11 20:51:52 | 显示全部楼层
有4K版卡,下个看下
回复 支持 反对

使用道具 举报

1

主题

1429

帖子

4305

积分

4K家园VIP

Rank: 9Rank: 9Rank: 9

积分
4305
发表于 2022-11-11 20:52:39 来自手机 | 显示全部楼层
感谢分享
回复 支持 反对

使用道具 举报

60

主题

1541

帖子

4479

积分

4K家园VIP

Rank: 9Rank: 9Rank: 9

积分
4479
发表于 2022-11-11 21:18:05 | 显示全部楼层
支持楼主,用户楼主,楼主英明呀!!!
回复 支持 反对

使用道具 举报

4

主题

1409

帖子

4249

积分

4K家园VIP

Rank: 9Rank: 9Rank: 9

积分
4249
发表于 2022-11-11 22:26:25 | 显示全部楼层
回个帖子,下班咯~
回复 支持 反对

使用道具 举报

46

主题

1487

帖子

4289

积分

4K家园VIP

Rank: 9Rank: 9Rank: 9

积分
4289
发表于 2022-11-12 00:00:10 来自手机 | 显示全部楼层
众里寻他千百度,蓦然回首在这里!
回复 支持 反对

使用道具 举报

主题

帖子

0

积分

4K家园VIP

Rank: 9Rank: 9Rank: 9

积分
0
发表于 2022-11-12 08:11:59 | 显示全部楼层
太好啦&萬分感謝版主的無私發佈分享%
回复 支持 反对

使用道具 举报

主题

帖子

15

积分

新手上路

Rank: 1

积分
15
发表于 2022-11-12 10:32:03 | 显示全部楼层
看看看看看看
回复 支持 反对

使用道具 举报

主题

帖子

0

积分

4K家园VIP

Rank: 9Rank: 9Rank: 9

积分
0
发表于 2022-11-12 14:18:05 | 显示全部楼层
爱看类型!!
回复

使用道具 举报

主题

帖子

0

积分

新手上路

Rank: 1

积分
0
发表于 2022-11-12 23:16:57 | 显示全部楼层
刚刚看到有关的介绍,就来找找看
回复 支持 反对

使用道具 举报

您需要登录后才可以回帖 登录 | 立即注册

本版积分规则

精彩图文
Archiver|手机版|TAG|Sitemap|新帖|专题|联系我们:邮箱: 4kjia.com@gmail.com   

4k家园   ©2019