[4K电影] 天堂门票 / Ticket To Paradise (2022) 4K高清版本下载

[复制链接]

主题

帖子

0

积分

超级版主

Rank: 8Rank: 8

积分
0
 楼主| 发表于 2022-11-11 21:01:01 | 显示全部楼层 |阅读模式
本帖最后由 最爱4K哟 于 2022-11-11 21:01 编辑

171727zqvx5dwllst9re72.png

◎标  题 天堂门票
◎译  名 幸福入场券(台) / 天堂的门票 / 通天票
◎片  名 Ticket To Paradise
◎年  代 2022
◎产  地 美国
◎类  别 喜剧 / 爱情
◎语  言 英语
◎上映日期 2022-09-14(澳大利亚) / 2022-10-21(美国)
◎IMDb评分 6.2/10 from 19582 users 更新 : 2022-11-08
◎IMDb链接 https://www.imdb.com/title/tt14109724/
◎豆瓣评分 6.4/10 from 2936 users 更新 : 2022-11-11
◎豆瓣链接 https://movie.douban.com/subject/35382459/
◎片  长 104分钟
◎导  演 欧·帕克 Ol Parker
◎编  剧 欧·帕克 Ol Parker / 丹尼尔·皮普斯基 Daniel Pipski
◎演  员 朱莉娅·罗伯茨 Julia Roberts
       乔治·克鲁尼 George Clooney
       凯特琳·德弗 Kaitlyn Dever
       马克西姆·布蒂尔 Maxime Bouttier
       比莉·洛德 Billie Lourd
       卢卡斯·布哈沃 Lucas Bravo
       塞纳·梅布拉图 Senayt Mebrahtu
       塔拉·森图尔克 Talha Şentürk
       穆兰·凯恩 Murran Kain
       肖恩·林奇 Sean Lynch
       艾萨克·普瑞斯特 Isaac Priest
       罗米·普利耶 Romy Poulier
       凡妮莎·埃弗里特 Vanesa Everett
       辛提亚·达玛扬提 Cintya Dharmayanti
       罗温··查普曼 Rowan Chapman
       易卜拉欣·伊西克塔斯 Ibrahim Isiktas
       阿曼达·奥登普西 Amanda O'Dempsey


◎简  介


  乔治·克鲁尼、朱莉娅·罗伯茨大银幕再度合体,饰演一对早已离婚的夫妻被迫携手合作,试图阻止他们被爱冲昏了头的女儿犯下他们曾经犯过的错误。本片是一部关于第二次机会带来的甜美惊喜的爱情喜剧片。

Video
ID : 1
Format : HEVC
Format/Info : High Efficiency Video Coding
Format profile : Main 10@L5@High
HDR format : Dolby Vision, Version 1.0, dvhe.05.06, BL+RPU
Codec ID : V_MPEGH/ISO/HEVC
Duration : 1 h 44 min
Bit rate : 24.6 Mb/s
Width : 3 840 pixels
Height : 2 160 pixels
Display aspect ratio : 16:9
Frame rate mode : Constant
Frame rate : 23.976 (24000/1001) FPS
Color space : YUV
Chroma subsampling : 4:2:0 (Type 0)
Bit depth : 10 bits
Bits/(Pixel*Frame) : 0.124
Stream size : 17.9 GiB (97%)
Default : Yes
Forced : No
Color range : Full

Audio
ID : 2
Format : E-AC-3 JOC
Format/Info : Enhanced AC-3 with Joint Object Coding
Commercial name : Dolby Digital Plus with Dolby Atmos
Codec ID : A_EAC3
Duration : 1 h 44 min
Bit rate mode : Constant
Bit rate : 768 kb/s
Channel(s) : 6 channels
Channel layout : L R C LFE Ls Rs
Sampling rate : 48.0 kHz
Frame rate : 31.250 FPS (1536 SPF)
Compression mode : Lossy
Stream size : 571 MiB (3%)
Language : English
Service kind : Complete Main
Default : Yes
Forced : No
Complexity index : 16
Number of dynamic objects : 15
Bed channel count : 1 channel
Bed channel configuration : LFE

Text #1
ID : 3
Format : UTF-8
Codec ID : S_TEXT/UTF8
Codec ID/Info : UTF-8 Plain Text
Duration : 19 min 22 s
Bit rate : 3 b/s
Frame rate : 0.014 FPS
Count of elements : 16
Stream size : 441 Bytes (0%)
Title : Forced
Language : English
Default : Yes
Forced : Yes

Text #2
ID : 4
Format : UTF-8
Codec ID : S_TEXT/UTF8
Codec ID/Info : UTF-8 Plain Text
Duration : 1 h 39 min
Bit rate : 75 b/s
Frame rate : 0.322 FPS
Count of elements : 1920
Stream size : 55.0 KiB (0%)
Language : English
Default : No
Forced : No

Text #3
ID : 5
Format : UTF-8
Codec ID : S_TEXT/UTF8
Codec ID/Info : UTF-8 Plain Text
Duration : 1 h 43 min
Bit rate : 82 b/s
Frame rate : 0.350 FPS
Count of elements : 2181
Stream size : 63.1 KiB (0%)
Title : SDH
Language : English
Default : No
Forced : No

Text #4
ID : 6
Format : UTF-8
Codec ID : S_TEXT/UTF8
Codec ID/Info : UTF-8 Plain Text
Duration : 1 h 43 min
Bit rate : 60 b/s
Frame rate : 0.257 FPS
Count of elements : 1594
Stream size : 46.0 KiB (0%)
Language : Spanish
Default : No
Forced : No

Text #5
ID : 7
Format : UTF-8
Codec ID : S_TEXT/UTF8
Codec ID/Info : UTF-8 Plain Text
Duration : 1 h 34 min
Bit rate : 1 b/s
Frame rate : 0.005 FPS
Count of elements : 27
Stream size : 738 Bytes (0%)
Title : Forced
Language : Portuguese
Default : No
Forced : Yes

Text #6
ID : 8
Format : UTF-8
Codec ID : S_TEXT/UTF8
Codec ID/Info : UTF-8 Plain Text
Duration : 1 h 43 min
Bit rate : 65 b/s
Frame rate : 0.257 FPS
Count of elements : 1593
Stream size : 49.5 KiB (0%)
Language : Portuguese
Default : No
Forced : No

Menu
00:00:00.000 : Chapter 1
00:05:15.000 : Chapter 2
00:13:54.000 : Chapter 3
00:18:34.000 : Chapter 4
00:23:44.000 : Chapter 5
00:31:39.000 : Chapter 6
00:36:49.000 : Chapter 7
00:43:05.000 : Chapter 8
00:50:38.000 : Chapter 9
00:58:03.000 : Chapter 10
01:06:25.000 : Chapter 11
01:12:24.000 : Chapter 12
01:17:47.000 : Chapter 13
01:27:38.000 : Chapter 14
01:30:54.000 : Chapter 15
01:35:34.000 : Chapter 16

为了更好体验下载、推荐使用qBittorrent、uTorrent、BitComet等下载软件,有条件的推荐115或会员下载软件!

下载地址:

游客,如果您要查看本帖隐藏内容请回复

游客,如果您要查看本帖隐藏内容请回复

游客,如果您要查看本帖隐藏内容请回复

游客,如果您要查看本帖隐藏内容请回复





上一篇:阿姆斯特丹 / Amsterdam (2022) 4K高清版本下载
下一篇:美人鱼 / Splash (1984) 4K高清版本下载
回复

使用道具 举报

81

主题

1621

帖子

4709

积分

4K家园VIP

Rank: 9Rank: 9Rank: 9

积分
4709
发表于 2022-11-11 21:01:40 | 显示全部楼层
路过 帮顶 嘿嘿
回复 支持 反对

使用道具 举报

主题

帖子

0

积分

新手上路

Rank: 1

积分
0
发表于 2022-11-12 01:46:14 | 显示全部楼层

Where is Administration 4kjia.com ??

Where is admin?
It is important.
Thank.
回复 支持 反对

使用道具 举报

主题

帖子

0

积分

4K家园VIP

Rank: 9Rank: 9Rank: 9

积分
0
发表于 2022-11-12 08:11:23 | 显示全部楼层
太好啦&萬分感謝版主的無私發佈分享%
回复 支持 反对

使用道具 举报

主题

帖子

0

积分

新手上路

Rank: 1

积分
0
发表于 2022-11-12 11:51:03 | 显示全部楼层
谢谢分享
回复

使用道具 举报

0

主题

4

帖子

18

积分

新手上路

Rank: 1

积分
18
发表于 2022-11-14 10:09:53 | 显示全部楼层

路过 帮顶 谢谢分享!
回复 支持 反对

使用道具 举报

主题

帖子

0

积分

新手上路

Rank: 1

积分
0
发表于 2022-11-14 11:54:02 | 显示全部楼层
感謝版主的發佈分享
回复 支持 反对

使用道具 举报

您需要登录后才可以回帖 登录 | 立即注册

本版积分规则

精彩图文
Archiver|手机版|TAG|Sitemap|新帖|专题|联系我们:邮箱: 4kjia.com@gmail.com   

4k家园   ©2019