SAS:叛逆勇士 / SAS: Rogue Heroes (2022)第一季全/4K高清版本下载

[复制链接]

主题

帖子

0

积分

超级版主

Rank: 8Rank: 8

积分
0
 楼主| 发表于 2022-11-12 20:38:53 | 显示全部楼层 |阅读模式
p2882669775_副本.jpg

◎译  名 SAS:叛逆勇士 第一季/Rogue Heroes
◎片  名 SAS: Rogue Heroes Season 1
◎年  代 2022
◎产  地 英国
◎类  别 剧情/动作/战争
◎语  言 英语
◎上映日期 2022-10-30(英国)
◎IMDb评分 8.2/10 from 3412 users
◎IMDb链接 https://www.imdb.com/title/tt10405370/
◎豆瓣评分 /10 from 0 users
◎豆瓣链接 https://douban.com/subject/34800008/
◎集  数 6
◎片  长 60分钟
◎导  演 汤姆·森兰 Tom Shankland
◎编  剧 斯蒂文·奈特 Steven Knight
◎主  演 康纳·斯温德尔 Connor Swindells
       杰克·奥康奈尔 Jack O'Connell
       阿尔菲·艾伦 Alfie Allen
       索菲亚·波多拉 Sofia Boutella
       多米尼克·韦斯特 Dominic West
       杰森·沃特金斯 Jason Watkins
       汤姆·格林-卡尼 Tom Glynn-Carney
       斯图尔特·坎贝尔 Stuart Campbell
       西奥·巴克利姆-比格斯 Theo Barklem-Biggs
       鲍比·斯科菲尔德 Bobby Schofield
       雅各布·麦卡锡 Jacob McCarthy
       莫里茨·杰恩 Moritz Jahn
       凯撒·东布瓦 César Domboy
       保罗·布彻 Paul Boche
       安东尼·凯尔夫 Anthony Calf
       艾德里安·鲁基斯 Adrian Lukis
       雅各布·伊凡 Jacob Ifan
       埃米尔·艾尔-马斯里 Amir El-Masry
       迈尔斯·贾普 Miles Jupp
       迈克尔·谢弗 Michael Shaeffer
       伊莎贝尔·莱德勒 Isobel Laidler
       史蒂威·戴维斯 Stevee Davies
       尼克拉斯·纳恩 Nicholas Nunn
       詹姆斯·威尔布拉汉姆 James Wilbraham
       凯特·库克 Kate Cook
       亚瑟·欧瑟 Arthur Orcier

◎简  介

  BBC将推出一部剧集《SAS: Rogue Heroes》,讲述世界著名的特种部队——英国皇家特种空勤团(SAS)的诞生,其如何开启特种作战的新时代,“从二战最艰难的时刻开始,聚焦一群有缺点、大胆、特立独行的军人。……讲述一段秘密的历史、真实的事件,杰出的士兵们去战斗和取得胜利,然后重新消失在阴影中”。《浴血黑帮》主创Steven Knight编剧,改编自Ben Macintyre所著同名书籍,共6集。

Video
ID : 1
Format : HEVC
Format/Info : High Efficiency Video Coding
Format profile : Main 10@L5.1@Main
Codec ID : V_MPEGH/ISO/HEVC
Duration : 58 min 0 s
Bit rate : 18.6 Mb/s
Width : 3 840 pixels
Height : 2 160 pixels
Display aspect ratio : 16:9
Frame rate mode : Constant
Frame rate : 25.000 FPS
Standard : Component
Color space : YUV
Chroma subsampling : 4:2:0
Bit depth : 10 bits
Bits/(Pixel*Frame) : 0.089
Stream size : 7.52 GiB (99%)
Language : English
Default : Yes
Forced : No
Color range : Limited
Color primaries : BT.2020
Transfer characteristics : BT.2020 (10-bit)
transfer_characteristics_Original : HLG / BT.2020 (10-bit)
Matrix coefficients : BT.2020 non-constant

Audio
ID : 2
Format : AAC LC
Format/Info : Advanced Audio Codec Low Complexity
Codec ID : A_AAC-2
Duration : 58 min 0 s
Bit rate : 192 kb/s
Channel(s) : 2 channels
Channel layout : L R
Sampling rate : 48.0 kHz
Frame rate : 46.875 FPS (1024 SPF)
Compression mode : Lossy
Stream size : 78.6 MiB (1%)
Language : English
Default : Yes
Forced : No

Text #1
ID : 3
Format : UTF-8
Codec ID : S_TEXT/UTF8
Codec ID/Info : UTF-8 Plain Text
Duration : 57 min 38 s
Bit rate : 65 b/s
Frame rate : 0.214 FPS
Count of elements : 740
Stream size : 27.8 KiB (0%)
Language : English
Default : No
Forced : No

Text #2
ID : 4
Format : UTF-8
Codec ID : S_TEXT/UTF8
Codec ID/Info : UTF-8 Plain Text
Duration : 57 min 37 s
Bit rate : 96 b/s
Frame rate : 0.173 FPS
Count of elements : 598
Stream size : 40.8 KiB (0%)
Language : Bulgarian
Default : No
Forced : No

Text #3
ID : 5
Format : UTF-8
Codec ID : S_TEXT/UTF8
Codec ID/Info : UTF-8 Plain Text
Duration : 57 min 33 s
Bit rate : 60 b/s
Frame rate : 0.216 FPS
Count of elements : 746
Stream size : 25.4 KiB (0%)
Title : Czechia
Language : Czech
Default : No
Forced : No

Text #4
ID : 6
Format : UTF-8
Codec ID : S_TEXT/UTF8
Codec ID/Info : UTF-8 Plain Text
Duration : 57 min 33 s
Bit rate : 58 b/s
Frame rate : 0.173 FPS
Count of elements : 597
Stream size : 24.6 KiB (0%)
Language : Danish
Default : No
Forced : No

Text #5
ID : 7
Format : UTF-8
Codec ID : S_TEXT/UTF8
Codec ID/Info : UTF-8 Plain Text
Duration : 57 min 33 s
Bit rate : 64 b/s
Frame rate : 0.190 FPS
Count of elements : 657
Stream size : 27.1 KiB (0%)
Language : Spanish
Default : No
Forced : No

Text #6
ID : 8
Format : UTF-8
Codec ID : S_TEXT/UTF8
Codec ID/Info : UTF-8 Plain Text
Duration : 57 min 33 s
Bit rate : 59 b/s
Frame rate : 0.180 FPS
Count of elements : 623
Stream size : 25.1 KiB (0%)
Language : Finnish
Default : No
Forced : No

Text #7
ID : 9
Format : UTF-8
Codec ID : S_TEXT/UTF8
Codec ID/Info : UTF-8 Plain Text
Duration : 57 min 36 s
Bit rate : 54 b/s
Frame rate : 0.186 FPS
Count of elements : 644
Stream size : 23.2 KiB (0%)
Language : Croatian
Default : No
Forced : No

Text #8
ID : 10
Format : UTF-8
Codec ID : S_TEXT/UTF8
Codec ID/Info : UTF-8 Plain Text
Duration : 57 min 47 s
Bit rate : 64 b/s
Frame rate : 0.214 FPS
Count of elements : 742
Stream size : 27.3 KiB (0%)
Language : Hungarian
Default : No
Forced : No

Text #9
ID : 11
Format : UTF-8
Codec ID : S_TEXT/UTF8
Codec ID/Info : UTF-8 Plain Text
Duration : 57 min 36 s
Bit rate : 111 b/s
Frame rate : 0.214 FPS
Count of elements : 740
Stream size : 47.2 KiB (0%)
Language : Macedonian
Default : No
Forced : No

Text #10
ID : 12
Format : UTF-8
Codec ID : S_TEXT/UTF8
Codec ID/Info : UTF-8 Plain Text
Duration : 57 min 34 s
Bit rate : 60 b/s
Frame rate : 0.178 FPS
Count of elements : 614
Stream size : 25.7 KiB (0%)
Language : Dutch
Default : No
Forced : No

Text #11
ID : 13
Format : UTF-8
Codec ID : S_TEXT/UTF8
Codec ID/Info : UTF-8 Plain Text
Duration : 57 min 33 s
Bit rate : 47 b/s
Frame rate : 0.159 FPS
Count of elements : 549
Stream size : 19.9 KiB (0%)
Language : Norwegian
Default : No
Forced : No

Text #12
ID : 14
Format : UTF-8
Codec ID : S_TEXT/UTF8
Codec ID/Info : UTF-8 Plain Text
Duration : 57 min 33 s
Bit rate : 62 b/s
Frame rate : 0.185 FPS
Count of elements : 638
Stream size : 26.2 KiB (0%)
Language : Portuguese
Default : No
Forced : No

Text #13
ID : 15
Format : UTF-8
Codec ID : S_TEXT/UTF8
Codec ID/Info : UTF-8 Plain Text
Duration : 57 min 35 s
Bit rate : 64 b/s
Frame rate : 0.192 FPS
Count of elements : 665
Stream size : 27.3 KiB (0%)
Language : Romanian
Default : No
Forced : No

Text #14
ID : 16
Format : UTF-8
Codec ID : S_TEXT/UTF8
Codec ID/Info : UTF-8 Plain Text
Duration : 57 min 36 s
Bit rate : 63 b/s
Frame rate : 0.214 FPS
Count of elements : 740
Stream size : 26.7 KiB (0%)
Title : Slovenia
Language : Slovenian
Default : No
Forced : No

Text #15
ID : 17
Format : UTF-8
Codec ID : S_TEXT/UTF8
Codec ID/Info : UTF-8 Plain Text
Duration : 57 min 36 s
Bit rate : 54 b/s
Frame rate : 0.186 FPS
Count of elements : 644
Stream size : 23.0 KiB (0%)
Title : Latin, Serbia
Language : Serbian
Default : No
Forced : No

Text #16
ID : 18
Format : UTF-8
Codec ID : S_TEXT/UTF8
Codec ID/Info : UTF-8 Plain Text
Duration : 57 min 33 s
Bit rate : 60 b/s
Frame rate : 0.190 FPS
Count of elements : 657
Stream size : 25.5 KiB (0%)
Language : Swedish
Default : No
Forced : No


下载地址:

游客,如果您要查看本帖隐藏内容请回复






上一篇:毒蛇王后 / The Serpent Queen(2022)第一季全/4K高清版本下载
下一篇:熙德 [简繁中子] / El Cid (2020)第一季全/4K高清版本下载
回复

使用道具 举报

2

主题

1783

帖子

4983

积分

4K家园VIP

Rank: 9Rank: 9Rank: 9

积分
4983
发表于 2022-11-12 20:39:11 来自手机 | 显示全部楼层
占位编辑
回复 支持 反对

使用道具 举报

0

主题

1425

帖子

4291

积分

4K家园VIP

Rank: 9Rank: 9Rank: 9

积分
4291
发表于 2022-11-12 20:39:11 | 显示全部楼层
多谢楼主分享
回复 支持 反对

使用道具 举报

0

主题

3

帖子

12

积分

新手上路

Rank: 1

积分
12
发表于 2022-11-14 16:35:30 | 显示全部楼层
谢谢楼主分享
回复 支持 反对

使用道具 举报

您需要登录后才可以回帖 登录 | 立即注册

本版积分规则

精彩图文
Archiver|手机版|TAG|Sitemap|新帖|专题|联系我们:邮箱: 4kjia.com@gmail.com   

4k家园   ©2019