熙德 [简繁中子] / El Cid (2020)第一季全/4K高清版本下载

[复制链接]

主题

帖子

0

积分

超级版主

Rank: 8Rank: 8

积分
0
 楼主| 发表于 2022-11-12 22:29:23 | 显示全部楼层 |阅读模式
本帖最后由 美剧小虾 于 2022-11-13 15:57 编辑

p2626347238.webp_副本.jpg

◎译  名 熙德/万世英雄/圣剑/西德传/锡德
◎片  名 El Cid
◎年  代 2020
◎产  地 西班牙
◎类  别 剧情
◎语  言 西班牙语
◎上映日期 2020-12-18(西班牙)
◎IMDb评分 6.7/10 from 3712 users
◎IMDb链接 https://www.imdb.com/title/tt10689614/
◎豆瓣评分 7.8/10 from 201 users
◎豆瓣链接 https://douban.com/subject/35251515/
◎集  数 5
◎编  剧 路易斯·阿兰兹 Luis Arranz / 阿道弗·马丁内斯·佩雷斯 Adolfo Martínez Pérez
◎主  演 海因米·洛伦特 Jaime Lorente
       丹尼尔·阿尔巴莱乔 Daniel Albaladejo
       卡洛斯·巴登 Carlos Bardem
       埃米利奥·布阿勒 Emilio Buale
       戴维·卡斯蒂洛 David Castillo
       胡安·埃查诺维 Juan Echanove
       胡安·费尔南德斯 Juan Fernández
       伊利娅·盖尔拉 Elia Galera
       希内斯·加西亚·米连 Ginés García Millán
       何塞·路易斯·加西亚·佩雷斯 José Luis García Pérez
       卢西娅·格雷罗 Lucía Guerrero
       佐哈·里巴 Zohar Liba
       海梅·奥利亚斯 Jaime Olías
       阿尔瓦罗·里科 Álvaro Rico
       艾丽西亚·桑兹 Alicia Sanz
       琼·本塔莱 Joan Bentallé
       安吉尔·伯纳尼 Angel Bonanni


◎简  介


  中世纪西班牙卡斯蒂利亚贵族和战争英雄罗德里戈·迪亚斯·德·维瓦尔的故事。

Video
ID : 1
Format : HEVC
Format/Info : High Efficiency Video Coding
Format profile : Main@L5@Main
Codec ID : V_MPEGH/ISO/HEVC
Duration : 1 h 12 min
Bit rate : 14.5 Mb/s
Width : 3 840 pixels
Height : 1 920 pixels
Display aspect ratio : 2.000
Frame rate mode : Constant
Frame rate : 25.000 FPS
Color space : YUV
Chroma subsampling : 4:2:0
Bit depth : 8 bits
Bits/(Pixel*Frame) : 0.079
Stream size : 7.39 GiB (96%)
Default : Yes
Forced : No
Color range : Limited
Color primaries : BT.709
Transfer characteristics : BT.709
Matrix coefficients : BT.709

Audio
ID : 2
Format : E-AC-3
Format/Info : Enhanced AC-3
Commercial name : Dolby Digital Plus
Codec ID : A_EAC3
Duration : 1 h 12 min
Bit rate mode : Constant
Bit rate : 640 kb/s
Channel(s) : 6 channels
Channel layout : L R C LFE Ls Rs
Sampling rate : 48.0 kHz
Frame rate : 31.250 FPS (1536 SPF)
Compression mode : Lossy
Stream size : 333 MiB (4%)
Language : Spanish
Service kind : Complete Main
Default : Yes
Forced : No

Text #1
ID : 3
Format : UTF-8
Codec ID : S_TEXT/UTF8
Codec ID/Info : UTF-8 Plain Text
Duration : 1 h 9 min
Bit rate : 43 b/s
Frame rate : 0.162 FPS
Count of elements : 676
Stream size : 22.2 KiB (0%)
Language : Spanish
Default : No
Forced : No

Text #2
ID : 4
Format : UTF-8
Codec ID : S_TEXT/UTF8
Codec ID/Info : UTF-8 Plain Text
Duration : 1 h 9 min
Bit rate : 48 b/s
Frame rate : 0.189 FPS
Count of elements : 786
Stream size : 24.7 KiB (0%)
Title : SDH
Language : Spanish
Default : No
Forced : No

Text #3
ID : 5
Format : UTF-8
Codec ID : S_TEXT/UTF8
Codec ID/Info : UTF-8 Plain Text
Duration : 1 h 9 min
Bit rate : 35 b/s
Frame rate : 0.165 FPS
Count of elements : 686
Stream size : 18.1 KiB (0%)
Language : English
Default : No
Forced : No

Text #4
ID : 6
Format : UTF-8
Codec ID : S_TEXT/UTF8
Codec ID/Info : UTF-8 Plain Text
Duration : 1 h 11 min
Bit rate : 58 b/s
Frame rate : 0.160 FPS
Count of elements : 689
Stream size : 30.5 KiB (0%)
Language : Arabic
Default : No
Forced : No

Text #5
ID : 7
Format : UTF-8
Codec ID : S_TEXT/UTF8
Codec ID/Info : UTF-8 Plain Text
Duration : 1 h 11 min
Bit rate : 36 b/s
Frame rate : 0.160 FPS
Count of elements : 689
Stream size : 19.4 KiB (0%)
Language : Czech
Default : No
Forced : No

Text #6
ID : 8
Format : UTF-8
Codec ID : S_TEXT/UTF8
Codec ID/Info : UTF-8 Plain Text
Duration : 1 h 11 min
Bit rate : 34 b/s
Frame rate : 0.160 FPS
Count of elements : 689
Stream size : 18.0 KiB (0%)
Language : Danish
Default : No
Forced : No

Text #7
ID : 9
Format : UTF-8
Codec ID : S_TEXT/UTF8
Codec ID/Info : UTF-8 Plain Text
Duration : 1 h 11 min
Bit rate : 42 b/s
Frame rate : 0.122 FPS
Count of elements : 524
Stream size : 22.3 KiB (0%)
Language : German
Default : No
Forced : No

Text #8
ID : 10
Format : UTF-8
Codec ID : S_TEXT/UTF8
Codec ID/Info : UTF-8 Plain Text
Duration : 1 h 11 min
Bit rate : 68 b/s
Frame rate : 0.160 FPS
Count of elements : 688
Stream size : 36.1 KiB (0%)
Language : Greek
Default : No
Forced : No

Text #9
ID : 11
Format : UTF-8
Codec ID : S_TEXT/UTF8
Codec ID/Info : UTF-8 Plain Text
Duration : 1 h 11 min
Bit rate : 35 b/s
Frame rate : 0.160 FPS
Count of elements : 688
Stream size : 18.5 KiB (0%)
Language : Finnish
Default : No
Forced : No

Text #10
ID : 12
Format : UTF-8
Codec ID : S_TEXT/UTF8
Codec ID/Info : UTF-8 Plain Text
Duration : 1 h 11 min
Bit rate : 35 b/s
Frame rate : 0.156 FPS
Count of elements : 670
Stream size : 18.5 KiB (0%)
Language : fil
Default : No
Forced : No

Text #11
ID : 13
Format : UTF-8
Codec ID : S_TEXT/UTF8
Codec ID/Info : UTF-8 Plain Text
Duration : 1 h 11 min
Bit rate : 36 b/s
Frame rate : 0.160 FPS
Count of elements : 689
Stream size : 19.1 KiB (0%)
Language : French
Default : No
Forced : No

Text #12
ID : 14
Format : UTF-8
Codec ID : S_TEXT/UTF8
Codec ID/Info : UTF-8 Plain Text
Duration : 1 h 11 min
Bit rate : 55 b/s
Frame rate : 0.160 FPS
Count of elements : 689
Stream size : 29.2 KiB (0%)
Language : Hebrew
Default : No
Forced : No

Text #13
ID : 15
Format : UTF-8
Codec ID : S_TEXT/UTF8
Codec ID/Info : UTF-8 Plain Text
Duration : 1 h 11 min
Bit rate : 87 b/s
Frame rate : 0.160 FPS
Count of elements : 689
Stream size : 46.2 KiB (0%)
Language : Hindi
Default : No
Forced : No

Text #14
ID : 16
Format : UTF-8
Codec ID : S_TEXT/UTF8
Codec ID/Info : UTF-8 Plain Text
Duration : 1 h 11 min
Bit rate : 36 b/s
Frame rate : 0.160 FPS
Count of elements : 687
Stream size : 19.1 KiB (0%)
Language : Hungarian
Default : No
Forced : No

Text #15
ID : 17
Format : UTF-8
Codec ID : S_TEXT/UTF8
Codec ID/Info : UTF-8 Plain Text
Duration : 1 h 11 min
Bit rate : 34 b/s
Frame rate : 0.160 FPS
Count of elements : 689
Stream size : 17.9 KiB (0%)
Language : Indonesian
Default : No
Forced : No

Text #16
ID : 18
Format : UTF-8
Codec ID : S_TEXT/UTF8
Codec ID/Info : UTF-8 Plain Text
Duration : 1 h 11 min
Bit rate : 34 b/s
Frame rate : 0.160 FPS
Count of elements : 687
Stream size : 18.3 KiB (0%)
Language : Italian
Default : No
Forced : No

Text #17
ID : 19
Format : UTF-8
Codec ID : S_TEXT/UTF8
Codec ID/Info : UTF-8 Plain Text
Duration : 1 h 11 min
Bit rate : 31 b/s
Frame rate : 0.156 FPS
Count of elements : 670
Stream size : 16.7 KiB (0%)
Language : Japanese
Default : No
Forced : No

Text #18
ID : 20
Format : UTF-8
Codec ID : S_TEXT/UTF8
Codec ID/Info : UTF-8 Plain Text
Duration : 1 h 11 min
Bit rate : 41 b/s
Frame rate : 0.160 FPS
Count of elements : 689
Stream size : 21.9 KiB (0%)
Language : Korean
Default : No
Forced : No

Text #19
ID : 21
Format : UTF-8
Codec ID : S_TEXT/UTF8
Codec ID/Info : UTF-8 Plain Text
Duration : 1 h 11 min
Bit rate : 35 b/s
Frame rate : 0.160 FPS
Count of elements : 688
Stream size : 18.8 KiB (0%)
Language : Malay
Default : No
Forced : No

Text #20
ID : 22
Format : UTF-8
Codec ID : S_TEXT/UTF8
Codec ID/Info : UTF-8 Plain Text
Duration : 1 h 11 min
Bit rate : 35 b/s
Frame rate : 0.160 FPS
Count of elements : 688
Stream size : 18.5 KiB (0%)
Language : Norwegian Bokmal
Default : No
Forced : No

Text #21
ID : 23
Format : UTF-8
Codec ID : S_TEXT/UTF8
Codec ID/Info : UTF-8 Plain Text
Duration : 1 h 11 min
Bit rate : 34 b/s
Frame rate : 0.157 FPS
Count of elements : 678
Stream size : 18.3 KiB (0%)
Language : Dutch
Default : No
Forced : No

Text #22
ID : 24
Format : UTF-8
Codec ID : S_TEXT/UTF8
Codec ID/Info : UTF-8 Plain Text
Duration : 1 h 11 min
Bit rate : 33 b/s
Frame rate : 0.160 FPS
Count of elements : 688
Stream size : 17.6 KiB (0%)
Language : Polish
Default : No
Forced : No

Text #23
ID : 25
Format : UTF-8
Codec ID : S_TEXT/UTF8
Codec ID/Info : UTF-8 Plain Text
Duration : 1 h 11 min
Bit rate : 35 b/s
Frame rate : 0.160 FPS
Count of elements : 688
Stream size : 18.9 KiB (0%)
Title : Portuguese (Brazil)
Language : Portuguese
Default : No
Forced : No

Text #24
ID : 26
Format : UTF-8
Codec ID : S_TEXT/UTF8
Codec ID/Info : UTF-8 Plain Text
Duration : 1 h 11 min
Bit rate : 33 b/s
Frame rate : 0.160 FPS
Count of elements : 688
Stream size : 17.5 KiB (0%)
Title : Portuguese (Portugal)
Language : Portuguese
Default : No
Forced : No

Text #25
ID : 27
Format : UTF-8
Codec ID : S_TEXT/UTF8
Codec ID/Info : UTF-8 Plain Text
Duration : 1 h 11 min
Bit rate : 38 b/s
Frame rate : 0.160 FPS
Count of elements : 689
Stream size : 20.1 KiB (0%)
Language : Romanian
Default : No
Forced : No

Text #26
ID : 28
Format : UTF-8
Codec ID : S_TEXT/UTF8
Codec ID/Info : UTF-8 Plain Text
Duration : 1 h 11 min
Bit rate : 58 b/s
Frame rate : 0.160 FPS
Count of elements : 689
Stream size : 30.8 KiB (0%)
Language : Russian
Default : No
Forced : No

Text #27
ID : 29
Format : UTF-8
Codec ID : S_TEXT/UTF8
Codec ID/Info : UTF-8 Plain Text
Duration : 1 h 11 min
Bit rate : 35 b/s
Frame rate : 0.159 FPS
Count of elements : 684
Stream size : 18.8 KiB (0%)
Language : Swedish
Default : No
Forced : No

Text #28
ID : 30
Format : UTF-8
Codec ID : S_TEXT/UTF8
Codec ID/Info : UTF-8 Plain Text
Duration : 1 h 11 min
Bit rate : 93 b/s
Frame rate : 0.160 FPS
Count of elements : 689
Stream size : 49.2 KiB (0%)
Language : Tamil
Default : No
Forced : No

Text #29
ID : 31
Format : UTF-8
Codec ID : S_TEXT/UTF8
Codec ID/Info : UTF-8 Plain Text
Duration : 1 h 11 min
Bit rate : 90 b/s
Frame rate : 0.160 FPS
Count of elements : 689
Stream size : 47.8 KiB (0%)
Language : Telugu
Default : No
Forced : No

Text #30
ID : 32
Format : UTF-8
Codec ID : S_TEXT/UTF8
Codec ID/Info : UTF-8 Plain Text
Duration : 1 h 11 min
Bit rate : 91 b/s
Frame rate : 0.160 FPS
Count of elements : 689
Stream size : 47.9 KiB (0%)
Language : Thai
Default : No
Forced : No

Text #31
ID : 33
Format : UTF-8
Codec ID : S_TEXT/UTF8
Codec ID/Info : UTF-8 Plain Text
Duration : 1 h 11 min
Bit rate : 36 b/s
Frame rate : 0.160 FPS
Count of elements : 689
Stream size : 19.2 KiB (0%)
Language : Turkish
Default : No
Forced : No

Text #32
ID : 34
Format : UTF-8
Codec ID : S_TEXT/UTF8
Codec ID/Info : UTF-8 Plain Text
Duration : 1 h 11 min
Bit rate : 35 b/s
Frame rate : 0.160 FPS
Count of elements : 689
Stream size : 18.6 KiB (0%)
Title : 简体中字
Language : Chinese
Default : No
Forced : No

Text #33
ID : 35
Format : UTF-8
Codec ID : S_TEXT/UTF8
Codec ID/Info : UTF-8 Plain Text
Duration : 1 h 11 min
Bit rate : 31 b/s
Frame rate : 0.160 FPS
Count of elements : 689
Stream size : 16.7 KiB (0%)
Title : 繁体中字
Language : Chinese
Default : No
Forced : No


Menu
00:00:00.000 : en:Amazon Original
00:00:05.000 : en:Scene 2
00:01:58.000 : en:Title Sequence
00:02:10.000 : en:Scene 4
00:04:17.000 : en:Scene 5
00:06:19.000 : en:Scene 6
00:07:39.000 : en:Scene 7
00:09:43.000 : en:Scene 8
00:12:42.000 : en:Scene 9
00:13:24.000 : en:Scene 10
00:14:54.000 : en:Scene 11
00:17:21.000 : en:Scene 12
00:18:27.000 : en:Scene 13
00:20:34.000 : en:Scene 14
00:22:57.000 : en:Scene 15
00:25:32.000 : en:Scene 16
00:26:55.000 : en:Scene 17
00:28:02.000 : en:Scene 18
00:30:49.000 : en:Scene 19
00:35:04.000 : en:Scene 20
00:37:28.000 : en:Scene 21
00:40:48.000 : en:Scene 22
00:41:36.000 : en:Scene 23
00:43:32.000 : en:Scene 24
00:46:12.000 : en:Scene 25
00:48:21.000 : en:Scene 26
00:49:43.000 : en:Scene 27
00:51:35.000 : en:Scene 28
00:53:27.000 : en:Scene 29
00:54:57.000 : en:Scene 30
00:56:04.000 : en:Scene 31
00:57:56.000 : en:Scene 32
00:59:31.000 : en:Scene 33
01:00:22.000 : en:Scene 34
01:03:42.000 : en:Scene 35
01:06:13.000 : en:Scene 36
01:06:55.000 : en:Scene 37
01:08:21.000 : en:Scene 38
01:08:49.000 : en:Scene 39
01:09:59.000 : en:End Credits

下载地址:

游客,如果您要查看本帖隐藏内容请回复

游客,如果您要查看本帖隐藏内容请回复

游客,如果您要查看本帖隐藏内容请回复

游客,如果您要查看本帖隐藏内容请回复






上一篇:SAS:叛逆勇士 / SAS: Rogue Heroes (2022)第一季全/4K高清版本下载
回复

使用道具 举报

3

主题

1674

帖子

4667

积分

4K家园VIP

Rank: 9Rank: 9Rank: 9

积分
4667
发表于 2022-11-12 22:29:48 来自手机 | 显示全部楼层
向楼主学习
回复 支持 反对

使用道具 举报

主题

帖子

0

积分

4K家园VIP

Rank: 9Rank: 9Rank: 9

积分
0
发表于 2022-11-13 14:21:11 | 显示全部楼层
太好啦&萬分感謝版主的無私發佈分享%
回复 支持 反对

使用道具 举报

0

主题

1

帖子

6

积分

新手上路

Rank: 1

积分
6
发表于 2022-11-13 23:09:16 | 显示全部楼层
好啊!!!!!!!!!!!!
回复

使用道具 举报

主题

帖子

0

积分

新手上路

Rank: 1

积分
0
发表于 2022-11-14 09:47:28 | 显示全部楼层
非常感谢,辛苦
回复 支持 反对

使用道具 举报

0

主题

4

帖子

18

积分

新手上路

Rank: 1

积分
18
发表于 2022-11-14 10:21:50 | 显示全部楼层
谢谢分享 下列看看
回复 支持 反对

使用道具 举报

0

主题

1

帖子

6

积分

4K家园VIP

Rank: 9Rank: 9Rank: 9

积分
6
发表于 昨天 23:55 | 显示全部楼层
感谢分享
回复

使用道具 举报

您需要登录后才可以回帖 登录 | 立即注册

本版积分规则

精彩图文
Archiver|手机版|TAG|Sitemap|新帖|专题|联系我们:邮箱: 4kjia.com@gmail.com   

4k家园   ©2019