[4K UHD 蓝光原盘] 【首发】奇妙的海洋 [DIY简繁中字] (2017) 4K蓝光REMUX版本下载

[复制链接]

主题

帖子

0

积分

超级版主

Rank: 8Rank: 8

积分
0
 楼主| 发表于 2022-11-14 16:09:03 | 显示全部楼层 |阅读模式
本帖最后由 没完没了 于 2022-11-14 21:40 编辑

212543rhlefohp11moqfru.jpg

◎译  名 奇妙的海洋
◎片  名 Wonders of the Sea
◎年  代 2017
◎产  地 英国 / 法国
◎类  别 纪录片
◎语  言 英语
◎上映日期 2017(法国)
◎IMDb评分 6.6/10 from 236 users 更新 : 2022-11-12
◎IMDb链接 https://www.imdb.com/title/tt5495792
◎豆瓣评分 7.9/10 from 21 users 更新 : 2022-11-14
◎豆瓣链接 https://movie.douban.com/subject/27123735/
◎片  长 83分钟
◎导  演 让-米歇尔·库斯托 Jean-Michel Cousteau / 让-贾克·曼德罗 Jean-Jacques Mantello
◎编  剧 大卫·乔克伦 David Chocron / 弗朗索瓦·曼特罗 Francois Mantello
◎主  演 阿诺·施瓦辛格 Arnold Schwarzenegger                       
                   席琳·库斯托 Celine Cousteau
                   法比安·库斯托·库斯托 Fabien Cousteau
                   让-米歇尔·库斯托 Jean-Michel Cousteau     
                              

◎简  介


        法国海洋探险家让·米歇尔·库斯托和他的成年孩子们借助先进的3D技术探索海洋,了解海洋面临的危险

General
Complete name                  : D:\DIY电影\[4Kjia小组压制分享]奇妙的海洋[DIY简繁中字]Wonders.of.the.Sea.2017.UHD.BluRay.2160p.HEVC.DTS-HD.MA.2.0.REMUX-BeyondHD-ALANG\[
Format                         : Matroska
Format version                 : Version 4
File size                      : 53.2 GiB
Duration                       : 1 h 23 min
Overall bit rate mode          : Variable
Overall bit rate               : 91.1 Mb/s
Movie name                     :  / Wonders of the Sea (2017)
Encoded date                   : UTC 2022-11-14 07:08:07
Writing application            : mkvmerge v68.0.0 ('The Curtain') 64-bit
Writing library                : libebml v1.4.2 + libmatroska v1.6.4

Video
ID                             : 1
ID in the original source medi : 4113 (0x1011)
Format                         : HEVC
Format/Info                    : High Efficiency Video Coding
Format profile                 : Main 10@L5.1@High
HDR format                     : SMPTE ST 2086, HDR10 compatible
Codec ID                       : V_MPEGH/ISO/HEVC
Duration                       : 1 h 23 min
Bit rate                       : 90.0 Mb/s
Width                          : 3 840 pixels
Height                         : 2 160 pixels
Display aspect ratio           : 16:9
Frame rate mode                : Constant
Frame rate                     : 24.000 FPS
Color space                    : YUV
Chroma subsampling             : 4:2:0 (Type 2)
Bit depth                      : 10 bits
Bits/(Pixel*Frame)             : 0.452
Stream size                    : 52.6 GiB (99%)
Writing library                : ATEME Titan File 3.8.22 (4.8.22.4)      
Language                       : English
Default                        : No
Forced                         : No
Color range                    : Limited
Color primaries                : BT.2020
Transfer characteristics       : PQ
Matrix coefficients            : BT.2020 non-constant
Mastering display color primar : BT.2020
Mastering display luminance    : min: 0.0050 cd/m2, max: 1000 cd/m2
Maximum Content Light Level    : 1000 cd/m2
Maximum Frame-Average Light Le : 300 cd/m2
Original source medium         : Blu-ray

Audio
ID                             : 2
ID in the original source medi : 4352 (0x1100)
Format                         : DTS XLL
Format/Info                    : Digital Theater Systems
Commercial name                : DTS-HD Master Audio
Codec ID                       : A_DTS
Duration                       : 1 h 23 min
Bit rate mode                  : Variable
Bit rate                       : 1 066 kb/s
Channel(s)                     : 2 channels
Channel layout                 : L R
Sampling rate                  : 48.0 kHz
Frame rate                     : 93.750 FPS (512 SPF)
Bit depth                      : 16 bits
Compression mode               : Lossless
Stream size                    : 638 MiB (1%)
Title                          : Original
Language                       : English
Default                        : Yes
Forced                         : No
Original source medium         : Blu-ray

Text #1
ID                             : 3
ID in the original source medi : 4768 (0x12A0)
Format                         : PGS
Muxing mode                    : zlib
Codec ID                       : S_HDMV/PGS
Codec ID/Info                  : Picture based subtitle format used on BDs/HD-DVDs
Duration                       : 1 h 22 min
Bit rate                       : 39.6 kb/s
Frame rate                     : 0.333 FPS
Count of elements              : 1648
Stream size                    : 23.4 MiB (0%)
Title                          : Original
Language                       : English
Default                        : No
Forced                         : No
Original source medium         : Blu-ray

Text #2
ID                             : 4
Format                         : UTF-8
Codec ID                       : S_TEXT/UTF8
Codec ID/Info                  : UTF-8 Plain Text
Duration                       : 1 h 22 min
Bit rate                       : 92 b/s
Frame rate                     : 0.176 FPS
Count of elements              : 870
Stream size                    : 56.0 KiB (0%)
Title                          : 繁体中字
Language                       : Chinese
Default                        : Yes
Forced                         : No

Text #3
ID                             : 5
Format                         : UTF-8
Codec ID                       : S_TEXT/UTF8
Codec ID/Info                  : UTF-8 Plain Text
Duration                       : 1 h 22 min
Bit rate                       : 92 b/s
Frame rate                     : 0.176 FPS
Count of elements              : 870
Stream size                    : 56.0 KiB (0%)
Title                          : 简体中字
Language                       : Chinese
Default                        : Yes
Forced                         : No

新种推荐使用qBittorrent、uTorrent、BitComet等下载软件,有条件的推荐115更好的下载软件![4Kjia小组压制分享]奇妙的海洋(53.22GB)[DIY简繁中字]Wonders.of.the.Sea.2017.UHD.BluRay.2160p.HEVC.DTS-HD.MA.2.0.REMUX-BeyondHD-ALANG
游客,如果您要查看本帖隐藏内容请回复

小水管制作不易,下载后请自觉做种!保持下载可持续性。
关于下载:建议用qBittorrent、uTorrent、BitComet等下载软件或挂机下载或会员下载,谢谢!



其他4K蓝光REMUX 版本:奇妙的海洋 /Wonders of the Sea 3D (2017) (俄版)4K蓝光REMUX 版本下载

4K海报.gif




上一篇:美国豚鼠3:所罗门之歌 (2017) 4K蓝光[原盘+REMUX]版本下载
下一篇:星球大战外传:侠盗一号 (2016) 4K蓝光REMUX版本下载
回复

使用道具 举报

主题

帖子

0

积分

超级版主

Rank: 8Rank: 8

积分
0
 楼主| 发表于 2022-11-14 16:27:09 | 显示全部楼层
QQ图片20221114162248.png QQ图片20221114162256.png QQ图片20221114162302.png QQ图片20221114162306.png QQ图片20221114162313.png QQ图片20221114162320.png
回复 支持 反对

使用道具 举报

0

主题

43

帖子

2087

积分

4K家园VIP

Rank: 9Rank: 9Rank: 9

积分
2087
发表于 2022-11-14 17:20:24 | 显示全部楼层
WOW,这个好这个好,海洋的纪录片要收下来。
回复 支持 反对

使用道具 举报

主题

帖子

0

积分

4K家园VIP

Rank: 9Rank: 9Rank: 9

积分
0
发表于 2022-11-14 19:12:56 | 显示全部楼层
奇妙的海洋 [DIY中字]4k
回复 支持 反对

使用道具 举报

0

主题

2

帖子

9

积分

新手上路

Rank: 1

积分
9
发表于 2022-11-14 21:26:17 | 显示全部楼层
渴求知识的阿辣遇到如此资源,只有二个字:牛。
回复 支持 反对

使用道具 举报

主题

帖子

0

积分

新手上路

Rank: 1

积分
0
发表于 2022-11-15 10:15:04 | 显示全部楼层
大家都是用什么设备播放高清视频啊
回复 支持 反对

使用道具 举报

您需要登录后才可以回帖 登录 | 立即注册

本版积分规则

精彩图文
Archiver|手机版|TAG|Sitemap|新帖|专题|联系我们:邮箱: 4kjia.com@gmail.com   

4k家园   ©2019