[4K电影] 全民情敌[简繁中字] / Hitch (2005) 4K高清版本下载

[复制链接]

主题

帖子

0

积分

超级版主

Rank: 8Rank: 8

积分
0
 楼主| 发表于 2022-11-15 10:20:34 | 显示全部楼层 |阅读模式
本帖最后由 最爱4K哟 于 2022-11-15 10:21 编辑

QQ图片20221115101912_副本.png

◎译  名 全民情敌 / 全民情圣 / 恋爱专家 / 情场绝桥王 / 爱情顾问
◎片  名 Hitch
◎年  代 2005
◎产  地 美国
◎类  别 喜剧 / 爱情
◎语  言 英语
◎上映日期 2005-02-11(美国)
◎IMDb评分 6.6/10 from 318728 users 更新 : 2022-11-13
◎IMDb链接 https://www.imdb.com/title/tt0386588
◎豆瓣评分 7.5/10 from 111989 users
◎豆瓣链接 https://movie.douban.com/subject/1309020/
◎片  长 118分钟
◎导  演 安迪·坦纳特 Andy Tennant
◎编  剧 Kevin Bisch
◎主  演 威尔·史密斯 Will Smith
       伊娃·门德斯 Eva Mendes
       凯文·詹姆斯 Kevin James
       安贝·瓦莱塔 Amber Valletta
       朱莉·安·埃默里 Julie Ann Emery
       亚当·阿金 Adam Arkin
       罗宾·李 Robinne Lee
       内森·李·格雷厄姆 Nathan Lee Graham
       迈克尔·拉帕波特 Michael Rapaport
       杰弗里·多诺万 Jeffrey Donovan
       宝拉·巴顿 Paula Patton
       菲利普·博斯科 Philip Bosco
       凯文·苏斯曼 Kevin Sussman
       Navia Nguyen Navia Nguyen
       马特·马洛伊 Matt Malloy
       玛丽亚·泰耶尔 Maria Thayer
       奥托·艾森度 Ato Essandoh
       马琳·巴雷特 Marlyne Barrett
       杰克·哈特内特 Jack Hartnett
       戴维·威克 David Wike
       弗雷德里克·B·欧文斯 Frederick B. Owens
       珍娜·斯特恩 Jenna Stern
       奥斯汀·拉尔西 Austin Lysy


◎简  介


  希什(威尔?史密斯 Will Smith 饰)十分准确的把握了男性的弱点:他们在求爱的时候由于过分迫切想得到对方好感,反而会表现笨拙失去魅力。而希什掌握了一套完整的独家的理论,可以帮助男士在头三次约会时候就成功俘获对方的心,这套谋略全面实用,令约会期间的就餐、牵手、接吻,有了指导细则。
  这次希什的客户是胖男人阿伯特(凯文?詹姆斯 Kevin James饰)。他生性温顺,却爱上了当红女明星。于是对阿伯特的一番彻底改造在所难免。更重要的是,他竟然在工作中爱上了女明星的跟班记者莎拉(伊娃?门德斯 Eva Mendes饰)。这个自己感情一直空缺的约会指南者,开始尝到爱的气息。但是,好像现实中的爱跟他平时设计的并不一样。屡试不爽的爱情法则,在他身上反而失了灵。也许,他的爱情学问还远远不够精通。

◎获奖情况

  第14届MTV电影奖(2005)
  MTV电影奖 最佳喜剧表演(提名) 威尔·史密斯
  MTV电影奖 最佳男演员(提名) 威尔·史密斯

Video
ID : 1
Format : HEVC
Format/Info : High Efficiency Video Coding
Format profile : Main 10@L5@High
Codec ID : V_MPEGH/ISO/HEVC
Duration : 1 h 58 min
Bit rate : 20.6 Mb/s
Width : 3 838 pixels
Height : 1 606 pixels
Display aspect ratio : 2.40:1
Frame rate mode : Constant
Frame rate : 23.976 (24000/1001) FPS
Color space : YUV
Chroma subsampling : 4:2:0
Bit depth : 10 bits
Bits/(Pixel*Frame) : 0.140
Stream size : 17.1 GiB (88%)
Language : English
Default : Yes
Forced : No
Color range : Limited
Color primaries : BT.709
Transfer characteristics : BT.709
Matrix coefficients : BT.709

Audio #1
ID : 2
Format : DTS XLL
Format/Info : Digital Theater Systems
Commercial name : DTS-HD Master Audio
Codec ID : A_DTS
Duration : 1 h 58 min
Bit rate mode : Variable
Bit rate : 2 194 kb/s
Channel(s) : 6 channels
Channel layout : C L R Ls Rs LFE
Sampling rate : 48.0 kHz
Frame rate : 93.750 FPS (512 SPF)
Bit depth : 16 bits
Compression mode : Lossless
Stream size : 1.81 GiB (9%)
Language : English
Default : Yes
Forced : No

Audio #2
ID : 3
Format : AC-3
Format/Info : Audio Coding 3
Commercial name : Dolby Digital
Codec ID : A_AC3
Duration : 1 h 58 min
Bit rate mode : Constant
Bit rate : 640 kb/s
Channel(s) : 6 channels
Channel layout : L R C LFE Ls Rs
Sampling rate : 48.0 kHz
Frame rate : 31.250 FPS (1536 SPF)
Compression mode : Lossy
Stream size : 541 MiB (3%)
Language : English
Service kind : Complete Main
Default : Yes
Forced : No

Text #1
ID : 4
Format : UTF-8
Codec ID : S_TEXT/UTF8
Codec ID/Info : UTF-8 Plain Text
Duration : 1 h 57 min
Bit rate : 82 b/s
Frame rate : 0.348 FPS
Count of elements : 2460
Stream size : 71.0 KiB (0%)
Title : CC
Language : English
Default : Yes
Forced : No

Text #2
ID : 5
Format : UTF-8
Codec ID : S_TEXT/UTF8
Codec ID/Info : UTF-8 Plain Text
Duration : 1 h 53 min
Bit rate : 87 b/s
Frame rate : 0.218 FPS
Count of elements : 1486
Stream size : 73.1 KiB (0%)
Language : Arabic
Default : No
Forced : No

Text #3
ID : 6
Format : UTF-8
Codec ID : S_TEXT/UTF8
Codec ID/Info : UTF-8 Plain Text
Duration : 1 h 51 min
Bit rate : 53 b/s
Frame rate : 0.225 FPS
Count of elements : 1510
Stream size : 43.8 KiB (0%)
Title : 简体中字
Language : Chinese
Default : No
Forced : No

Text #4
ID : 7
Format : UTF-8
Codec ID : S_TEXT/UTF8
Codec ID/Info : UTF-8 Plain Text
Duration : 1 h 53 min
Bit rate : 53 b/s
Frame rate : 0.222 FPS
Count of elements : 1508
Stream size : 44.1 KiB (0%)
Title : 繁体中字
Language : Chinese
Default : No
Forced : No


Text #5
ID : 8
Format : UTF-8
Codec ID : S_TEXT/UTF8
Codec ID/Info : UTF-8 Plain Text
Duration : 1 h 51 min
Bit rate : 65 b/s
Frame rate : 0.222 FPS
Count of elements : 1490
Stream size : 53.8 KiB (0%)
Language : Danish
Default : No
Forced : No

Text #6
ID : 9
Format : UTF-8
Codec ID : S_TEXT/UTF8
Codec ID/Info : UTF-8 Plain Text
Duration : 1 h 51 min
Bit rate : 63 b/s
Frame rate : 0.217 FPS
Count of elements : 1458
Stream size : 51.7 KiB (0%)
Language : German
Default : No
Forced : No

Text #7
ID : 10
Format : UTF-8
Codec ID : S_TEXT/UTF8
Codec ID/Info : UTF-8 Plain Text
Duration : 1 h 53 min
Bit rate : 110 b/s
Frame rate : 0.223 FPS
Count of elements : 1521
Stream size : 92.2 KiB (0%)
Language : Greek
Default : No
Forced : No

Text #8
ID : 11
Format : UTF-8
Codec ID : S_TEXT/UTF8
Codec ID/Info : UTF-8 Plain Text
Duration : 1 h 51 min
Bit rate : 60 b/s
Frame rate : 0.249 FPS
Count of elements : 1671
Stream size : 49.9 KiB (0%)
Title : European
Language : Spanish
Default : No
Forced : No

Text #9
ID : 12
Format : UTF-8
Codec ID : S_TEXT/UTF8
Codec ID/Info : UTF-8 Plain Text
Duration : 1 h 51 min
Bit rate : 54 b/s
Frame rate : 0.222 FPS
Count of elements : 1491
Stream size : 44.3 KiB (0%)
Language : Finnish
Default : No
Forced : No

Text #10
ID : 13
Format : UTF-8
Codec ID : S_TEXT/UTF8
Codec ID/Info : UTF-8 Plain Text
Duration : 1 h 53 min
Bit rate : 57 b/s
Frame rate : 0.219 FPS
Count of elements : 1492
Stream size : 47.9 KiB (0%)
Title : European
Language : French
Default : No
Forced : No

Text #11
ID : 14
Format : UTF-8
Codec ID : S_TEXT/UTF8
Codec ID/Info : UTF-8 Plain Text
Duration : 1 h 53 min
Bit rate : 90 b/s
Frame rate : 0.222 FPS
Count of elements : 1508
Stream size : 75.5 KiB (0%)
Language : Hebrew
Default : No
Forced : No

Text #12
ID : 15
Format : UTF-8
Codec ID : S_TEXT/UTF8
Codec ID/Info : UTF-8 Plain Text
Duration : 1 h 53 min
Bit rate : 146 b/s
Frame rate : 0.222 FPS
Count of elements : 1508
Stream size : 121 KiB (0%)
Language : Hindi
Default : No
Forced : No

Text #13
ID : 16
Format : UTF-8
Codec ID : S_TEXT/UTF8
Codec ID/Info : UTF-8 Plain Text
Duration : 1 h 51 min
Bit rate : 62 b/s
Frame rate : 0.229 FPS
Count of elements : 1535
Stream size : 51.3 KiB (0%)
Language : Indonesian
Default : No
Forced : No

Text #14
ID : 17
Format : UTF-8
Codec ID : S_TEXT/UTF8
Codec ID/Info : UTF-8 Plain Text
Duration : 1 h 51 min
Bit rate : 65 b/s
Frame rate : 0.230 FPS
Count of elements : 1544
Stream size : 54.0 KiB (0%)
Language : Italian
Default : No
Forced : No

Text #15
ID : 18
Format : UTF-8
Codec ID : S_TEXT/UTF8
Codec ID/Info : UTF-8 Plain Text
Duration : 1 h 53 min
Bit rate : 54 b/s
Frame rate : 0.218 FPS
Count of elements : 1481
Stream size : 45.0 KiB (0%)
Language : Korean
Default : No
Forced : No

Text #16
ID : 19
Format : UTF-8
Codec ID : S_TEXT/UTF8
Codec ID/Info : UTF-8 Plain Text
Duration : 1 h 51 min
Bit rate : 66 b/s
Frame rate : 0.223 FPS
Count of elements : 1497
Stream size : 54.7 KiB (0%)
Language : Dutch
Default : No
Forced : No

Text #17
ID : 20
Format : UTF-8
Codec ID : S_TEXT/UTF8
Codec ID/Info : UTF-8 Plain Text
Duration : 1 h 51 min
Bit rate : 54 b/s
Frame rate : 0.223 FPS
Count of elements : 1496
Stream size : 44.8 KiB (0%)
Language : Norwegian
Default : No
Forced : No

Text #18
ID : 21
Format : UTF-8
Codec ID : S_TEXT/UTF8
Codec ID/Info : UTF-8 Plain Text
Duration : 1 h 51 min
Bit rate : 61 b/s
Frame rate : 0.222 FPS
Count of elements : 1492
Stream size : 50.7 KiB (0%)
Language : Polish
Default : No
Forced : No

Text #19
ID : 22
Format : UTF-8
Codec ID : S_TEXT/UTF8
Codec ID/Info : UTF-8 Plain Text
Duration : 1 h 53 min
Bit rate : 109 b/s
Frame rate : 0.251 FPS
Count of elements : 1706
Stream size : 90.7 KiB (0%)
Language : Russian
Default : No
Forced : No

Text #20
ID : 23
Format : UTF-8
Codec ID : S_TEXT/UTF8
Codec ID/Info : UTF-8 Plain Text
Duration : 1 h 57 min
Bit rate : 54 b/s
Frame rate : 0.208 FPS
Count of elements : 1467
Stream size : 47.2 KiB (0%)
Language : Swedish
Default : No
Forced : No

Text #21
ID : 24
Format : UTF-8
Codec ID : S_TEXT/UTF8
Codec ID/Info : UTF-8 Plain Text
Duration : 1 h 53 min
Bit rate : 133 b/s
Frame rate : 0.222 FPS
Count of elements : 1508
Stream size : 111 KiB (0%)
Language : Thai
Default : No
Forced : No

Text #22
ID : 25
Format : UTF-8
Codec ID : S_TEXT/UTF8
Codec ID/Info : UTF-8 Plain Text
Duration : 1 h 53 min
Bit rate : 64 b/s
Frame rate : 0.220 FPS
Count of elements : 1499
Stream size : 53.3 KiB (0%)
Language : Turkish
Default : No
Forced : No

Menu
00:00:00.000 : en:Chapter 01
00:06:37.000 : en:Chapter 02
00:09:10.000 : en:Chapter 03
00:13:13.000 : en:Chapter 04
00:14:55.000 : en:Chapter 05
00:19:19.000 : en:Chapter 06
00:25:51.000 : en:Chapter 07
00:30:06.000 : en:Chapter 08
00:32:54.000 : en:Chapter 09
00:35:10.000 : en:Chapter 10
00:38:34.000 : en:Chapter 11
00:42:07.000 : en:Chapter 12
00:43:50.000 : en:Chapter 13
00:45:35.000 : en:Chapter 14
00:48:58.000 : en:Chapter 15
00:52:20.000 : en:Chapter 16
00:57:04.000 : en:Chapter 17
01:03:37.000 : en:Chapter 18
01:09:13.000 : en:Chapter 19
01:13:33.000 : en:Chapter 20
01:16:29.000 : en:Chapter 21
01:21:15.000 : en:Chapter 22
01:28:01.000 : en:Chapter 23
01:35:16.000 : en:Chapter 24
01:37:35.000 : en:Chapter 25
01:40:12.000 : en:Chapter 26
01:44:13.000 : en:Chapter 27
01:48:16.000 : en:Chapter 28

资源速度为零或资源敏感被和谐时,推荐使用qBittorrent等下载软件,有条件的推荐115更好的下载软件!

下载地址:


游客,如果您要查看本帖隐藏内容请回复


以往4K高清版本(英文字幕版本)
游客,如果您要查看本帖隐藏内容请回复






上一篇:新小屁孩日记 [简繁粤中字] (2017) 4K高清版本下载
下一篇:上班一条虫 / Office Space (1999) 4K高清版本下载
回复

使用道具 举报

主题

帖子

0

积分

新手上路

Rank: 1

积分
0
发表于 2022-11-17 16:04:44 | 显示全部楼层
回复

使用道具 举报

0

主题

9

帖子

22

积分

新手上路

Rank: 1

积分
22
发表于 7 天前 | 显示全部楼层
谢谢分享好电影。
回复 支持 反对

使用道具 举报

您需要登录后才可以回帖 登录 | 立即注册

本版积分规则

精彩图文
Archiver|手机版|TAG|Sitemap|新帖|专题|联系我们:邮箱: 4kjia.com@gmail.com   

4k家园   ©2019