[4K电影] 荒唐六蛟龙[简繁中字] / The Ridiculous 6 (2015) 4K高清版本下载

[复制链接]

主题

帖子

0

积分

超级版主

Rank: 8Rank: 8

积分
0
 楼主| 发表于 2022-11-15 11:02:20 | 显示全部楼层 |阅读模式
本帖最后由 最爱4K哟 于 2022-11-15 11:04 编辑

荒唐六蛟龙.png

◎译  名 荒唐六蛟龙 / 六逗逼 / 滑稽六人组
◎片  名 The Ridiculous 6
◎年  代 2015
◎产  地 美国
◎类  别 喜剧 / 西部
◎语  言 英语
◎上映日期 2015-12-11(美国)
◎IMDb评分 4.8/10 from 49874 users 更新: 2022-11-13
◎IMDb链接 https://www.imdb.com/title/tt2479478
◎豆瓣评分 6.3/10 from 4186 users   更新 : 2022-11-15
◎豆瓣链接 https://movie.douban.com/subject/26312844/
◎片  长 119分钟
◎导  演 弗兰克·克拉斯 Frank Coraci
◎编  剧 蒂姆 赫利希 Tim Herlihy / 亚当·桑德勒 Adam Sandler
◎主  演 亚当·桑德勒 Adam Sandler
       泰瑞·克鲁斯 Terry Crews
       乔治·加西亚 Jorge Garcia
       泰勒·洛特纳 Taylor Lautner
       罗伯·施奈德 Rob Schneider
       卢克·威尔逊 Luke Wilson
       威尔·福特 Will Forte
       史蒂夫·茨恩 Steve Zahn
       哈威·凯特尔 Harvey Keitel
       尼克·诺特 Nick Nolte
       乔恩·拉威茨 Jon Lovitz
       惠特妮·卡明 Whitney Cummings
       大卫·斯佩德 David Spade
       丹尼·特雷霍 Danny Trejo
       尼克·斯旺森 Nick Swardson


◎简  介


  影片灵感来源于约翰·斯特奇斯指导的著名西部片《豪勇七蛟龙》,但也有人指出该片的预告片皆模仿知名导演昆丁的第八部长片《八恶人》。由Netflix原创出品的电影,将于今年12月11日在Netflix上全面放出。影片讲述素不相识的六位陌生人,只因有着共同父亲而聚集到一起的故事,成为整个西部最为“臭名远扬”的黑帮小队。影片投资高达6600万美金,同时强大的阵容也受到很多关注。影片最早是派拉蒙在2012年的项目,但后改为由华纳兄弟,Netflix和亚当·桑德勒的公司出品,但因华纳兄弟中途退出,在2014年由Netflix全盘接手。Netflix接手后,除去亚当·桑德勒以外加入了其他数位明星,打造了本片全明星的阵容。本片试用极多的美国印第安原住民,从而更为深刻打造出西部片和印第安风的画面感。
Video
ID : 1
Format : HEVC
Format/Info : High Efficiency Video Coding
Format profile : Main 10@L5@Main
Codec ID : V_MPEGH/ISO/HEVC
Duration : 2 h 0 min
Bit rate : 11.6 Mb/s
Width : 3 840 pixels
Height : 2 160 pixels
Display aspect ratio : 16:9
Frame rate mode : Constant
Frame rate : 23.976 (24000/1001) FPS
Color space : YUV
Chroma subsampling : 4:2:0
Bit depth : 10 bits
Bits/(Pixel*Frame) : 0.058
Stream size : 9.69 GiB (95%)
Default : Yes
Forced : No
Color range : Limited
Color primaries : BT.709
Transfer characteristics : BT.709
Matrix coefficients : BT.709

Audio
ID : 2
Format : E-AC-3
Format/Info : Enhanced AC-3
Commercial name : Dolby Digital Plus
Codec ID : A_EAC3
Duration : 2 h 0 min
Bit rate mode : Constant
Bit rate : 640 kb/s
Channel(s) : 6 channels
Channel layout : L R C LFE Ls Rs
Sampling rate : 48.0 kHz
Frame rate : 31.250 FPS (1536 SPF)
Compression mode : Lossy
Stream size : 549 MiB (5%)
Language : English
Service kind : Complete Main
Default : Yes
Forced : No

Text #1
ID : 3
Format : UTF-8
Codec ID : S_TEXT/UTF8
Codec ID/Info : UTF-8 Plain Text
Duration : 1 h 57 min
Bit rate : 61 b/s
Frame rate : 0.236 FPS
Count of elements : 1669
Stream size : 53.4 KiB (0%)
Title : English
Language : English
Default : No
Forced : No

Text #2
ID : 4
Format : UTF-8
Codec ID : S_TEXT/UTF8
Codec ID/Info : UTF-8 Plain Text
Duration : 1 h 58 min
Bit rate : 69 b/s
Frame rate : 0.273 FPS
Count of elements : 1944
Stream size : 60.8 KiB (0%)
Title : English SDH
Language : English
Default : No
Forced : No

Text #3
ID : 5
Format : UTF-8
Codec ID : S_TEXT/UTF8
Codec ID/Info : UTF-8 Plain Text
Duration : 1 h 58 min
Bit rate : 132 b/s
Frame rate : 0.228 FPS
Count of elements : 1621
Stream size : 115 KiB (0%)
Title : Arabic
Language : Arabic
Default : No
Forced : No

Text #4
ID : 6
Format : UTF-8
Codec ID : S_TEXT/UTF8
Codec ID/Info : UTF-8 Plain Text
Duration : 1 h 58 min
Bit rate : 61 b/s
Frame rate : 0.226 FPS
Count of elements : 1607
Stream size : 53.9 KiB (0%)
Title : Czech
Language : Czech
Default : No
Forced : No

Text #5
ID : 7
Format : UTF-8
Codec ID : S_TEXT/UTF8
Codec ID/Info : UTF-8 Plain Text
Duration : 1 h 58 min
Bit rate : 56 b/s
Frame rate : 0.226 FPS
Count of elements : 1611
Stream size : 48.9 KiB (0%)
Title : Danish
Language : Danish
Default : No
Forced : No

Text #6
ID : 8
Format : UTF-8
Codec ID : S_TEXT/UTF8
Codec ID/Info : UTF-8 Plain Text
Duration : 1 h 58 min
Bit rate : 60 b/s
Frame rate : 0.216 FPS
Count of elements : 1538
Stream size : 52.6 KiB (0%)
Title : German
Language : German
Default : No
Forced : No

Text #7
ID : 9
Format : UTF-8
Codec ID : S_TEXT/UTF8
Codec ID/Info : UTF-8 Plain Text
Duration : 1 h 58 min
Bit rate : 101 b/s
Frame rate : 0.205 FPS
Count of elements : 1459
Stream size : 88.6 KiB (0%)
Title : Greek
Language : Greek
Default : No
Forced : No

Text #8
ID : 10
Format : UTF-8
Codec ID : S_TEXT/UTF8
Codec ID/Info : UTF-8 Plain Text
Duration : 1 h 58 min
Bit rate : 63 b/s
Frame rate : 0.216 FPS
Count of elements : 1537
Stream size : 54.9 KiB (0%)
Title : Spanish Latin American
Language : Spanish
Default : No
Forced : No

Text #9
ID : 11
Format : UTF-8
Codec ID : S_TEXT/UTF8
Codec ID/Info : UTF-8 Plain Text
Duration : 1 h 58 min
Bit rate : 58 b/s
Frame rate : 0.215 FPS
Count of elements : 1532
Stream size : 51.0 KiB (0%)
Title : Spanish European
Language : Spanish
Default : No
Forced : No

Text #10
ID : 12
Format : UTF-8
Codec ID : S_TEXT/UTF8
Codec ID/Info : UTF-8 Plain Text
Duration : 1 h 58 min
Bit rate : 51 b/s
Frame rate : 0.189 FPS
Count of elements : 1343
Stream size : 45.1 KiB (0%)
Title : Finnish
Language : Finnish
Default : No
Forced : No

Text #11
ID : 13
Format : UTF-8
Codec ID : S_TEXT/UTF8
Codec ID/Info : UTF-8 Plain Text
Duration : 1 h 58 min
Bit rate : 65 b/s
Frame rate : 0.223 FPS
Count of elements : 1590
Stream size : 56.7 KiB (0%)
Title : fil
Language : fil
Default : No
Forced : No

Text #12
ID : 14
Format : UTF-8
Codec ID : S_TEXT/UTF8
Codec ID/Info : UTF-8 Plain Text
Duration : 1 h 58 min
Bit rate : 59 b/s
Frame rate : 0.221 FPS
Count of elements : 1572
Stream size : 51.7 KiB (0%)
Title : French
Language : French
Default : No
Forced : No

Text #13
ID : 15
Format : UTF-8
Codec ID : S_TEXT/UTF8
Codec ID/Info : UTF-8 Plain Text
Duration : 1 h 58 min
Bit rate : 84 b/s
Frame rate : 0.188 FPS
Count of elements : 1337
Stream size : 73.8 KiB (0%)
Title : Hebrew
Language : Hebrew
Default : No
Forced : No

Text #14
ID : 16
Format : UTF-8
Codec ID : S_TEXT/UTF8
Codec ID/Info : UTF-8 Plain Text
Duration : 1 h 58 min
Bit rate : 146 b/s
Frame rate : 0.228 FPS
Count of elements : 1622
Stream size : 128 KiB (0%)
Title : Hindi
Language : Hindi
Default : No
Forced : No

Text #15
ID : 17
Format : UTF-8
Codec ID : S_TEXT/UTF8
Codec ID/Info : UTF-8 Plain Text
Duration : 1 h 58 min
Bit rate : 50 b/s
Frame rate : 0.225 FPS
Count of elements : 1607
Stream size : 43.7 KiB (0%)
Title : Croatian
Language : Croatian
Default : No
Forced : No

Text #16
ID : 18
Format : UTF-8
Codec ID : S_TEXT/UTF8
Codec ID/Info : UTF-8 Plain Text
Duration : 1 h 58 min
Bit rate : 61 b/s
Frame rate : 0.226 FPS
Count of elements : 1613
Stream size : 53.5 KiB (0%)
Title : Hungarian
Language : Hungarian
Default : No
Forced : No

Text #17
ID : 19
Format : UTF-8
Codec ID : S_TEXT/UTF8
Codec ID/Info : UTF-8 Plain Text
Duration : 1 h 58 min
Bit rate : 60 b/s
Frame rate : 0.226 FPS
Count of elements : 1612
Stream size : 52.4 KiB (0%)
Title : Indonesian
Language : Indonesian
Default : No
Forced : No

Text #18
ID : 20
Format : UTF-8
Codec ID : S_TEXT/UTF8
Codec ID/Info : UTF-8 Plain Text
Duration : 1 h 58 min
Bit rate : 59 b/s
Frame rate : 0.222 FPS
Count of elements : 1578
Stream size : 52.1 KiB (0%)
Title : Italian
Language : Italian
Default : No
Forced : No

Text #19
ID : 21
Format : UTF-8
Codec ID : S_TEXT/UTF8
Codec ID/Info : UTF-8 Plain Text
Duration : 1 h 58 min
Bit rate : 53 b/s
Frame rate : 0.233 FPS
Count of elements : 1657
Stream size : 46.4 KiB (0%)
Title : Japanese
Language : Japanese
Default : No
Forced : No

Text #20
ID : 22
Format : UTF-8
Codec ID : S_TEXT/UTF8
Codec ID/Info : UTF-8 Plain Text
Duration : 1 h 58 min
Bit rate : 60 b/s
Frame rate : 0.227 FPS
Count of elements : 1619
Stream size : 52.4 KiB (0%)
Title : Korean
Language : Korean
Default : No
Forced : No

Text #21
ID : 23
Format : UTF-8
Codec ID : S_TEXT/UTF8
Codec ID/Info : UTF-8 Plain Text
Duration : 1 h 58 min
Bit rate : 58 b/s
Frame rate : 0.231 FPS
Count of elements : 1643
Stream size : 50.5 KiB (0%)
Title : Malay
Language : Malay
Default : No
Forced : No

Text #22
ID : 24
Format : UTF-8
Codec ID : S_TEXT/UTF8
Codec ID/Info : UTF-8 Plain Text
Duration : 1 h 58 min
Bit rate : 52 b/s
Frame rate : 0.211 FPS
Count of elements : 1501
Stream size : 45.6 KiB (0%)
Title : Norwegian Bokmal
Language : Norwegian Bokmal
Default : No
Forced : No

Text #23
ID : 25
Format : UTF-8
Codec ID : S_TEXT/UTF8
Codec ID/Info : UTF-8 Plain Text
Duration : 1 h 58 min
Bit rate : 54 b/s
Frame rate : 0.208 FPS
Count of elements : 1478
Stream size : 47.2 KiB (0%)
Title : Dutch
Language : Dutch
Default : No
Forced : No

Text #24
ID : 26
Format : UTF-8
Codec ID : S_TEXT/UTF8
Codec ID/Info : UTF-8 Plain Text
Duration : 1 h 58 min
Bit rate : 50 b/s
Frame rate : 0.220 FPS
Count of elements : 1569
Stream size : 44.1 KiB (0%)
Title : Polish
Language : Polish
Default : No
Forced : No

Text #25
ID : 27
Format : UTF-8
Codec ID : S_TEXT/UTF8
Codec ID/Info : UTF-8 Plain Text
Duration : 1 h 58 min
Bit rate : 58 b/s
Frame rate : 0.220 FPS
Count of elements : 1569
Stream size : 51.1 KiB (0%)
Title : Portuguese Brazilian
Language : Portuguese
Default : No
Forced : No

Text #26
ID : 28
Format : UTF-8
Codec ID : S_TEXT/UTF8
Codec ID/Info : UTF-8 Plain Text
Duration : 1 h 58 min
Bit rate : 60 b/s
Frame rate : 0.225 FPS
Count of elements : 1604
Stream size : 52.9 KiB (0%)
Title : Portuguese European
Language : Portuguese
Default : No
Forced : No

Text #27
ID : 29
Format : UTF-8
Codec ID : S_TEXT/UTF8
Codec ID/Info : UTF-8 Plain Text
Duration : 1 h 58 min
Bit rate : 88 b/s
Frame rate : 0.227 FPS
Count of elements : 1614
Stream size : 76.5 KiB (0%)
Title : Russian
Language : Russian
Default : No
Forced : No

Text #28
ID : 30
Format : UTF-8
Codec ID : S_TEXT/UTF8
Codec ID/Info : UTF-8 Plain Text
Duration : 1 h 58 min
Bit rate : 59 b/s
Frame rate : 0.227 FPS
Count of elements : 1618
Stream size : 51.7 KiB (0%)
Title : Slovak
Language : Slovak
Default : No
Forced : No

Text #29
ID : 31
Format : UTF-8
Codec ID : S_TEXT/UTF8
Codec ID/Info : UTF-8 Plain Text
Duration : 1 h 58 min
Bit rate : 88 b/s
Frame rate : 0.225 FPS
Count of elements : 1602
Stream size : 77.3 KiB (0%)
Title : Serbian Cyrillic
Language : Serbian
Default : No
Forced : No

Text #30
ID : 32
Format : UTF-8
Codec ID : S_TEXT/UTF8
Codec ID/Info : UTF-8 Plain Text
Duration : 1 h 58 min
Bit rate : 52 b/s
Frame rate : 0.228 FPS
Count of elements : 1622
Stream size : 45.3 KiB (0%)
Title : Serbian Latin
Language : Serbian
Default : No
Forced : No

Text #31
ID : 33
Format : UTF-8
Codec ID : S_TEXT/UTF8
Codec ID/Info : UTF-8 Plain Text
Duration : 1 h 58 min
Bit rate : 55 b/s
Frame rate : 0.224 FPS
Count of elements : 1597
Stream size : 48.0 KiB (0%)
Title : Swedish
Language : Swedish
Default : No
Forced : No

Text #32
ID : 34
Format : UTF-8
Codec ID : S_TEXT/UTF8
Codec ID/Info : UTF-8 Plain Text
Duration : 1 h 58 min
Bit rate : 138 b/s
Frame rate : 0.227 FPS
Count of elements : 1620
Stream size : 121 KiB (0%)
Title : Thai
Language : Thai
Default : No
Forced : No

Text #33
ID : 35
Format : UTF-8
Codec ID : S_TEXT/UTF8
Codec ID/Info : UTF-8 Plain Text
Duration : 1 h 58 min
Bit rate : 56 b/s
Frame rate : 0.223 FPS
Count of elements : 1586
Stream size : 49.5 KiB (0%)
Title : Turkish
Language : Turkish
Default : No
Forced : No

Text #34
ID : 36
Format : UTF-8
Codec ID : S_TEXT/UTF8
Codec ID/Info : UTF-8 Plain Text
Duration : 1 h 58 min
Bit rate : 86 b/s
Frame rate : 0.245 FPS
Count of elements : 1746
Stream size : 75.4 KiB (0%)
Title : Ukrainian
Language : Ukrainian
Default : No
Forced : No

Text #35
ID : 37
Format : UTF-8
Codec ID : S_TEXT/UTF8
Codec ID/Info : UTF-8 Plain Text
Duration : 1 h 58 min
Bit rate : 72 b/s
Frame rate : 0.218 FPS
Count of elements : 1555
Stream size : 62.7 KiB (0%)
Title : Vietnamese
Language : Vietnamese
Default : No
Forced : No

Text #36
ID : 38
Format : UTF-8
Codec ID : S_TEXT/UTF8
Codec ID/Info : UTF-8 Plain Text
Duration : 1 h 58 min
Bit rate : 54 b/s
Frame rate : 0.227 FPS
Count of elements : 1620
Stream size : 47.3 KiB (0%)
Title : 简体中字
Language : Chinese
Default : No
Forced : No


Text #37
ID : 39
Format : UTF-8
Codec ID : S_TEXT/UTF8
Codec ID/Info : UTF-8 Plain Text
Duration : 1 h 58 min
Bit rate : 52 b/s
Frame rate : 0.228 FPS
Count of elements : 1622
Stream size : 45.6 KiB (0%)
Title : 繁体中字
Language : Chinese
Default : No
Forced : No

Menu
00:00:00.000 : enart 01
01:59:04.450 : en:Credits

关于下载:推荐使用qBittorrent、uTorrent、BitComet等下载软件,有条件的推荐115更好的下载软件!

下载地址:
游客,如果您要查看本帖隐藏内容请回复


以下为以往链接
游客,如果您要查看本帖隐藏内容请回复

游客,如果您要查看本帖隐藏内容请回复




上一篇:上班一条虫 / Office Space (1999) 4K高清版本下载
下一篇:危笑 / Smile (2022) 4K高清版本下载
回复

使用道具 举报

主题

帖子

0

积分

新手上路

Rank: 1

积分
0
发表于 2022-11-15 12:18:29 | 显示全部楼层
开心开心
回复

使用道具 举报

您需要登录后才可以回帖 登录 | 立即注册

本版积分规则

精彩图文
Archiver|手机版|TAG|Sitemap|新帖|专题|联系我们:邮箱: 4kjia.com@gmail.com   

4k家园   ©2019