[4K UHD 蓝光原盘] 星球大战外传:侠盗一号 (2016) 4K蓝光REMUX版本下载

[复制链接]

主题

帖子

0

积分

超级版主

Rank: 8Rank: 8

积分
0
 楼主| 发表于 2022-11-15 11:27:10 | 显示全部楼层 |阅读模式
本帖最后由 没完没了 于 2022-11-23 21:41 编辑

星球大战外传:侠盗一号.png

◎标  题 星球大战外传:侠盗一号
◎译  名 侠盗一号 / 星战外传1 / 侠盗一号:星球大战外传 / 星球大战:侠盗一号 / 罗格一号 / Star Wars Anthology: Rogue One / Star Wars: Rogue One / Rogue One
◎片  名 Rogue One: A Star Wars Story
◎年  代 2016
◎产  地 美国
◎类  别 动作 / 科幻 / 冒险
◎语  言 英语
◎上映日期 2017-01-06(中国大陆) / 2016-12-16(美国)
◎IMDb评分 7.8/10 from 632796 users 更新: 2022-11-12
◎IMDb链接 https://www.imdb.com/title/tt3748528/
◎豆瓣评分 7.3/10 from 171917 users 更新: 2022-11-15
◎豆瓣链接 https://movie.douban.com/subject/25894431/
◎片  长 134分钟
◎导  演 加里斯·爱德华斯 Gareth Edwards
◎编  剧 克里斯·韦兹 Chris Weitz / 托尼·吉尔罗伊 Tony Gilroy / 约翰·诺尔 John Knoll / 加里·维塔 Gary Whitta / 乔治·卢卡斯 George Lucas
◎演  员 菲丽希缇·琼斯 Felicity Jones
       迭戈·卢纳 Diego Luna
       甄子丹 Donnie Yen
       本·门德尔森 Ben Mendelsohn
       麦斯·米科尔森 Mads Mikkelsen
       艾伦·图代克 Alan Tudyk
       福里斯特·惠特克 Forest Whitaker
       姜文 Wen Jiang
       里兹·阿迈德 Riz Ahmed
       乔纳森·阿里斯 Jonathan Aris
       尤妮斯·奥卢米德 Eunice Olumide
       克莱尔·陈 Claire Tran
       吉米·斯密茨 Jimmy Smits
       沃维克·戴维斯 Warwick Davis
       马克·普雷斯顿 Mark Preston
       吉娜薇·欧瑞丽 Genevieve O'Reilly
       詹姆斯·厄尔·琼斯 James Earl Jones
       迈克尔·谢弗 Michael Shaeffer
       王琦珮 Gabby Wong
       鲁弗斯·赖特 Rufus Wright
       莱恩·约翰逊 Rian Johnson
       迈克尔·史麦利 Michael Smiley
       迈克尔·纳尔多内 Michael Nardone
       马特·里皮 Matt Rippy
       杰夫·贝尔 Geoff Bell
       王玮雯 Ivy Wong
       里查德·富兰克林 Richard Franklin
       维罗娜·布鲁 Verona Blue
       布里安娜·威廉姆斯 Boriana Williams
       杰夫·奎卡 Jeff Kryka
       詹姆斯·哈克尼斯 James Harkness
       英维尔德·黛拉 Ingvild Deila
       德里克·阿诺德 Derek Arnold
       丹尼尔·纳普勒斯 Daniel Naprous
       碧悠·加德斯顿 Beau Gadsdon
       迪·泰尔斯 Dee Tails
       杰克·罗思 Jack Roth
       西蒙·法纳比 Simon Farnaby
       杰拉丁妮·詹姆斯 Geraldine James
       布隆森·韦伯 Bronson Webb
       丹尼尔·梅斯 Daniel Mays
       瓦伦·凯恩 Valene Kane
       安东尼·丹尼尔斯 Anthony Daniels
       斯宾塞·怀尔丁 Spencer Wilding
       莎伦·邓肯-布鲁斯特 Sharon Duncan-Brewster
       法瑞斯·法瑞斯 Fares Fares
       伊恩·麦克尔希尼 Ian McElhinney
       斯蒂芬·斯坦顿 Stephen Stanton
       保罗·卡塞 Paul Kasey
       本·丹尼尔斯 Ben Daniels
       埃利斯戴尔·皮特里 Alistair Petrie
       盖伊·亨利 Guy Henry


◎简  介


    共和体制崩塌,银河帝国的阴影笼罩着宇宙文明每一个角落。为了加强对反抗势力的镇压,塔金主义直接催生了一种足以摧毁星球的超级武器——死星的诞生,而物理科学家盖伦·厄索(麦斯·米科尔森 Mads Mikkelsen 饰)正是死星的主要设计者。厄索的女儿琴(菲丽希缇·琼斯 Felicity Jones 饰)在童年时代与父母经历了生离死别,之后她被反抗组织领袖索•格雷拉(福里斯特·惠特克 Forest Whitaker 饰)所抚养长大。成年后琴罪行累累,成为帝国的阶下囚,最终却被反抗组织救出。从格雷拉那里她得知死星的存在,并见证了一个城市的灰飞烟灭。然而义军同盟决然不信死星的存在,万般无奈琴和飞行员卡西安·安多(迭戈·鲁纳 Diego Luna 饰)等人孤身前往收藏着死星设计图的星球,攸关全宇宙命运的战争拉开了序幕……   故事根据1977年《星球大战:新希望》片头的一段文字改编。

Video
ID : 1
ID in the original source medium : 4113 (0x1011)
Format : HEVC
Format/Info : High Efficiency Video Coding
Format profile : Main 10@L5.1@High
HDR format : SMPTE ST 2086, HDR10 compatible
Codec ID : V_MPEGH/ISO/HEVC
Duration : 2 h 13 min
Bit rate : 46.6 Mb/s
Width : 3 840 pixels
Height : 2 160 pixels
Display aspect ratio : 16:9
Frame rate mode : Constant
Frame rate : 23.976 (24000/1001) FPS
Color space : YUV
Chroma subsampling : 4:2:0 (Type 2)
Bit depth : 10 bits
Bits/(Pixel*Frame) : 0.235
Stream size : 43.6 GiB (80%)
Writing library : ATEME Titan File 3.9.0 (4.9.0.0)
Language : English
Default : No
Forced : No
Color range : Limited
Color primaries : BT.2020
Transfer characteristics : PQ
Matrix coefficients : BT.2020 non-constant
Mastering display color primaries : Display P3
Mastering display luminance : min: 0.0050 cd/m2, max: 4000 cd/m2
Original source medium : Blu-ray

Audio #1
ID : 2
ID in the original source medium : 4352 (0x1100)
Format : MLP FBA 16-ch
Format/Info : Meridian Lossless Packing FBA with 16-channel presentation
Commercial name : Dolby TrueHD with Dolby Atmos
Codec ID : A_TRUEHD
Duration : 2 h 13 min
Bit rate mode : Variable
Bit rate : 4 211 kb/s
Maximum bit rate : 5 055 kb/s
Channel(s) : 8 channels
Channel layout : L R C LFE Ls Rs Lb Rb
Sampling rate : 48.0 kHz
Frame rate : 1 200.000 FPS (40 SPF)
Bit depth : 24 bits
Compression mode : Lossless
Stream size : 3.94 GiB (7%)
Title : TrueHD 7.1 Atmos
Language : English
Default : Yes
Forced : No
Original source medium : Blu-ray
Number of dynamic objects : 13
Bed channel count : 1 channel
Bed channel configuration : LFE

Audio #2
ID : 3
Format : DTS XLL
Format/Info : Digital Theater Systems
Commercial name : DTS-HD Master Audio
Codec ID : A_DTS
Duration : 2 h 13 min
Bit rate mode : Variable
Bit rate : 3 508 kb/s
Channel(s) : 8 channels
Channel layout : C L R LFE Lb Rb Lss Rss
Sampling rate : 48.0 kHz
Frame rate : 93.750 FPS (512 SPF)
Bit depth : 24 bits
Compression mode : Lossless
Stream size : 3.28 GiB (6%)
Title : DTS-HD MA 7.1
Language : English
Default : No
Forced : No

Audio #3
ID : 4
ID in the original source medium : 4352 (0x1100)
Format : AC-3
Format/Info : Audio Coding 3
Commercial name : Dolby Digital
Codec ID : A_AC3
Duration : 2 h 13 min
Bit rate mode : Constant
Bit rate : 640 kb/s
Channel(s) : 6 channels
Channel layout : L R C LFE Ls Rs
Sampling rate : 48.0 kHz
Frame rate : 31.250 FPS (1536 SPF)
Compression mode : Lossy
Stream size : 613 MiB (1%)
Title : DD 5.1
Language : English
Service kind : Complete Main
Default : No
Forced : No
Original source medium : Blu-ray

Audio #4
ID : 5
ID in the original source medium : 4353 (0x1101)
Format : AC-3
Format/Info : Audio Coding 3
Commercial name : Dolby Digital
Codec ID : A_AC3
Duration : 2 h 13 min
Bit rate mode : Constant
Bit rate : 320 kb/s
Channel(s) : 2 channels
Channel layout : L R
Sampling rate : 48.0 kHz
Frame rate : 31.250 FPS (1536 SPF)
Compression mode : Lossy
Stream size : 307 MiB (0%)
Title : DTS-HD MA 2.0
Language : English
Service kind : Complete Main
Default : No
Forced : No
Original source medium : Blu-ray

Audio #5
ID : 6
Format : E-AC-3
Format/Info : Enhanced AC-3
Commercial name : Dolby Digital Plus
Format profile : Blu-ray Disc
Codec ID : A_EAC3
Duration : 2 h 13 min
Bit rate mode : Constant
Bit rate : 1 024 kb/s
Channel(s) : 8 channels
Channel layout : L R C LFE Ls Rs Lb Rb
Sampling rate : 48.0 kHz
Frame rate : 31.250 FPS (1536 SPF)
Compression mode : Lossy
Stream size : 981 MiB (2%)
Title : DDP 7.1
Language : French
Service kind : Complete Main
Default : No
Forced : No

Audio #6
ID : 7
Format : E-AC-3
Format/Info : Enhanced AC-3
Commercial name : Dolby Digital Plus
Format profile : Blu-ray Disc
Codec ID : A_EAC3
Duration : 2 h 13 min
Bit rate mode : Constant
Bit rate : 1 024 kb/s
Channel(s) : 8 channels
Channel layout : L R C LFE Ls Rs Lb Rb
Sampling rate : 48.0 kHz
Frame rate : 31.250 FPS (1536 SPF)
Compression mode : Lossy
Stream size : 981 MiB (2%)
Title : DDP 7.1
Language : Spanish
Service kind : Complete Main
Default : No
Forced : No

Audio #7
ID : 8
Format : E-AC-3
Format/Info : Enhanced AC-3
Commercial name : Dolby Digital Plus
Format profile : Blu-ray Disc
Codec ID : A_EAC3
Duration : 2 h 13 min
Bit rate mode : Constant
Bit rate : 1 024 kb/s
Channel(s) : 8 channels
Channel layout : L R C LFE Ls Rs Lb Rb
Sampling rate : 48.0 kHz
Frame rate : 31.250 FPS (1536 SPF)
Compression mode : Lossy
Stream size : 981 MiB (2%)
Title : DDP 7.1
Language : Japanese
Service kind : Complete Main
Default : No
Forced : No

Text #1
ID : 9
Format : UTF-8
Codec ID : S_TEXT/UTF8
Codec ID/Info : UTF-8 Plain Text
Duration : 2 h 4 min
Bit rate : 47 b/s
Frame rate : 0.207 FPS
Count of elements : 1544
Stream size : 43.4 KiB (0%)
Language : English
Default : Yes
Forced : No

Text #2
ID : 10
Format : UTF-8
Codec ID : S_TEXT/UTF8
Codec ID/Info : UTF-8 Plain Text
Duration : 2 h 5 min
Bit rate : 53 b/s
Frame rate : 0.241 FPS
Count of elements : 1811
Stream size : 48.7 KiB (0%)
Title : SDH
Language : English
Default : No
Forced : No

Text #3
ID : 11
ID in the original source medium : 4768 (0x12A0)
Format : PGS
Muxing mode : zlib
Codec ID : S_HDMV/PGS
Codec ID/Info : Picture based subtitle format used on BDs/HD-DVDs
Duration : 2 h 6 min
Bit rate : 35.3 kb/s
Frame rate : 0.481 FPS
Count of elements : 3666
Stream size : 32.1 MiB (0%)
Language : English
Default : No
Forced : No
Original source medium : Blu-ray

Text #4
ID : 12
ID in the original source medium : 4769 (0x12A1)
Format : PGS
Muxing mode : zlib
Codec ID : S_HDMV/PGS
Codec ID/Info : Picture based subtitle format used on BDs/HD-DVDs
Duration : 2 h 7 min
Bit rate : 29.8 kb/s
Frame rate : 0.403 FPS
Count of elements : 3070
Stream size : 27.1 MiB (0%)
Language : French
Default : No
Forced : No
Original source medium : Blu-ray

Text #5
ID : 13
ID in the original source medium : 4770 (0x12A2)
Format : PGS
Muxing mode : zlib
Codec ID : S_HDMV/PGS
Codec ID/Info : Picture based subtitle format used on BDs/HD-DVDs
Duration : 2 h 7 min
Bit rate : 29.7 kb/s
Frame rate : 0.394 FPS
Count of elements : 3006
Stream size : 27.0 MiB (0%)
Language : Spanish
Default : No
Forced : No
Original source medium : Blu-ray

Text #6
ID : 14
ID in the original source medium : 4771 (0x12A3)
Format : PGS
Muxing mode : zlib
Codec ID : S_HDMV/PGS
Codec ID/Info : Picture based subtitle format used on BDs/HD-DVDs
Duration : 2 h 13 min
Bit rate : 19.8 kb/s
Frame rate : 0.334 FPS
Count of elements : 2673
Stream size : 18.9 MiB (0%)
Language : Japanese
Default : No
Forced : No
Original source medium : Blu-ray

Text #7
ID : 15
ID in the original source medium : 4772 (0x12A4)
Format : PGS
Muxing mode : zlib
Codec ID : S_HDMV/PGS
Codec ID/Info : Picture based subtitle format used on BDs/HD-DVDs
Duration : 2 h 7 min
Bit rate : 450 b/s
Frame rate : 0.013 FPS
Count of elements : 96
Stream size : 420 KiB (0%)
Language : French
Default : No
Forced : No
Original source medium : Blu-ray

Text #8
ID : 16
ID in the original source medium : 4773 (0x12A5)
Format : PGS
Muxing mode : zlib
Codec ID : S_HDMV/PGS
Codec ID/Info : Picture based subtitle format used on BDs/HD-DVDs
Duration : 2 h 7 min
Bit rate : 188 b/s
Frame rate : 0.007 FPS
Count of elements : 56
Stream size : 176 KiB (0%)
Language : Spanish
Default : No
Forced : No
Original source medium : Blu-ray

Text #9
ID : 17
ID in the original source medium : 4774 (0x12A6)
Format : PGS
Muxing mode : zlib
Codec ID : S_HDMV/PGS
Codec ID/Info : Picture based subtitle format used on BDs/HD-DVDs
Duration : 2 h 7 min
Bit rate : 159 b/s
Frame rate : 0.007 FPS
Count of elements : 56
Stream size : 149 KiB (0%)
Language : Japanese
Default : No
Forced : No
Original source medium : Blu-ray

Menu
00:00:00.000 : en:Chapter 01
00:02:34.529 : en:Chapter 02
00:07:46.215 : en:Chapter 03
00:08:42.313 : en:Chapter 04
00:11:04.497 : en:Chapter 05
00:12:21.073 : en:Chapter 06
00:13:41.028 : en:Chapter 07
00:17:19.413 : en:Chapter 08
00:20:09.374 : en:Chapter 09
00:21:54.313 : en:Chapter 10
00:23:46.967 : en:Chapter 11
00:24:31.261 : en:Chapter 12
00:26:53.320 : en:Chapter 13
00:27:46.456 : en:Chapter 14
00:30:37.168 : en:Chapter 15
00:33:53.031 : en:Chapter 16
00:37:11.145 : en:Chapter 17
00:42:29.964 : en:Chapter 18
00:47:15.999 : en:Chapter 19
00:51:04.019 : en:Chapter 20
00:52:23.557 : en:Chapter 21
00:55:53.016 : en:Chapter 22
00:59:48.126 : en:Chapter 23
01:02:07.682 : en:Chapter 24
01:05:25.212 : en:Chapter 25
01:10:23.719 : en:Chapter 26
01:12:49.406 : en:Chapter 27
01:16:28.333 : en:Chapter 28
01:19:04.197 : en:Chapter 29
01:21:55.035 : en:Chapter 30
01:23:25.542 : en:Chapter 31
01:25:58.611 : en:Chapter 32
01:27:34.540 : en:Chapter 33
01:29:57.183 : en:Chapter 34
01:31:53.716 : en:Chapter 35
01:34:18.611 : en:Chapter 36
01:36:07.386 : en:Chapter 37
01:37:48.112 : en:Chapter 38
01:40:27.479 : en:Chapter 39
01:42:43.699 : en:Chapter 40
01:45:26.653 : en:Chapter 41
01:47:54.885 : en:Chapter 42
01:50:30.915 : en:Chapter 43
01:53:28.760 : en:Chapter 44
01:55:45.813 : en:Chapter 45
01:59:23.322 : en:Chapter 46
02:01:11.013 : en:Chapter 47
02:03:15.471 : en:Chapter 48
02:05:41.992 : en:Chapter 49

新种推荐使用qBittorrent、uTorrent、BitComet等下载软件,有条件的推荐115更好的下载软件!

星球大战外传:侠盗一号(54.75GB)Rogue.One.2016.PROPER.2160p.BluRay.REMUX.HEVC.DTS-HD.MA.TrueHD.7.1.Atmos-FGT-【2160P蓝光REMUX】
游客,如果您要查看本帖隐藏内容请回复

星球大战外传:侠盗一号(11.85GB)Rogue.One.2016.2160p.UHD.BluRay.x265.10bit.HDR.TrueHD.7.1.Atmos
游客,如果您要查看本帖隐藏内容请回复

星球大战外传:侠盗一号(8.11GB)Rogue.One.2016.2160p.UHD.BluRay.x265.10bit.HDR.DDP5.1-RARBG
游客,如果您要查看本帖隐藏内容请回复




4K海报.gif


上一篇:【首发】奇妙的海洋 [DIY简繁中字] (2017) 4K蓝光REMUX版本下载
下一篇:游侠索罗:星球大战外传[简繁中字] (2018) 4K蓝光REMUX版本下载
回复

使用道具 举报

您需要登录后才可以回帖 登录 | 立即注册

本版积分规则

精彩图文
Archiver|手机版|TAG|Sitemap|新帖|专题|联系我们:邮箱: 4kjia.com@gmail.com   

4k家园   ©2019