[4K UHD 蓝光原盘] 星球大战9:天行者崛起 (2019) 4K蓝光REMUX版本下载

[复制链接]

主题

帖子

0

积分

超级版主

Rank: 8Rank: 8

积分
0
 楼主| 发表于 2022-11-15 13:07:30 | 显示全部楼层 |阅读模式
本帖最后由 没完没了 于 2022-11-23 21:43 编辑

QQ图片20221115130008_副本.png

◎译  名 星球大战9:天行者崛起/星球大战9/星战9/Star Wars: Episode IX/Star Wars 9
◎片  名 Star Wars: The Rise of Skywalker
◎年  代 2019
◎产  地 美国
◎类  别 动作/科幻/冒险
◎语  言 英语
◎上映日期 2019-12-18(中国大陆)/2019-12-20(美国)
◎IMDb评分 6.5/10 from 449043 users 更新 : 2022-11-14
◎IMDb链接 https://www.imdb.com/title/tt2527338/
◎豆瓣评分 6.2/10 from 96310 users 更新 : 2022-11-14
◎豆瓣链接 https://movie.douban.com/subject/22265687/
◎导  演 J·J·艾布拉姆斯 J.J. Abrams
◎编  剧 J·J·艾布拉姆斯 J.J. Abrams / 克里斯·特里奥 Chris Terrio / 乔治·卢卡斯 George Lucas / 科林·特雷沃罗 Colin Trevorrow / 德里克·康纳利 Derek Connolly
◎主  演 黛西·雷德利 Daisy Ridley
       亚当·德赖弗 Adam Driver
       奥斯卡·伊萨克 Oscar Isaac
       约翰·博耶加 John Boyega
       马克·哈米尔 Mark Hamill
       凯丽·费雪 Carrie Fisher
       比利·迪·威廉姆斯 Billy Dee Williams
       伊恩·麦克迪阿梅德 Ian McDiarmid
       凯丽·拉塞尔 Keri Russell
       哈里森·福特 Harrison Ford
       朱迪·科默 Jodie Comer
       比利·豪尔 Billy Howle
       马特·史密斯 Matt Smith
       露皮塔·尼永奥 Lupita Nyong'o
       多姆纳尔·格里森 Domhnall Gleeson
       凯莉·玛丽·陈 Kelly Marie Tran
       乔纳斯·索塔莫 Joonas Suotamo
       比莉·洛德 Billie Lourd
       安东尼·丹尼尔斯 Anthony Daniels
       娜奥米·阿基 Naomi Ackie
       理查德·E·格兰特 Richard E. Grant
       多米尼克·莫纳汉 Dominic Monaghan
       格雷戈·格伦伯格 Greg Grunberg
       艾德·希兰 Ed Sheeran
       林-曼努尔·米兰达 Lin-Manuel Miranda
       西蒙·戴伊 Simon Day
       J·D·迪拉德 J.D. Dillard
       卡罗琳·赫尼塞 Carolyn Hennesy
       沃维克·戴维斯 Warwick Davis
       雯叶特·罗宾逊 Vinette Robinson
       约瑟夫·阿尔京 Josef Altin
       凯莱·弗莱明 Cailey Fleming
       詹姆斯·厄尔·琼斯 James Earl Jones
       丹尼·哈里逊 Dhani Harrison
       曼蒂普·迪伦 Mandeep Dhillon
       阿曼达·劳伦斯 Amanda Lawrence
       雪莉·亨德森 Shirley Henderson
       亚历克·吉尼斯 Alec Guinness
        艾什莉·埃克斯坦 Ashley Eckstein
       雅各布·福琼·劳埃德 Jacob Fortune-Lloyd
       阿曼达·哈尔 Amanda Hale
       帕特里克·肯尼迪 Patrick Kennedy
       安·弗班克 Ann Firbank
       罗森达·桑德尔 Rochenda Sandall
       安东·辛普森-泰迪 Anton Simpson-Tidy
       理查德·布雷默 Richard Bremmer
       费莉西娅·桑德斯 Philicia Saunders
       安德莉亚·迪亚克 Andreea Diac
       坦娅·穆迪 Tanya Moodie
       安琪莉可·佩林 Angelique Perrin
       伊万·麦克格雷格 Ewan McGregor
       乔·肯纳德 Joe Kennard
       米米·迪韦尼 Mimi Ndiweni
       丹尼斯·劳森 Denis Lawson
       詹妮弗·黑尔 Jennifer Hale
       小弗雷迪·普林兹 Freddie Prinze Jr.
       连姆·尼森 Liam Neeson
       奥利薇亚·阿波 Olivia d'Abo
       塞缪尔·杰克逊 Samuel L. Jackson
       弗兰克·奥兹 Frank Oz
       海登·克里斯滕森 Hayden Christensen
       J·J·艾布拉姆斯 J.J. Abrams
       约翰·威廉姆斯 John Williams
       纳赛尔·米马齐亚 Nasser Memarzia
       埃米尔·艾尔-马斯里 Amir El-Masry
       吉米·维 Jimmy Vee
       安迪·瑟金斯 Andy Serkis


◎简  介


  本片为2017年电影《星球大战:最后的绝地武士》的续集,“星球大战后传三部曲”的第三部作品,同时是“天行者传奇”的第九部作品以及最终章。在卢克·天行者化为绝地英灵的一年后,残存的抵抗势力将再次面对第一秩序。同时,绝地和西斯之间的大战将天行者的传奇带到最后。

◎获奖情况

  第92届奥斯卡金像奖(2020)
  最佳视觉效果(提名)
  最佳音效剪辑(提名)
  最佳原创配乐(提名)

  第73届英国电影学院奖(2020)
  电影奖 最佳特殊视觉效果(提名)
  电影奖 最佳原创配乐(提名)
  电影奖 最佳音效(提名)

  第44届日本电影学院奖(2021)
  最佳外语片(提名)

  第24届美国艺术指导工会奖(2020)
  电影奖 最佳幻想电影艺术指导(提名)

  第22届美国服装设计工会奖(2020)
  科幻/奇幻题材电影最佳服装设计(提名)

  第18届美国视觉效果协会奖(2020)
  最佳特效电影视觉效果(提名)
  最佳真人电影CG背景(提名)
  最佳真人电影模拟动画效果
  最佳电影视觉效果合成(提名)

  第67届美国音效剪辑协会奖(2020)
  金卷轴奖 最佳电影音效剪辑(提名)

Video
ID : 1
ID in the original source medium : 4113 (0x1011)
Format : HEVC
Format/Info : High Efficiency Video Coding
Format profile : Main 10@L5.1@High
HDR format : SMPTE ST 2086, HDR10 compatible
Codec ID : V_MPEGH/ISO/HEVC
Duration : 2 h 21 min
Bit rate : 46.1 Mb/s
Width : 3 840 pixels
Height : 2 160 pixels
Display aspect ratio : 16:9
Frame rate mode : Constant
Frame rate : 23.976 (24000/1001) FPS
Color space : YUV
Chroma subsampling : 4:2:0 (Type 2)
Bit depth : 10 bits
Bits/(Pixel*Frame) : 0.232
Stream size : 45.7 GiB (78%)
Language : English
Default : No
Forced : No
Color range : Limited
Color primaries : BT.2020
Transfer characteristics : PQ
Matrix coefficients : BT.2020 non-constant
Mastering display color primaries : Display P3
Mastering display luminance : min: 0.0001 cd/m2, max: 1000 cd/m2
Maximum Content Light Level : 724 cd/m2
Maximum Frame-Average Light Level : 647 cd/m2
Original source medium : Blu-ray

Audio #1
ID : 2
ID in the original source medium : 4352 (0x1100)
Format : MLP FBA 16-ch
Format/Info : Meridian Lossless Packing FBA with 16-channel presentation
Commercial name : Dolby TrueHD with Dolby Atmos
Codec ID : A_TRUEHD
Duration : 2 h 21 min
Bit rate mode : Variable
Bit rate : 5 890 kb/s
Maximum bit rate : 7 494 kb/s
Channel(s) : 8 channels
Channel layout : L R C LFE Ls Rs Lb Rb
Sampling rate : 48.0 kHz
Frame rate : 1 200.000 FPS (40 SPF)
Bit depth : 24 bits
Compression mode : Lossless
Stream size : 5.84 GiB (10%)
Title : TrueHD 7.1 Atmos
Language : English
Default : Yes
Forced : No
Original source medium : Blu-ray
Number of dynamic objects : 13
Bed channel count : 1 channel
Bed channel configuration : LFE

Audio #2
ID : 3
Format : DTS XLL
Format/Info : Digital Theater Systems
Commercial name : DTS-HD Master Audio
Codec ID : A_DTS
Duration : 2 h 21 min
Bit rate mode : Variable
Bit rate : 4 321 kb/s
Channel(s) : 8 channels
Channel layout : C L R LFE Lb Rb Lss Rss
Sampling rate : 48.0 kHz
Frame rate : 93.750 FPS (512 SPF)
Bit depth : 24 bits
Compression mode : Lossless
Stream size : 4.28 GiB (7%)
Title : DTS-HD MA 7.1
Language : English
Default : No
Forced : No

Audio #3
ID : 4
ID in the original source medium : 4352 (0x1100)
Format : AC-3
Format/Info : Audio Coding 3
Commercial name : Dolby Digital
Codec ID : A_AC3
Duration : 2 h 21 min
Bit rate mode : Constant
Bit rate : 640 kb/s
Channel(s) : 6 channels
Channel layout : L R C LFE Ls Rs
Sampling rate : 48.0 kHz
Frame rate : 31.250 FPS (1536 SPF)
Compression mode : Lossy
Stream size : 650 MiB (1%)
Title : DD 5.1
Language : English
Service kind : Complete Main
Default : No
Forced : No
Original source medium : Blu-ray

Audio #4
ID : 5
ID in the original source medium : 4353 (0x1101)
Format : AC-3
Format/Info : Audio Coding 3
Commercial name : Dolby Digital
Codec ID : A_AC3
Duration : 2 h 21 min
Bit rate mode : Constant
Bit rate : 320 kb/s
Channel(s) : 2 channels
Channel layout : L R
Sampling rate : 48.0 kHz
Frame rate : 31.250 FPS (1536 SPF)
Compression mode : Lossy
Stream size : 325 MiB (0%)
Title : DD 2.0
Language : English
Service kind : Complete Main
Default : No
Forced : No
Original source medium : Blu-ray

Audio #5
ID : 6
Format : E-AC-3
Format/Info : Enhanced AC-3
Commercial name : Dolby Digital Plus
Format profile : Blu-ray Disc
Codec ID : A_EAC3
Duration : 2 h 21 min
Bit rate mode : Constant
Bit rate : 1 024 kb/s
Channel(s) : 8 channels
Channel layout : L R C LFE Ls Rs Lb Rb
Sampling rate : 48.0 kHz
Frame rate : 31.250 FPS (1536 SPF)
Compression mode : Lossy
Stream size : 1.01 GiB (2%)
Title : DDP 7.1
Language : French
Service kind : Complete Main
Default : No
Forced : No

Audio #6
ID : 7
Format : E-AC-3
Format/Info : Enhanced AC-3
Commercial name : Dolby Digital Plus
Format profile : Blu-ray Disc
Codec ID : A_EAC3
Duration : 2 h 21 min
Bit rate mode : Constant
Bit rate : 1 024 kb/s
Channel(s) : 8 channels
Channel layout : L R C LFE Ls Rs Lb Rb
Sampling rate : 48.0 kHz
Frame rate : 31.250 FPS (1536 SPF)
Compression mode : Lossy
Stream size : 1.01 GiB (2%)
Title : DDP 7.1
Language : Spanish
Service kind : Complete Main
Default : No
Forced : No

Text #1
ID : 8
Format : UTF-8
Codec ID : S_TEXT/UTF8
Codec ID/Info : UTF-8 Plain Text
Duration : 2 h 8 min
Bit rate : 43 b/s
Frame rate : 0.197 FPS
Count of elements : 1514
Stream size : 40.6 KiB (0%)
Language : English
Default : Yes
Forced : No

Text #2
ID : 9
Format : UTF-8
Codec ID : S_TEXT/UTF8
Codec ID/Info : UTF-8 Plain Text
Duration : 2 h 11 min
Bit rate : 49 b/s
Frame rate : 0.237 FPS
Count of elements : 1878
Stream size : 47.9 KiB (0%)
Title : SDH
Language : English
Default : No
Forced : No

Text #3
ID : 10
ID in the original source medium : 4768 (0x12A0)
Format : PGS
Muxing mode : zlib
Codec ID : S_HDMV/PGS
Codec ID/Info : Picture based subtitle format used on BDs/HD-DVDs
Duration : 2 h 11 min
Bit rate : 37.4 kb/s
Frame rate : 0.479 FPS
Count of elements : 3790
Stream size : 35.2 MiB (0%)
Language : English
Default : No
Forced : No
Original source medium : Blu-ray

Text #4
ID : 11
ID in the original source medium : 4769 (0x12A1)
Format : PGS
Muxing mode : zlib
Codec ID : S_HDMV/PGS
Codec ID/Info : Picture based subtitle format used on BDs/HD-DVDs
Duration : 2 h 21 min
Bit rate : 27.6 kb/s
Frame rate : 0.347 FPS
Count of elements : 2942
Stream size : 27.9 MiB (0%)
Language : French
Default : No
Forced : No
Original source medium : Blu-ray

Text #5
ID : 12
ID in the original source medium : 4770 (0x12A2)
Format : PGS
Muxing mode : zlib
Codec ID : S_HDMV/PGS
Codec ID/Info : Picture based subtitle format used on BDs/HD-DVDs
Duration : 2 h 11 min
Bit rate : 28.2 kb/s
Frame rate : 0.366 FPS
Count of elements : 2900
Stream size : 26.6 MiB (0%)
Language : Spanish
Default : No
Forced : No
Original source medium : Blu-ray

Text #6
ID : 13
ID in the original source medium : 4771 (0x12A3)
Format : PGS
Muxing mode : zlib
Codec ID : S_HDMV/PGS
Codec ID/Info : Picture based subtitle format used on BDs/HD-DVDs
Duration : 2 h 21 min
Bit rate : 22.4 kb/s
Frame rate : 0.239 FPS
Count of elements : 2024
Stream size : 22.6 MiB (0%)
Language : Danish
Default : No
Forced : No
Original source medium : Blu-ray

Text #7
ID : 14
ID in the original source medium : 4772 (0x12A4)
Format : PGS
Muxing mode : zlib
Codec ID : S_HDMV/PGS
Codec ID/Info : Picture based subtitle format used on BDs/HD-DVDs
Duration : 2 h 21 min
Bit rate : 26.1 kb/s
Frame rate : 0.341 FPS
Count of elements : 2890
Stream size : 26.3 MiB (0%)
Language : Finnish
Default : No
Forced : No
Original source medium : Blu-ray

Text #8
ID : 15
ID in the original source medium : 4773 (0x12A5)
Format : PGS
Muxing mode : zlib
Codec ID : S_HDMV/PGS
Codec ID/Info : Picture based subtitle format used on BDs/HD-DVDs
Duration : 2 h 21 min
Bit rate : 24.2 kb/s
Frame rate : 0.341 FPS
Count of elements : 2886
Stream size : 24.5 MiB (0%)
Language : Norwegian
Default : No
Forced : No
Original source medium : Blu-ray

Text #9
ID : 16
ID in the original source medium : 4774 (0x12A6)
Format : PGS
Muxing mode : zlib
Codec ID : S_HDMV/PGS
Codec ID/Info : Picture based subtitle format used on BDs/HD-DVDs
Duration : 2 h 21 min
Bit rate : 23.3 kb/s
Frame rate : 0.276 FPS
Count of elements : 2340
Stream size : 23.5 MiB (0%)
Language : Swedish
Default : No
Forced : No
Original source medium : Blu-ray

Text #10
ID : 17
ID in the original source medium : 4775 (0x12A7)
Format : PGS
Muxing mode : zlib
Codec ID : S_HDMV/PGS
Codec ID/Info : Picture based subtitle format used on BDs/HD-DVDs
Duration : 1 h 37 min
Bit rate : 24 b/s
Frame rate : 0.001 FPS
Count of elements : 4
Stream size : 17.7 KiB (0%)
Language : English
Default : No
Forced : No
Original source medium : Blu-ray

Text #11
ID : 18
ID in the original source medium : 4776 (0x12A8)
Format : PGS
Muxing mode : zlib
Codec ID : S_HDMV/PGS
Codec ID/Info : Picture based subtitle format used on BDs/HD-DVDs
Duration : 2 h 14 min
Bit rate : 365 b/s
Frame rate : 0.006 FPS
Count of elements : 48
Stream size : 359 KiB (0%)
Language : French
Default : No
Forced : No
Original source medium : Blu-ray

Text #12
ID : 19
ID in the original source medium : 4777 (0x12A9)
Format : PGS
Muxing mode : zlib
Codec ID : S_HDMV/PGS
Codec ID/Info : Picture based subtitle format used on BDs/HD-DVDs
Duration : 1 h 37 min
Bit rate : 23 b/s
Frame rate : 0.001 FPS
Count of elements : 4
Stream size : 16.7 KiB (0%)
Language : Spanish
Default : No
Forced : No
Original source medium : Blu-ray

Menu
00:00:00.000 : en:Chapter 01
00:00:09.426 : en:Chapter 02
00:01:41.309 : en:Chapter 03
00:03:47.810 : en:Chapter 04
00:06:42.902 : en:Chapter 05
00:08:26.464 : en:Chapter 06
00:10:05.354 : en:Chapter 07
00:12:47.767 : en:Chapter 08
00:13:53.999 : en:Chapter 09
00:15:17.166 : en:Chapter 10
00:17:13.157 : en:Chapter 11
00:19:24.997 : en:Chapter 12
00:21:28.245 : en:Chapter 13
00:25:27.692 : en:Chapter 14
00:27:14.883 : en:Chapter 15
00:30:41.548 : en:Chapter 16
00:35:48.729 : en:Chapter 17
00:41:38.078 : en:Chapter 18
00:43:15.134 : en:Chapter 19
00:45:28.350 : en:Chapter 20
00:48:24.484 : en:Chapter 21
00:54:37.399 : en:Chapter 22
00:58:48.816 : en:Chapter 23
01:02:54.395 : en:Chapter 24
01:06:22.770 : en:Chapter 25
01:09:54.607 : en:Chapter 26
01:13:07.383 : en:Chapter 27
01:18:23.615 : en:Chapter 28
01:23:41.224 : en:Chapter 29
01:27:02.759 : en:Chapter 30
01:30:23.126 : en:Chapter 31
01:35:00.778 : en:Chapter 32
01:38:47.880 : en:Chapter 33
01:40:35.487 : en:Chapter 34
01:43:02.885 : en:Chapter 35
01:45:27.612 : en:Chapter 36
01:48:48.021 : en:Chapter 37
01:53:27.634 : en:Chapter 38
01:55:30.757 : en:Chapter 39
01:59:02.969 : en:Chapter 40
02:01:37.748 : en:Chapter 41
02:05:20.137 : en:Chapter 42
02:09:42.858 : en:Chapter 43
02:12:25.562 : en:Chapter 44

新种推荐使用qBittorrent、uTorrent、BitComet等下载软件,有条件的推荐115更好的下载软件!

星球大战9:天行者崛起(58.94GB)
Star.Wars.Episode.IX.The.Rise.of.Skywalker.2019.PROPER.2160p.BluRay.REMUX.HEVC.DTS-HD.MA.TrueHD.7.1.Atmos-FGT-【2160P蓝光REMUX】
游客,如果您要查看本帖隐藏内容请回复

星球大战9:天行者崛起(14.24GB)Star.Wars.Episode.IX.The.Rise.of.Skywalker.2019.2160p.UHD.BluRay.x265.10bit.HDR.TrueHD.7.1.Atmos
游客,如果您要查看本帖隐藏内容请回复

星球大战9:天行者崛起(8.59GB)Star.Wars.Episode.IX.The.Rise.of.Skywalker.2019.2160p.UHD.BluRay.x265.10bit.HDR.DDP5.1
游客,如果您要查看本帖隐藏内容请回复


4K海报.gif

上一篇:星球大战4:新希望 (1977) 4K蓝光REMUX版本下载
下一篇:星球大战2:帝国反击战 (1980) 4K蓝光REMUX版本下载
回复

使用道具 举报

0

主题

9

帖子

22

积分

新手上路

Rank: 1

积分
22
发表于 2022-11-16 20:49:02 | 显示全部楼层
感谢楼主
回复

使用道具 举报

0

主题

1

帖子

6

积分

新手上路

Rank: 1

积分
6
发表于 2022-11-17 12:29:36 | 显示全部楼层
感谢楼主
回复

使用道具 举报

0

主题

1

帖子

6

积分

新手上路

Rank: 1

积分
6
发表于 2022-11-20 08:00:26 来自手机 | 显示全部楼层
好人一生平安
回复 支持 反对

使用道具 举报

0

主题

1

帖子

6

积分

新手上路

Rank: 1

积分
6
发表于 2022-11-21 10:20:39 来自手机 | 显示全部楼层
感谢楼主
回复

使用道具 举报

您需要登录后才可以回帖 登录 | 立即注册

本版积分规则

精彩图文
Archiver|手机版|TAG|Sitemap|新帖|专题|联系我们:邮箱: 4kjia.com@gmail.com   

4k家园   ©2019