[4K UHD 蓝光原盘] 星球大战2:帝国反击战 (1980) 4K蓝光REMUX版本下载

[复制链接]

主题

帖子

0

积分

超级版主

Rank: 8Rank: 8

积分
0
 楼主| 发表于 2022-11-15 13:14:01 | 显示全部楼层 |阅读模式
本帖最后由 没完没了 于 2022-11-23 21:59 编辑

星球大战2:帝国反击战.png

◎译  名 星球大战2:帝国反击战/星球大战5:帝国反击战/星球大战第五集:帝国反击战/星际大战五部曲:帝国大反击
◎片  名 Star Wars: Episode V - The Empire Strikes Back
◎年  代 1980
◎产  地 美国
◎类  别 动作 / 科幻 / 冒险
◎语  言 英语
◎上映日期 1980-05-21(美国)
◎IMDb评分 8.7/10 from 1284668 users 更新 : 2022-11-11
◎IMDb链接 https://www.imdb.com/title/tt0080684/
◎豆瓣评分 8.4/10 from 99281 users 更新 : 2022-11-11
◎豆瓣链接 https://movie.douban.com/subject/1296528/
◎片  长 124分钟
◎导  演 厄文·克什纳 Irvin Kershner
◎编  剧 乔治·卢卡斯 George Lucas / 劳伦斯·卡斯丹 Lawrence Kasdan / 利·布拉克特 Leigh Brackett
◎主  演 马克·哈米尔 Mark Hamill
       哈里森·福特 Harrison Ford
       凯丽·费雪 Carrie Fisher
       比利·迪·威廉姆斯 Billy Dee Williams
       安东尼·丹尼尔斯 Anthony Daniels
       大卫·鲍罗斯 David Prowse
       彼德·梅犹 Peter Mayhew
       肯尼·贝克 Kenny Baker
       弗兰克·奥兹 Frank Oz
       亚历克·吉尼斯 Alec Guinness
       詹姆斯·厄尔·琼斯 James Earl Jones
       奥田瑛二 Eiji Okuda
       迈克尔·谢尔德 Michael Sheard
       杰米·布洛奇 Jeremy Bulloch
       约翰·霍林斯 John Hollis
       克里夫·雷维尔 Clive Revill
       肯尼斯·考利 Kenneth Colley
       朱利安·格洛弗 Julian Glover
       丹尼斯·劳森 Denis Lawson


◎简  介

  维德勋爵(大卫?普劳斯 David Prowse 饰)把抵抗力量赶出基地,并派出数以千计的探针寻找卢克?天行者(马克?哈米尔 Mark Hamill 饰)。抵抗力量埋伏到冰天雪地的哈斯星,卢克在一次巡逻任务中意外被雪人所俘,运用“原力”逃生后晕厥中听到欧比-旺?肯诺比(亚历克?吉尼斯 Alec Guinness 饰)要他前往狄克星寻找绝地武士尤达师傅受训。银河帝国派出大军进攻哈斯星,韩?索罗(哈里森?福特饰)携猿人丘巴卡(彼得?梅林 Peter Mayhew 饰)带莉亚公主(卡里?费什尔 Carrie Fisher 饰)和机器人C-3PO乘千年隼飞船逃生,到达韩?索罗的旧识总督蓝多?卡瑞辛(比利?迪?威廉姆斯 Billy Dee Williams 饰)的贝斯平云城暂时歇脚,却发现蓝多早与维德勋爵达成协议,出卖韩?索罗设计陷阱诱惑卢克前来。学业未成的卢克不顾尤达的劝阻执意孤身付险,一场恶战在所难免。

  本片获第53界奥斯卡最佳声效奖及视觉效果特殊贡献奖,并获最佳艺术指导-布景及最佳原创电影音乐两项提名。

◎获奖情况

  第53届奥斯卡金像奖 ?(1981)
  最佳音响 格雷格·兰达克?/?彼得·萨顿?/?比尔·瓦尼?/?史蒂夫·马斯洛
  最佳艺术指导(提名) 诺曼·雷诺兹?/?阿兰·汤姆金斯?/?莱斯利·迪利?/?迈克尔·福特?/?哈利·兰格
  最佳原创配乐(提名) 约翰·威廉姆斯
  特别成就奖 布鲁斯·尼科尔森?/?丹尼斯·穆伦?/?布赖恩·约翰逊?/?理查德·艾德兰德

Video
ID : 1
ID in the original source medium : 4113 (0x1011)
Format : HEVC
Format/Info : High Efficiency Video Coding
Format profile : Main 10@L5.1@High
HDR format : SMPTE ST 2086, HDR10 compatible
Codec ID : V_MPEGH/ISO/HEVC
Duration : 2 h 7 min
Bit rate : 49.7 Mb/s
Width : 3 840 pixels
Height : 2 160 pixels
Display aspect ratio : 16:9
Frame rate mode : Constant
Frame rate : 23.976 (24000/1001) FPS
Color space : YUV
Chroma subsampling : 4:2:0 (Type 2)
Bit depth : 10 bits
Bits/(Pixel*Frame) : 0.250
Stream size : 44.2 GiB (81%)
Writing library : ATEME Titan File 3.9.0 (4.9.0.0)
Language : English
Default : No
Forced : No
Color range : Limited
Color primaries : BT.2020
Transfer characteristics : PQ
Matrix coefficients : BT.2020 non-constant
Mastering display color primaries : BT.2020
Mastering display luminance : min: 0.0001 cd/m2, max: 1000 cd/m2
Original source medium : Blu-ray

Audio #1
ID : 2
ID in the original source medium : 4352 (0x1100)
Format : MLP FBA 16-ch
Format/Info : Meridian Lossless Packing FBA with 16-channel presentation
Commercial name : Dolby TrueHD with Dolby Atmos
Codec ID : A_TRUEHD
Duration : 2 h 7 min
Bit rate mode : Variable
Bit rate : 3 979 kb/s
Maximum bit rate : 5 181 kb/s
Channel(s) : 8 channels
Channel layout : L R C LFE Ls Rs Lb Rb
Sampling rate : 48.0 kHz
Frame rate : 1 200.000 FPS (40 SPF)
Bit depth : 24 bits
Compression mode : Lossless
Stream size : 3.54 GiB (6%)
Title : TrueHD 7.1 Atmos
Language : English
Default : Yes
Forced : No
Original source medium : Blu-ray
Number of dynamic objects : 13
Bed channel count : 1 channel
Bed channel configuration : LFE

Audio #2
ID : 3
Format : DTS XLL
Format/Info : Digital Theater Systems
Commercial name : DTS-HD Master Audio
Codec ID : A_DTS
Duration : 2 h 7 min
Bit rate mode : Variable
Bit rate : 4 007 kb/s
Channel(s) : 8 channels
Channel layout : C L R LFE Lb Rb Lss Rss
Sampling rate : 48.0 kHz
Frame rate : 93.750 FPS (512 SPF)
Bit depth : 24 bits
Compression mode : Lossless
Stream size : 3.57 GiB (7%)
Title : DTS-HD MA 7.1
Language : English
Default : No
Forced : No

Audio #3
ID : 4
ID in the original source medium : 4352 (0x1100)
Format : AC-3
Format/Info : Audio Coding 3
Commercial name : Dolby Digital
Format settings : Dolby Surround EX
Codec ID : A_AC3
Duration : 2 h 7 min
Bit rate mode : Constant
Bit rate : 640 kb/s
Channel(s) : 6 channels
Channel layout : L R C LFE Ls Rs
Sampling rate : 48.0 kHz
Frame rate : 31.250 FPS (1536 SPF)
Compression mode : Lossy
Stream size : 583 MiB (1%)
Title : DD 5.1
Language : English
Service kind : Complete Main
Default : No
Forced : No
Original source medium : Blu-ray

Audio #4
ID : 5
ID in the original source medium : 4353 (0x1101)
Format : AC-3
Format/Info : Audio Coding 3
Commercial name : Dolby Digital
Codec ID : A_AC3
Duration : 2 h 7 min
Bit rate mode : Constant
Bit rate : 320 kb/s
Channel(s) : 2 channels
Channel layout : L R
Sampling rate : 48.0 kHz
Frame rate : 31.250 FPS (1536 SPF)
Compression mode : Lossy
Stream size : 292 MiB (0%)
Title : DD 2.0
Language : English
Service kind : Complete Main
Default : No
Forced : No
Original source medium : Blu-ray

Audio #5
ID : 6
Format : E-AC-3
Format/Info : Enhanced AC-3
Commercial name : Dolby Digital Plus
Format profile : Blu-ray Disc
Codec ID : A_EAC3
Duration : 2 h 7 min
Bit rate mode : Constant
Bit rate : 1 024 kb/s
Channel(s) : 8 channels
Channel layout : L R C LFE Ls Rs Lb Rb
Sampling rate : 48.0 kHz
Frame rate : 31.250 FPS (1536 SPF)
Compression mode : Lossy
Stream size : 933 MiB (2%)
Title : DDP 7.1
Language : French
Service kind : Complete Main
Default : No
Forced : No

Audio #6
ID : 7
ID in the original source medium : 4355 (0x1103)
Format : AC-3
Format/Info : Audio Coding 3
Commercial name : Dolby Digital
Format settings : Dolby Surround EX
Codec ID : A_AC3
Duration : 2 h 7 min
Bit rate mode : Constant
Bit rate : 640 kb/s
Channel(s) : 6 channels
Channel layout : L R C LFE Ls Rs
Sampling rate : 48.0 kHz
Frame rate : 31.250 FPS (1536 SPF)
Compression mode : Lossy
Stream size : 583 MiB (1%)
Title : DD 5.1
Language : Spanish
Service kind : Complete Main
Default : No
Forced : No
Original source medium : Blu-ray

Audio #7
ID : 8
Format : E-AC-3
Format/Info : Enhanced AC-3
Commercial name : Dolby Digital Plus
Format profile : Blu-ray Disc
Codec ID : A_EAC3
Duration : 2 h 7 min
Bit rate mode : Constant
Bit rate : 1 024 kb/s
Channel(s) : 8 channels
Channel layout : L R C LFE Ls Rs Lb Rb
Sampling rate : 48.0 kHz
Frame rate : 31.250 FPS (1536 SPF)
Compression mode : Lossy
Stream size : 933 MiB (2%)
Title : DDP 7.1
Language : Japanese
Service kind : Complete Main
Default : No
Forced : No

Text #1
ID : 9
Format : UTF-8
Codec ID : S_TEXT/UTF8
Codec ID/Info : UTF-8 Plain Text
Duration : 1 h 57 min
Bit rate : 47 b/s
Frame rate : 0.202 FPS
Count of elements : 1423
Stream size : 40.9 KiB (0%)
Language : English
Default : Yes
Forced : No

Text #2
ID : 10
Format : UTF-8
Codec ID : S_TEXT/UTF8
Codec ID/Info : UTF-8 Plain Text
Duration : 2 h 1 min
Bit rate : 48 b/s
Frame rate : 0.218 FPS
Count of elements : 1590
Stream size : 43.2 KiB (0%)
Title : SDH
Language : English
Default : No
Forced : No

Text #3
ID : 11
ID in the original source medium : 4768 (0x12A0)
Format : PGS
Muxing mode : zlib
Codec ID : S_HDMV/PGS
Codec ID/Info : Picture based subtitle format used on BDs/HD-DVDs
Duration : 2 h 1 min
Bit rate : 31.9 kb/s
Frame rate : 0.442 FPS
Count of elements : 3222
Stream size : 27.7 MiB (0%)
Language : English
Default : No
Forced : No
Original source medium : Blu-ray

Text #4
ID : 12
ID in the original source medium : 4769 (0x12A1)
Format : PGS
Muxing mode : zlib
Codec ID : S_HDMV/PGS
Codec ID/Info : Picture based subtitle format used on BDs/HD-DVDs
Duration : 2 h 6 min
Bit rate : 23.9 kb/s
Frame rate : 0.312 FPS
Count of elements : 2378
Stream size : 21.7 MiB (0%)
Language : French
Default : No
Forced : No
Original source medium : Blu-ray

Text #5
ID : 13
ID in the original source medium : 4770 (0x12A2)
Format : PGS
Muxing mode : zlib
Codec ID : S_HDMV/PGS
Codec ID/Info : Picture based subtitle format used on BDs/HD-DVDs
Duration : 2 h 0 min
Bit rate : 25.5 kb/s
Frame rate : 0.309 FPS
Count of elements : 2226
Stream size : 22.0 MiB (0%)
Language : Spanish
Default : No
Forced : No
Original source medium : Blu-ray

Text #6
ID : 14
ID in the original source medium : 4771 (0x12A3)
Format : PGS
Muxing mode : zlib
Codec ID : S_HDMV/PGS
Codec ID/Info : Picture based subtitle format used on BDs/HD-DVDs
Duration : 2 h 0 min
Bit rate : 19.2 kb/s
Frame rate : 0.315 FPS
Count of elements : 2276
Stream size : 16.5 MiB (0%)
Language : Japanese
Default : No
Forced : No
Original source medium : Blu-ray

Menu
00:00:00.000 : en:Chapter 01
00:00:21.688 : en:Chapter 02
00:01:55.448 : en:Chapter 03
00:04:16.506 : en:Chapter 04
00:08:19.916 : en:Chapter 05
00:10:16.616 : en:Chapter 06
00:12:58.402 : en:Chapter 07
00:15:13.913 : en:Chapter 08
00:16:30.364 : en:Chapter 09
00:18:20.557 : en:Chapter 10
00:19:46.059 : en:Chapter 11
00:21:23.365 : en:Chapter 12
00:23:58.186 : en:Chapter 13
00:25:50.090 : en:Chapter 14
00:29:30.018 : en:Chapter 15
00:31:29.888 : en:Chapter 16
00:33:38.349 : en:Chapter 17
00:35:55.820 : en:Chapter 18
00:36:51.918 : en:Chapter 19
00:38:34.061 : en:Chapter 20
00:40:37.184 : en:Chapter 21
00:44:20.616 : en:Chapter 22
00:46:09.057 : en:Chapter 23
00:50:14.052 : en:Chapter 24
00:52:17.300 : en:Chapter 25
00:54:20.840 : en:Chapter 26
00:57:40.790 : en:Chapter 27
01:00:58.613 : en:Chapter 28
01:03:43.444 : en:Chapter 29
01:05:46.734 : en:Chapter 30
01:08:12.838 : en:Chapter 31
01:13:24.900 : en:Chapter 32
01:16:40.554 : en:Chapter 33
01:18:24.783 : en:Chapter 34
01:19:46.531 : en:Chapter 35
01:22:56.596 : en:Chapter 36
01:25:39.217 : en:Chapter 37
01:27:51.933 : en:Chapter 38
01:30:29.257 : en:Chapter 39
01:34:40.466 : en:Chapter 40
01:38:29.570 : en:Chapter 41
01:40:26.812 : en:Chapter 42
01:41:47.226 : en:Chapter 43
01:43:52.100 : en:Chapter 44
01:47:02.833 : en:Chapter 45
01:49:22.138 : en:Chapter 46
01:53:42.357 : en:Chapter 47
01:56:15.510 : en:Chapter 48
01:59:47.013 : en:Chapter 49
02:01:58.894 : en:Chapter 50

新种推荐使用qBittorrent、uTorrent、BitComet等下载软件,有条件的推荐115更好的下载软件!

星球大战2:帝国反击战(54.63GB)
Star.Wars.Episode.V.The.Empire.Strikes.Back.1980.PROPER.2160p.BluRay.REMUX.HEVC.DTS-HD.MA.TrueHD.7.1.Atmos-FGT-【2160P蓝光REMUX】
游客,如果您要查看本帖隐藏内容请回复

星球大战2:帝国反击战(11.08GB)Star.Wars.Episode.V.The.Empire.Strikes.Back.1980.2160p.UHD.BluRay.x265.10bit.HDR.TrueHD.7.1.Atmos
游客,如果您要查看本帖隐藏内容请回复

星球大战2:帝国反击战(7.71GB)Star.Wars.Episode.V.The.Empire.Strikes.Back.1980.2160p.UHD.BluRay.x265.10bit.HDR.DDP5.1
游客,如果您要查看本帖隐藏内容请回复


4K海报.gif


上一篇:星球大战9:天行者崛起 (2019) 4K蓝光REMUX版本下载
下一篇:星球大战7:原力觉醒 (2015)4K蓝光REMUX版本下载
回复

使用道具 举报

您需要登录后才可以回帖 登录 | 立即注册

本版积分规则

精彩图文
Archiver|手机版|TAG|Sitemap|新帖|专题|联系我们:邮箱: 4kjia.com@gmail.com   

4k家园   ©2019