[4K UHD 蓝光原盘] 星球大战7:原力觉醒 (2015)4K蓝光REMUX版本下载

[复制链接]

主题

帖子

0

积分

超级版主

Rank: 8Rank: 8

积分
0
 楼主| 发表于 2022-11-15 13:30:18 | 显示全部楼层 |阅读模式
本帖最后由 没完没了 于 2022-11-23 21:48 编辑

星球大战:原力觉醒_副本.png

◎译  名 星球大战7:原力觉醒 / Star Wars: Episode VII / 星战7 / 星球大战:原力觉醒 / 星际大战七部曲:原力觉醒(台)
◎片  名 Star Wars: The Force Awakens
◎年  代 2015
◎产  地 美国
◎类  别 动作 / 科幻 / 冒险
◎语  言 英语
◎上映日期 2015-12-18(美国) / 2016-01-09(中国大陆)
◎IMDb评分 7.8/10 from 927913 users 更新 : 2022-11-13
◎IMDb链接 https://www.imdb.com/title/tt2488496
◎豆瓣评分 7.2/10 from 211594 users 更新 : 2022-11-15
◎豆瓣链接 https://movie.douban.com/subject/20326665/
◎片  长 135分钟
◎导  演 J·J·艾布拉姆斯 J.J. Abrams
◎编  剧 J·J·艾布拉姆斯 J.J. Abrams / 劳伦斯·卡斯丹 Lawrence Kasdan / 迈克尔·阿恩特 Michael Arndt / 乔治·卢卡斯 George Lucas
◎主  演 哈里森·福特 Harrison Ford
       马克·哈米尔 Mark Hamill
       凯丽·费雪 Carrie Fisher
       亚当·德利弗 Adam Driver
       黛西·雷德利 Daisy Ridley
       约翰·博耶加 John Boyega
       多姆纳尔·格里森 Domhnall Gleeson
       奥斯卡·伊萨克 Oscar Isaac
       露皮塔·尼永奥 Lupita Nyong'o
       安迪·瑟金斯 Andy Serkis
       安东尼·丹尼尔斯 Anthony Daniels
       彼德·梅犹 Peter Mayhew
       马克斯·冯·叙多 Max von Sydow
       比利·迪·威廉姆斯 Billy Dee Williams
       爱德华·斯皮伊尔斯 Ed Speleers
       马修·詹姆斯·托马斯 Matthew James Thomas
       肯尼·贝克 Kenny Baker
       格温多兰·克里斯蒂 Gwendoline Christie
       西蒙·佩吉 Simon Pegg
       克里斯塔·克拉克 Crystal Clarke
       匹普·安德森 Pip Andersen


◎简  介

  自从银河帝国衰败之后,正邪轮回再度开始,第一秩序的黑暗力量蔓延滋长,重新为银河系带来威胁。与此同时,对于凯洛·伦的堕落深感内疚的天行者卢克宣告失踪,而围绕卢克下落的一份星系地图,则引起敌我双方的争夺。不愿成为战争机器的第一军团士兵芬恩(约翰·波耶加 John Boyega 饰)协助反抗组织成员波·达摩龙(奥斯卡·伊萨克 Oscar Isaac 饰)逃到蛮荒星球贾库,寻找藏有地图的机器人BB8。两人失散后,芬邂逅拾荒者蕾伊(黛茜·雷德利 Daisy Ridley 饰)和BB8。他们乘坐破旧的千年隼号躲过了军团的追杀,此后更遇到千年隼号的主人汉·索罗(哈里森·福特 Harrison Ford 饰)。
  第一秩序制造了破坏力远超死星的弑星者基地。宇宙和平危在旦夕,某人体内的原力则悄然苏醒……

◎获奖情况

  第88届奥斯卡金像奖(2016)
  最佳剪辑(提名) 玛丽安·布兰登 / 玛丽·乔·马基
  最佳视觉效果(提名) 尼尔·斯坎伦 / 帕特里克·图巴赫 / 罗杰·盖耶特 / 克里斯·考博德
  最佳混音(提名) 克里斯托弗·斯卡拉博西奥 / 安迪·尼尔森 / 斯图尔特·威尔逊
  最佳音效剪辑(提名) 大卫·阿克德 / 马修·伍德
  最佳原创配乐(提名) 约翰·威廉姆斯

  第69届英国电影学院奖(2016)
  电影奖 最佳艺术指导(提名) 李·桑多斯 / 达伦·吉尔福德 / 瑞克·卡特
  电影奖 最佳特殊视觉效果 尼尔·斯坎伦 / Paul Kavanagh / 克里斯·考博德 / 罗杰·盖耶特
  电影奖 最佳原创音乐(提名) 约翰·威廉姆斯
  电影奖 最佳音效(提名) 克里斯托弗·斯卡拉博西奥 / 大卫·阿克德 / 安迪·尼尔森 / 斯图尔特·威尔逊 / 马修·伍德

  第40届日本电影学院奖(2017)
  最佳外语片(提名)

  第66届美国剪辑工会奖(2016)
  剧情片最佳剪辑(提名)

  第18届美国服装设计工会奖(2016)
  科幻/奇幻题材电影最佳服装设计(提名)

  第14届美国视觉效果协会奖(2016)
  最佳特效电影视觉效果
  最佳真人电影CG动画角色(提名)
  最佳真人电影CG背景
  最佳电影虚拟摄影
  最佳电影模型
  最佳真人电影模拟动画效果(提名)
  最佳电影视觉效果合成(提名)

  第21届美国评论家选择电影奖(2016)
  最佳影片(提名)

  第16届美国电影学会奖(2015)
  年度佳片

  第3届豆瓣电影年度榜单(2016)
  1月最受关注电影(提名)

  第6届豆瓣电影鑫像奖(2016)
  鑫豆单元 最佳科幻/动作片(提名)
  鑫豆单元 最佳配乐(提名)

Video
ID : 1
ID in the original source medium : 4113 (0x1011)
Format : HEVC
Format/Info : High Efficiency Video Coding
Format profile : Main 10@L5.1@High
HDR format : SMPTE ST 2086, HDR10 compatible
Codec ID : V_MPEGH/ISO/HEVC
Duration : 2 h 18 min
Bit rate : 47.7 Mb/s
Width : 3 840 pixels
Height : 2 160 pixels
Display aspect ratio : 16:9
Frame rate mode : Constant
Frame rate : 23.976 (24000/1001) FPS
Color space : YUV
Chroma subsampling : 4:2:0 (Type 2)
Bit depth : 10 bits
Bits/(Pixel*Frame) : 0.240
Stream size : 46.0 GiB (81%)
Writing library : ATEME Titan File 3.9.0 (4.9.0.0)
Language : English
Default : No
Forced : No
Color range : Limited
Color primaries : BT.2020
Transfer characteristics : PQ
Matrix coefficients : BT.2020 non-constant
Mastering display color primaries : Display P3
Mastering display luminance : min: 0.0001 cd/m2, max: 1000 cd/m2
Original source medium : Blu-ray

Audio #1
ID : 2
ID in the original source medium : 4352 (0x1100)
Format : MLP FBA 16-ch
Format/Info : Meridian Lossless Packing FBA with 16-channel presentation
Commercial name : Dolby TrueHD with Dolby Atmos
Codec ID : A_TRUEHD
Duration : 2 h 18 min
Bit rate mode : Variable
Bit rate : 4 150 kb/s
Maximum bit rate : 5 997 kb/s
Channel(s) : 8 channels
Channel layout : L R C LFE Ls Rs Lb Rb
Sampling rate : 48.0 kHz
Frame rate : 1 200.000 FPS (40 SPF)
Bit depth : 24 bits
Compression mode : Lossless
Stream size : 4.00 GiB (7%)
Title : TrueHD 7.1 Atmos
Language : English
Default : Yes
Forced : No
Original source medium : Blu-ray
Number of dynamic objects : 13
Bed channel count : 1 channel
Bed channel configuration : LFE

Audio #2
ID : 3
Format : DTS XLL
Format/Info : Digital Theater Systems
Commercial name : DTS-HD Master Audio
Codec ID : A_DTS
Duration : 2 h 18 min
Bit rate mode : Variable
Bit rate : 3 235 kb/s
Channel(s) : 8 channels
Channel layout : C L R LFE Lb Rb Lss Rss
Sampling rate : 48.0 kHz
Frame rate : 93.750 FPS (512 SPF)
Bit depth : 24 bits
Compression mode : Lossless
Stream size : 3.12 GiB (5%)
Title : DTS-HD MA 7.1
Language : English
Default : No
Forced : No

Audio #3
ID : 4
ID in the original source medium : 4352 (0x1100)
Format : AC-3
Format/Info : Audio Coding 3
Commercial name : Dolby Digital
Codec ID : A_AC3
Duration : 2 h 18 min
Bit rate mode : Constant
Bit rate : 640 kb/s
Channel(s) : 6 channels
Channel layout : L R C LFE Ls Rs
Sampling rate : 48.0 kHz
Frame rate : 31.250 FPS (1536 SPF)
Compression mode : Lossy
Stream size : 632 MiB (1%)
Title : DD 5.1
Language : English
Service kind : Complete Main
Default : No
Forced : No
Original source medium : Blu-ray

Audio #4
ID : 5
ID in the original source medium : 4353 (0x1101)
Format : AC-3
Format/Info : Audio Coding 3
Commercial name : Dolby Digital
Format settings : Dolby Surround
Codec ID : A_AC3
Duration : 2 h 18 min
Bit rate mode : Constant
Bit rate : 320 kb/s
Channel(s) : 2 channels
Channel layout : L R
Sampling rate : 48.0 kHz
Frame rate : 31.250 FPS (1536 SPF)
Compression mode : Lossy
Stream size : 316 MiB (0%)
Title : DD 2.0
Language : English
Service kind : Complete Main
Default : No
Forced : No
Original source medium : Blu-ray

Audio #5
ID : 6
Format : E-AC-3
Format/Info : Enhanced AC-3
Commercial name : Dolby Digital Plus
Format profile : Blu-ray Disc
Codec ID : A_EAC3
Duration : 2 h 18 min
Bit rate mode : Constant
Bit rate : 1 024 kb/s
Channel(s) : 8 channels
Channel layout : L R C LFE Ls Rs Lb Rb
Sampling rate : 48.0 kHz
Frame rate : 31.250 FPS (1536 SPF)
Compression mode : Lossy
Stream size : 1 012 MiB (2%)
Title : DDP 7.1
Language : French
Service kind : Complete Main
Default : No
Forced : No

Audio #6
ID : 7
Format : E-AC-3
Format/Info : Enhanced AC-3
Commercial name : Dolby Digital Plus
Format profile : Blu-ray Disc
Codec ID : A_EAC3
Duration : 2 h 18 min
Bit rate mode : Constant
Bit rate : 1 024 kb/s
Channel(s) : 8 channels
Channel layout : L R C LFE Ls Rs Lb Rb
Sampling rate : 48.0 kHz
Frame rate : 31.250 FPS (1536 SPF)
Compression mode : Lossy
Stream size : 1 012 MiB (2%)
Title : DDP 7.1
Language : Spanish
Service kind : Complete Main
Default : No
Forced : No

Audio #7
ID : 8
Format : E-AC-3
Format/Info : Enhanced AC-3
Commercial name : Dolby Digital Plus
Format profile : Blu-ray Disc
Codec ID : A_EAC3
Duration : 2 h 18 min
Bit rate mode : Constant
Bit rate : 1 024 kb/s
Channel(s) : 8 channels
Channel layout : L R C LFE Ls Rs Lb Rb
Sampling rate : 48.0 kHz
Frame rate : 31.250 FPS (1536 SPF)
Compression mode : Lossy
Stream size : 1 012 MiB (2%)
Title : DDP 7.1
Language : Japanese
Service kind : Complete Main
Default : No
Forced : No

Text #1
ID : 9
Format : UTF-8
Codec ID : S_TEXT/UTF8
Codec ID/Info : UTF-8 Plain Text
Duration : 2 h 0 min
Bit rate : 42 b/s
Frame rate : 0.191 FPS
Count of elements : 1379
Stream size : 37.3 KiB (0%)
Language : English
Default : Yes
Forced : No

Text #2
ID : 10
Format : UTF-8
Codec ID : S_TEXT/UTF8
Codec ID/Info : UTF-8 Plain Text
Duration : 2 h 6 min
Bit rate : 50 b/s
Frame rate : 0.230 FPS
Count of elements : 1753
Stream size : 47.0 KiB (0%)
Title : SDH
Language : English
Default : No
Forced : No

Text #3
ID : 11
ID in the original source medium : 4768 (0x12A0)
Format : PGS
Muxing mode : zlib
Codec ID : S_HDMV/PGS
Codec ID/Info : Picture based subtitle format used on BDs/HD-DVDs
Duration : 2 h 6 min
Bit rate : 34.2 kb/s
Frame rate : 0.467 FPS
Count of elements : 3556
Stream size : 31.1 MiB (0%)
Language : English
Default : No
Forced : No
Original source medium : Blu-ray

Text #4
ID : 12
ID in the original source medium : 4769 (0x12A1)
Format : PGS
Muxing mode : zlib
Codec ID : S_HDMV/PGS
Codec ID/Info : Picture based subtitle format used on BDs/HD-DVDs
Duration : 2 h 8 min
Bit rate : 24.8 kb/s
Frame rate : 0.349 FPS
Count of elements : 2692
Stream size : 22.8 MiB (0%)
Language : French
Default : No
Forced : No
Original source medium : Blu-ray

Text #5
ID : 13
ID in the original source medium : 4770 (0x12A2)
Format : PGS
Muxing mode : zlib
Codec ID : S_HDMV/PGS
Codec ID/Info : Picture based subtitle format used on BDs/HD-DVDs
Duration : 2 h 3 min
Bit rate : 25.6 kb/s
Frame rate : 0.358 FPS
Count of elements : 2648
Stream size : 22.6 MiB (0%)
Language : Spanish
Default : No
Forced : No
Original source medium : Blu-ray

Text #6
ID : 14
ID in the original source medium : 4771 (0x12A3)
Format : PGS
Muxing mode : zlib
Codec ID : S_HDMV/PGS
Codec ID/Info : Picture based subtitle format used on BDs/HD-DVDs
Duration : 2 h 17 min
Bit rate : 16.6 kb/s
Frame rate : 0.289 FPS
Count of elements : 2384
Stream size : 16.4 MiB (0%)
Language : Japanese
Default : No
Forced : No
Original source medium : Blu-ray

Text #7
ID : 15
ID in the original source medium : 4772 (0x12A4)
Format : PGS
Muxing mode : zlib
Codec ID : S_HDMV/PGS
Codec ID/Info : Picture based subtitle format used on BDs/HD-DVDs
Duration : 2 h 8 min
Bit rate : 500 b/s
Frame rate : 0.009 FPS
Count of elements : 68
Stream size : 472 KiB (0%)
Language : French
Default : No
Forced : No
Original source medium : Blu-ray

Text #8
ID : 16
ID in the original source medium : 4773 (0x12A5)
Format : PGS
Muxing mode : zlib
Codec ID : S_HDMV/PGS
Codec ID/Info : Picture based subtitle format used on BDs/HD-DVDs
Duration : 58 min 52 s
Bit rate : 315 b/s
Frame rate : 0.007 FPS
Count of elements : 24
Stream size : 136 KiB (0%)
Language : Spanish
Default : No
Forced : No
Original source medium : Blu-ray

Text #9
ID : 17
ID in the original source medium : 4774 (0x12A6)
Format : PGS
Muxing mode : zlib
Codec ID : S_HDMV/PGS
Codec ID/Info : Picture based subtitle format used on BDs/HD-DVDs
Duration : 58 min 52 s
Bit rate : 295 b/s
Frame rate : 0.007 FPS
Count of elements : 24
Stream size : 128 KiB (0%)
Language : Japanese
Default : No
Forced : No
Original source medium : Blu-ray

Menu
00:00:00.000 : en:Chapter 01
00:00:09.092 : en:Chapter 02
00:01:42.727 : en:Chapter 03
00:03:51.439 : en:Chapter 04
00:06:11.829 : en:Chapter 05
00:09:33.781 : en:Chapter 06
00:10:43.225 : en:Chapter 07
00:12:35.379 : en:Chapter 08
00:13:39.276 : en:Chapter 09
00:14:47.803 : en:Chapter 10
00:16:45.754 : en:Chapter 11
00:18:04.041 : en:Chapter 12
00:19:21.118 : en:Chapter 13
00:21:26.201 : en:Chapter 14
00:24:03.400 : en:Chapter 15
00:26:46.605 : en:Chapter 16
00:29:54.250 : en:Chapter 17
00:31:48.781 : en:Chapter 18
00:35:51.399 : en:Chapter 19
00:36:40.281 : en:Chapter 20
00:37:45.304 : en:Chapter 21
00:40:19.083 : en:Chapter 22
00:43:38.866 : en:Chapter 23
00:45:29.059 : en:Chapter 24
00:49:22.417 : en:Chapter 25
00:51:19.743 : en:Chapter 26
00:54:13.500 : en:Chapter 27
00:59:48.626 : en:Chapter 28
01:04:15.518 : en:Chapter 29
01:08:37.071 : en:Chapter 30
01:11:06.804 : en:Chapter 31
01:15:16.220 : en:Chapter 32
01:16:49.730 : en:Chapter 33
01:19:36.980 : en:Chapter 34
01:20:56.518 : en:Chapter 35
01:25:36.005 : en:Chapter 36
01:32:12.401 : en:Chapter 37
01:35:28.848 : en:Chapter 38
01:36:34.455 : en:Chapter 39
01:39:28.170 : en:Chapter 40
01:41:29.458 : en:Chapter 41
01:42:57.337 : en:Chapter 42
01:44:59.710 : en:Chapter 43
01:50:33.251 : en:Chapter 44
01:53:39.604 : en:Chapter 45
01:55:21.873 : en:Chapter 46
01:58:04.994 : en:Chapter 47
02:01:05.132 : en:Chapter 48
02:02:32.178 : en:Chapter 49
02:07:07.411 : en:Chapter 50

新种推荐使用qBittorrent、uTorrent、BitComet等下载软件,有条件的推荐115更好的下载软件!

星球大战7:原力觉醒(57.13GB)
Star.Wars.Episode.VII.The.Force.Awakens.2015.PROPER.2160p.BluRay.REMUX.HEVC.DTS-HD.MA.TrueHD.7.1.Atmos-FGT-【2160P蓝光REMUX】
游客,如果您要查看本帖隐藏内容请回复

星球大战7:原力觉醒(12.18GB)Star.Wars.Episode.VII.The.Force.Awakens.2015.2160p.UHD.BluRay.x265.10bit.HDR.TrueHD.7.1.Atmos
游客,如果您要查看本帖隐藏内容请回复

星球大战7:原力觉醒(8.36GB)Star.Wars.Episode.VII.The.Force.Awakens.2015.2160p.UHD.BluRay.x265.10bit.HDR.DDP5.1
游客,如果您要查看本帖隐藏内容请回复


4K海报.gif


上一篇:星球大战2:帝国反击战 (1980) 4K蓝光REMUX版本下载
下一篇:星球大战3:绝地归来 (1983) 4K蓝光REMUX版本下载
回复

使用道具 举报

1

主题

4

帖子

22

积分

新手上路

Rank: 1

积分
22
发表于 2022-11-15 16:19:02 | 显示全部楼层
感谢版主分享!版主好人
回复 支持 反对

使用道具 举报

0

主题

112

帖子

2712

积分

4K家园VIP

Rank: 9Rank: 9Rank: 9

积分
2712
发表于 2022-11-15 19:23:43 | 显示全部楼层
种子还是错的??
回复 支持 反对

使用道具 举报

0

主题

9

帖子

22

积分

新手上路

Rank: 1

积分
22
发表于 2022-11-16 20:47:34 | 显示全部楼层
感谢楼主
回复

使用道具 举报

您需要登录后才可以回帖 登录 | 立即注册

本版积分规则

精彩图文
Archiver|手机版|TAG|Sitemap|新帖|专题|联系我们:邮箱: 4kjia.com@gmail.com   

4k家园   ©2019