[4K电影] 危笑 / Smile (2022) 4K高清版本下载

  [复制链接]

主题

帖子

0

积分

超级版主

Rank: 8Rank: 8

积分
0
 楼主| 发表于 2022-11-15 20:04:55 | 显示全部楼层 |阅读模式

QQ图片20221115200319_副本.png

◎译  名 微笑(台) / 魅笑(港) / 夺命微笑 / 笑死 / Something's Wrong with Rose
◎片  名 Smile
◎年  代 2022
◎产  地 美国
◎类  别 恐怖
◎语  言 英语
◎上映日期 2022-09-22(奇幻影展) / 2022-09-30(美国)
◎IMDb评分 6.7/10 from 49072 users 更新 : 2022-11-15
◎IMDb链接 https://www.imdb.com/title/tt15474916/
◎豆瓣评分 6.3/10 from 21274 users
◎豆瓣链接 https://movie.douban.com/subject/35779959/
◎片  长 115分钟
◎导  演 帕克·芬恩 Parker Finn
◎编  剧 帕克·芬恩 Parker Finn
◎演  员 索茜·贝肯 Sosie Bacon
       凯尔·加尔纳 Kyle Gallner
       凯特琳·斯塔西 Caitlin Stasey
       罗宾·薇格特 Robin Weigert
       杰西·厄舍 Jessie Usher
       卡尔·潘 Kal Penn
       朱迪·雷耶斯 Judy Reyes
       凯文·凯皮 Kevin Keppy
       罗布·摩根 Rob Morgan
       吉莲·珍塞尔 Gillian Zinser
       马蒂·马图利斯 Marti Matulis
       朵拉·济丝 Dora Kiss
       莎拉·卡普纳 Sara Kapner
       马修·兰姆 Matthew Lamb
       杰里·洛布罗 Jerry Lobrow
       谢维·古铁雷斯 Shevy Berkovits Gutierrez
       梅兹·阿特伍德 Mezi Atwood
       克里斯托波尔·塔皮亚·德维尔 Cristobal Tapia de Veer


◎简  介


  在目睹一名病人诡异的创伤经验之后,萝丝·卡特医师(索茜·贝肯 饰)开始经历一些她无法解释的恐怖事件。当一股令人不寒而栗的可怕力量开始占据她的生活,萝丝就必须面对她令人不安的阴暗过去,才能够存活并逃离她充满恐惧的全新现实。

Video
ID : 1
Format : HEVC
Format/Info : High Efficiency Video Coding
Format profile : Main 10@L5@Main
HDR format : Dolby Vision, Version 1.0, dvhe.05.06, BL+RPU
Codec ID : dvhe
Codec ID/Info : High Efficiency Video Coding with Dolby Vision
Duration : 1 h 55 min
Bit rate : 13.7 Mb/s
Width : 3 840 pixels
Height : 2 160 pixels
Display aspect ratio : 16:9
Frame rate mode : Constant
Frame rate : 23.976 (24000/1001) FPS
Color space : YUV
Chroma subsampling : 4:2:0 (Type 0)
Bit depth : 10 bits
Bits/(Pixel*Frame) : 0.069
Stream size : 11.0 GiB (95%)
Default : Yes
Alternate group : 1
Encoded date : UTC 2022-11-15 06:42:45
Tagged date : UTC 2022-11-15 06:44:58
Color range : Full
Codec configuration box : hvcC+dvcC

Audio
ID : 2
Format : E-AC-3 JOC
Format/Info : Enhanced AC-3 with Joint Object Coding
Commercial name : Dolby Digital Plus with Dolby Atmos
Codec ID : ec-3
Duration : 1 h 55 min
Bit rate mode : Constant
Bit rate : 768 kb/s
Maximum bit rate : 811 kb/s
Channel(s) : 6 channels
Channel layout : L R C LFE Ls Rs
Sampling rate : 48.0 kHz
Frame rate : 31.250 FPS (1536 SPF)
Compression mode : Lossy
Stream size : 635 MiB (5%)
Title : English
Language : English
Service kind : Complete Main
Default : Yes
Alternate group : 1
Tagged date : UTC 2022-11-15 06:44:58
Complexity index : Not present / 16
Number of dynamic objects : 15
Bed channel count : 1 channel
Bed channel configuration : LFE

Text
ID : 3
Format : Timed Text
Codec ID : tx3g
Duration : 1 h 51 min
Bit rate mode : Variable
Bit rate : 52 b/s
Frame rate : 0.405 FPS
Stream size : 42.3 KiB (0%)
Title : English
Language : English
Forced : No
Encoded date : UTC 2022-11-15 06:44:58
Tagged date : UTC 2022-11-15 06:44:58


关于下载:推荐使用qBittorrent、uTorrent、BitComet等下载软件,有条件的推荐115更好的下载软件!

下载地址:


游客,如果您要查看本帖隐藏内容请回复

游客,如果您要查看本帖隐藏内容请回复

游客,如果您要查看本帖隐藏内容请回复

游客,如果您要查看本帖隐藏内容请回复





上一篇:荒唐六蛟龙[简繁中字] / The Ridiculous 6 (2015) 4K高清版本下载
下一篇:塔尔 / Tár (2022) 4K高清版本下载
回复

使用道具 举报

0

主题

323

帖子

1920

积分

4K家园VIP

Rank: 9Rank: 9Rank: 9

积分
1920
QQ
发表于 2022-11-16 11:07:43 | 显示全部楼层
让 江小白 来看看帖子里藏了啥好东西~~~
回复 支持 反对

使用道具 举报

0

主题

5

帖子

30

积分

新手上路

Rank: 1

积分
30
发表于 2022-11-16 11:24:31 | 显示全部楼层
回帖是一种尊重
回复 支持 反对

使用道具 举报

0

主题

1

帖子

6

积分

新手上路

Rank: 1

积分
6
发表于 2022-11-16 17:05:37 | 显示全部楼层
感谢楼主分享,改天验证
回复 支持 反对

使用道具 举报

0

主题

1

帖子

6

积分

新手上路

Rank: 1

积分
6
发表于 2022-11-16 17:34:15 | 显示全部楼层
回帖是一种尊重
回复 支持 反对

使用道具 举报

0

主题

1

帖子

6

积分

新手上路

Rank: 1

积分
6
发表于 2022-11-16 18:04:09 | 显示全部楼层
想试试
回复

使用道具 举报

主题

帖子

0

积分

新手上路

Rank: 1

积分
0
发表于 2022-11-16 18:46:43 | 显示全部楼层
谢谢分享 爱你哟
回复 支持 反对

使用道具 举报

0

主题

2

帖子

9

积分

新手上路

Rank: 1

积分
9
发表于 2022-11-16 19:30:22 | 显示全部楼层
好耶
回复

使用道具 举报

主题

帖子

0

积分

新手上路

Rank: 1

积分
0
发表于 2022-11-16 19:59:25 | 显示全部楼层
感谢分享
回复

使用道具 举报

0

主题

2

帖子

12

积分

新手上路

Rank: 1

积分
12
发表于 2022-11-17 01:37:16 | 显示全部楼层
新手一枚 感謝分享
回复 支持 反对

使用道具 举报

您需要登录后才可以回帖 登录 | 立即注册

本版积分规则

精彩图文
Archiver|手机版|TAG|Sitemap|新帖|专题|联系我们:邮箱: 4kjia.com@gmail.com   

4k家园   ©2019