[4K电影] 塔尔 / Tár (2022) 4K高清版本下载

[复制链接]

主题

帖子

0

积分

超级版主

Rank: 8Rank: 8

积分
0
 楼主| 发表于 2022-11-15 20:18:47 | 显示全部楼层 |阅读模式

QQ图片20221115201745_副本.png

◎标  题 塔尔
◎片  名 Tár
◎年  代 2022
◎产  地 美国
◎类  别 剧情 / 音乐
◎语  言 德语 / 菲律宾语 / 法语 / 英语
◎上映日期 2022-09-01(威尼斯电影节) / 2022-10-07(美国)
◎IMDb评分 8.2/10 from 4180 users 更新 : 2022-11-15
◎IMDb链接 https://www.imdb.com/title/tt14444726/
◎豆瓣评分 7.6/10 from 681 users 更新 : 2022-11-15
◎豆瓣链接 https://movie.douban.com/subject/35430833/
◎片  长 158分钟
◎导  演 托德·菲尔德 Todd Field
◎编  剧 托德·菲尔德 Todd Field
◎演  员 凯特·布兰切特 Cate Blanchett
       诺米·梅兰特 Noémie Merlant
       尼娜·霍斯 Nina Hoss
       马克·斯特朗 Mark Strong
       苏菲·考尔 Sophie Kauer
       朱利安·格洛弗 Julian Glover
       阿兰·柯德勒 Allan Corduner
       亚历克·鲍德温 Alec Baldwin
       西尔维娅·弗洛特 Sylvia Flote
       西德妮·莱蒙 Sydney Lemmon
       亚特乔姆·吉尔茨 Artjom Gilz
       玛丽·卢·塞勒姆 Marie-Lou Sellem
       安德烈·罗纳 André Röhner
       弗兰克·罗思 Frank Röth
       约翰·冯·比罗 Johann von Bülow
       仙妮娅·阿森察 Xenia Assenza
       山姆·道格拉斯 Sam Douglas
       穆拉利·佩鲁马尔 Murali Perumal
       文森特·里奥特 Vincent Riotta
       Vivian Full Vivian Full
       埃德·怀特 Ed White
       露西·波尔 Lucie Pohl
       迪安娜·比伦特 Diana Birenyte
       佩纳·戴格勒 Bina Daigeler


◎简  介


  影片讲述了世界著名音乐家莉迪亚·塔尔Lydia Tár(凯特·布兰切特 饰)的故事。距离录制交响乐仅有几天时间,这将使她达到她职业生涯的顶峰。Lydia Tár的六岁养女Petra非常聪明和迷人,在这里发挥了关键作用。当各种因素似乎对Lydia不利时,女儿成为挣扎中的母亲的重要精神支持。

Video
ID : 1
Format : HEVC
Format/Info : High Efficiency Video Coding
Format profile : Main 10@L5@High
HDR format : SMPTE ST 2094 App 4, Version 1, HDR10+ Profile B compatible
Codec ID : V_MPEGH/ISO/HEVC
Duration : 2 h 38 min
Bit rate : 23.5 Mb/s
Width : 3 840 pixels
Height : 1 600 pixels
Display aspect ratio : 2.40:1
Frame rate mode : Constant
Frame rate : 23.976 (24000/1001) FPS
Color space : YUV
Chroma subsampling : 4:2:0 (Type 2)
Bit depth : 10 bits
Bits/(Pixel*Frame) : 0.159
Stream size : 25.9 GiB (95%)
Language : English
Default : Yes
Forced : No
Color range : Limited
Color primaries : BT.2020
Transfer characteristics : PQ
Matrix coefficients : BT.2020 non-constant
Mastering display color primaries : Display P3
Mastering display luminance : min: 0.0050 cd/m2, max: 4000 cd/m2
Maximum Content Light Level : 1000 cd/m2
Maximum Frame-Average Light Level : 62 cd/m2

Audio
ID : 2
Format : E-AC-3 JOC
Format/Info : Enhanced AC-3 with Joint Object Coding
Commercial name : Dolby Digital Plus with Dolby Atmos
Codec ID : A_EAC3
Duration : 2 h 38 min
Bit rate mode : Constant
Bit rate : 768 kb/s
Channel(s) : 6 channels
Channel layout : L R C LFE Ls Rs
Sampling rate : 48.0 kHz
Frame rate : 31.250 FPS (1536 SPF)
Compression mode : Lossy
Stream size : 869 MiB (3%)
Language : English
Service kind : Complete Main
Default : Yes
Forced : No
Complexity index : 16
Number of dynamic objects : 15
Bed channel count : 1 channel
Bed channel configuration : LFE

Text #1
ID : 3
Format : UTF-8
Codec ID : S_TEXT/UTF8
Codec ID/Info : UTF-8 Plain Text
Title : English
Language : English
Default : No
Forced : No

Text #2
ID : 4
Format : UTF-8
Codec ID : S_TEXT/UTF8
Codec ID/Info : UTF-8 Plain Text
Title : English [Forced]
Language : English
Default : Yes
Forced : Yes

Text #3
ID : 5
Format : UTF-8
Codec ID : S_TEXT/UTF8
Codec ID/Info : UTF-8 Plain Text
Title : French Canadian
Language : French
Default : No
Forced : No

Text #4
ID : 6
Format : UTF-8
Codec ID : S_TEXT/UTF8
Codec ID/Info : UTF-8 Plain Text
Title : Latin America Spanish
Language : Spanish
Default : No
Forced : No
关于下载:推荐使用qBittorrent、uTorrent、BitComet等下载软件,有条件的推荐115更好的下载软件!

下载地址:


游客,如果您要查看本帖隐藏内容请回复

游客,如果您要查看本帖隐藏内容请回复

游客,如果您要查看本帖隐藏内容请回复

游客,如果您要查看本帖隐藏内容请回复





上一篇:危笑 / Smile (2022) 4K高清版本下载
下一篇:西部圣灵 / Manifest West (2022) 4K高清版本下载
回复

使用道具 举报

0

主题

320

帖子

1902

积分

4K家园VIP

Rank: 9Rank: 9Rank: 9

积分
1902
QQ
发表于 2022-11-16 13:23:01 | 显示全部楼层
楼主辛苦了,谢谢楼主,感谢楼主分享,楼主好人一生平安!!!
回复 支持 反对

使用道具 举报

0

主题

10

帖子

23

积分

新手上路

Rank: 1

积分
23
发表于 2022-11-16 15:27:17 | 显示全部楼层
楼主辛苦了
回复 支持 反对

使用道具 举报

0

主题

2

帖子

9

积分

新手上路

Rank: 1

积分
9
发表于 2022-11-16 19:31:50 | 显示全部楼层
回帖是一种责任
回复 支持 反对

使用道具 举报

0

主题

1

帖子

6

积分

新手上路

Rank: 1

积分
6
发表于 2022-11-16 19:48:24 | 显示全部楼层
体验4k好地方
回复 支持 反对

使用道具 举报

0

主题

9

帖子

22

积分

新手上路

Rank: 1

积分
22
发表于 2022-11-16 20:46:40 | 显示全部楼层
感谢楼主
回复

使用道具 举报

0

主题

7

帖子

20

积分

新手上路

Rank: 1

积分
20
发表于 2022-11-17 02:19:12 | 显示全部楼层
good很好很好,啥都有,全面,喜欢
回复 支持 反对

使用道具 举报

0

主题

3

帖子

12

积分

新手上路

Rank: 1

积分
12
发表于 2022-11-17 08:47:20 | 显示全部楼层
楼主辛苦了,谢谢楼主,感谢楼主分享,楼主好人一生平安!!!
回复 支持 反对

使用道具 举报

0

主题

3

帖子

12

积分

新手上路

Rank: 1

积分
12
发表于 2022-11-17 08:47:56 | 显示全部楼层
买的DE HAOGUI
回复 支持 反对

使用道具 举报

主题

帖子

0

积分

新手上路

Rank: 1

积分
0
发表于 2022-11-17 21:25:07 | 显示全部楼层
THX 4 SHARING...
回复 支持 反对

使用道具 举报

您需要登录后才可以回帖 登录 | 立即注册

本版积分规则

精彩图文
Archiver|手机版|TAG|Sitemap|新帖|专题|联系我们:邮箱: 4kjia.com@gmail.com   

4k家园   ©2019