[4K电影] 西部圣灵 / Manifest West (2022) 4K高清版本下载

[复制链接]

主题

帖子

0

积分

超级版主

Rank: 8Rank: 8

积分
0
 楼主| 发表于 2022-11-17 12:51:21 | 显示全部楼层 |阅读模式
本帖最后由 最爱4K哟 于 2022-11-17 13:29 编辑

QQ图片20221117132505_副本.png

◎标  题 西部圣灵
◎片  名 Manifest West
◎年  代 2022
◎产  地 美国
◎类  别 悬疑 / 犯罪
◎语  言 英语
◎上映日期 2022-11-11(美国)
◎IMDb评分 7.8/10 from 67 users 更新 : 2022-11-17
◎IMDb链接 https://www.imdb.com/title/tt12164416/
◎豆瓣评分 0/10 from 0 users
◎豆瓣链接 https://movie.douban.com/subject/36109775/
◎导  演 乔·蒂奇 Joe Dietsch / 路易·吉布森 Louie Gibson
◎编  剧 乔·蒂奇 Joe Dietsch / 路易·吉布森 Louie Gibson
◎演  员 Annet Mahendru Annet Mahendru
                   迈克尔·库德利茨 Michael Cudlitz
                   米洛·吉布森 Milo Gibson
                   蒂姆·海德克 Tim Heidecker
                   莱克西·科尔克 Lexy Kolker
                   艾娃·科尔克 Ava Kolker
                   迪翁·奥丹 Dionne Audain
                   伊莱恩·考 Elaine Kao
                   洛伦佐·席尔瓦 Lorenzo Silva
                   雪莉·利 Sherry Leigh
                   AprilAnn Dais AprilAnn Dais
                   Holland Bailey Holland Bailey
                   夏洛特·萨布兰 Charlotte Sablan
                   安吉丽娜·马亨德鲁 Angelina Mahendru
                   罗斯·特纳 Ross Turner
                   斯科特·芬奇 Scott Vinci
                   乔纳森·欧文 Jonathan Irwin
                   雅各布·波波洛斯基 Jacob Popoloski



◎简  介

  这是一个年轻女孩的成长故事,她在决定脱离电网生活后,家庭失控。

Video
ID : 1
Format : HEVC
Format/Info : High Efficiency Video Coding
Format profile : Main 10@L5@High
Codec ID : V_MPEGH/ISO/HEVC
Duration : 1 h 30 min
Bit rate : 12.0 Mb/s
Width : 3 838 pixels
Height : 1 594 pixels
Display aspect ratio : 2.40:1
Frame rate mode : Constant
Frame rate : 23.976 FPS
Color space : YUV
Chroma subsampling : 4:2:0
Bit depth : 10 bits
Bits/(Pixel*Frame) : 0.082
Stream size : 7.55 GiB (97%)
Default : Yes
Forced : No
Color range : Limited
Color primaries : BT.709
Transfer characteristics : BT.709
Matrix coefficients : BT.709

Audio
ID : 2
Format : AC-3
Format/Info : Audio Coding 3
Commercial name : Dolby Digital
Codec ID : A_AC3
Duration : 1 h 30 min
Bit rate mode : Constant
Bit rate : 384 kb/s
Channel(s) : 6 channels
Channel layout : L R C LFE Ls Rs
Sampling rate : 48.0 kHz
Frame rate : 31.250 FPS (1536 SPF)
Compression mode : Lossy
Stream size : 248 MiB (3%)
Language : English
Service kind : Complete Main
Default : Yes
Forced : No

Text #1
ID : 3
Format : UTF-8
Codec ID : S_TEXT/UTF8
Codec ID/Info : UTF-8 Plain Text
Duration : 1 h 26 min
Bit rate : 48 b/s
Frame rate : 0.213 FPS
Count of elements : 1104
Stream size : 30.9 KiB (0%)
Language : English
Default : Yes
Forced : No

Text #2
ID : 4
Format : UTF-8
Codec ID : S_TEXT/UTF8
Codec ID/Info : UTF-8 Plain Text
Duration : 1 h 26 min
Bit rate : 52 b/s
Frame rate : 0.232 FPS
Count of elements : 1207
Stream size : 33.5 KiB (0%)
Title : SDH
Language : English
Default : No
Forced : No

关于下载:推荐使用qBittorrent、uTorrent、BitComet等下载软件,有条件的推荐115更好的下载软件!

下载地址:


游客,如果您要查看本帖隐藏内容请回复






上一篇:塔尔 / Tár (2022) 4K高清版本下载
下一篇:宇宙恋曲[简繁中字] / Beyond the Universe (2022) 4K高清版本下载
回复

使用道具 举报

0

主题

1

帖子

6

积分

新手上路

Rank: 1

积分
6
发表于 2022-11-19 09:39:36 | 显示全部楼层
kkkkkkkkkkkk                                 
回复 支持 反对

使用道具 举报

0

主题

158

帖子

835

积分

4K家园VIP

Rank: 9Rank: 9Rank: 9

积分
835
发表于 2022-11-19 22:41:33 | 显示全部楼层
让 江小白 来看看帖子里藏了啥好东西~~~
回复 支持 反对

使用道具 举报

您需要登录后才可以回帖 登录 | 立即注册

本版积分规则

精彩图文
Archiver|手机版|TAG|Sitemap|新帖|专题|联系我们:邮箱: 4kjia.com@gmail.com   

4k家园   ©2019