[4K UHD 蓝光原盘] 盗梦空间[简繁粤中字] / Inception (2010) 4K蓝光REMUX版本下载

[复制链接]

主题

帖子

0

积分

超级版主

Rank: 8Rank: 8

积分
0
 楼主| 发表于 2022-11-17 19:09:28 | 显示全部楼层 |阅读模式
盗梦空间.png

◎标  题 盗梦空间
◎译  名 潜行凶间(港) / 全面启动(台) / 奠基 / 心灵犯案 / 记忆迷阵 / 记忆魔方
◎片  名 Inception
◎年  代 2010
◎产  地 美国 / 英国
◎类  别 剧情 / 科幻 / 悬疑 / 冒险
◎语  言 英语 / 日语 / 法语
◎上映日期 2010-09-01(中国大陆) / 2020-08-28(中国大陆重映) / 2010-07-16(美国)
◎IMDb评分 8.8/10 from 2334396 users Updated : 2022-11-16
◎IMDb链接 https://www.imdb.com/title/tt1375666/
◎豆瓣评分 9.3/10 from 1962387 users Updated : 2022-11-16
◎豆瓣链接 https://movie.douban.com/subject/3541415/
◎片  长 148分钟
◎导  演 克里斯托弗·诺兰 Christopher Nolan
◎编  剧 克里斯托弗·诺兰 Christopher Nolan
◎演  员 莱昂纳多·迪卡普里奥 Leonardo DiCaprio
       约瑟夫·高登-莱维特 Joseph Gordon-Levitt
       艾利奥特·佩吉 Elliot Page
       汤姆·哈迪 Tom Hardy
       渡边谦 Ken Watanabe
       迪利普·劳 Dileep Rao
       基里安·墨菲 Cillian Murphy
       汤姆·贝伦杰 Tom Berenger
       玛丽昂·歌迪亚 Marion Cotillard
       皮特·波斯尔思韦特 Pete Postlethwaite
       迈克尔·凯恩 Michael Caine
       卢卡斯·哈斯 Lukas Haas
       李太力 Tai-Li Lee
       克莱尔·吉尔蕾 Claire Geare
       马格努斯·诺兰 Magnus Nolan
       泰勒·吉蕾 Taylor Geare
       乔纳森·吉尔 Johnathan Geare
       水源士郎 Tohoru Masamune
       冈本玉二 Yuji Okumoto
       厄尔·卡梅伦 Earl Cameron
       瑞恩·海沃德 Ryan Hayward
       米兰达·诺兰 Miranda Nolan
       拉什·费加 Russ Fega
       蒂姆·科勒赫 Tim Kelleher
       妲露拉·莱莉 Talulah Riley
       迈克尔·加斯顿 Michael Gaston
       吉尔·马德雷尔 Jill Maddrell
       玛格丽特·因索利亚 Marguerite Insolia
       Natasha Beaumont Natasha Beaumont
       克里斯托弗·诺兰 Christopher Nolan
       艾玛·托马斯 Emma Thomas
       乔丹·戈登伯格 Jordan Goldberg
       托马斯·海斯利普 Thomas Hayslip
       托马斯·图尔 Thomas Tull
       汉斯·季默 Hans Zimmer
       沃利·菲斯特 Wally Pfister
       李·史密斯 Lee Smith
       约翰·帕帕席德拉 John Papsidera
       盖·亨德里克斯·戴斯 Guy Hendrix Dyas
       卢克·弗里伯恩 Luke Freeborn
       马修·格雷 Matthew Gray
       布拉德·里奇 Brad Ricker
       德安·沃尔科特 Dean Wolcott
       拉里·迪亚斯 Larry Dias
       道格拉斯·A·莫瓦特 Douglas A. Mowat
       杰弗里·库兰 Jeffrey Kurland
       特里·马里奥特 Terry Marriott


◎简  介


  道姆·柯布(莱昂纳多·迪卡普里奥 Leonardo DiCaprio 饰)与同事阿瑟(约瑟夫·戈登-莱维特 Joseph Gordon-Levitt 饰)和纳什(卢卡斯·哈斯 Lukas Haas 饰)在一次针对日本能源大亨齐藤(渡边谦 饰)的盗梦行动中失败,反被齐藤利用。齐藤威逼利诱因遭通缉而流亡海外的柯布帮他拆分他竞争对手的公司,采取极端措施在其唯一继承人罗伯特·费希尔(希里安·墨菲 Cillian Murphy 饰)的深层潜意识中种下放弃家族公司、自立门户的想法。为了重返美国,柯布偷偷求助于岳父迈尔斯(迈克尔·凯恩 Michael Caine 饰),吸收了年轻的梦境设计师艾里阿德妮(艾伦·佩吉 Ellen Page 饰)、梦境演员艾姆斯(汤姆·哈迪 Tom Hardy 饰)和药剂师约瑟夫(迪利普·劳 Dileep Rao 饰)加入行动。在一层层...

Video
ID : 1
ID in the original source medium : 4113 (0x1011)
Format : HEVC
Format/Info : High Efficiency Video Coding
Format profile : Main 10@L5.1@High
HDR format : SMPTE ST 2086, HDR10 compatible
Codec ID : V_MPEGH/ISO/HEVC
Duration : 2 h 28 min
Bit rate : 59.2 Mb/s
Width : 3 840 pixels
Height : 2 160 pixels
Display aspect ratio : 16:9
Frame rate mode : Constant
Frame rate : 23.976 (24000/1001) FPS
Color space : YUV
Chroma subsampling : 4:2:0 (Type 2)
Bit depth : 10 bits
Bits/(Pixel*Frame) : 0.298
Stream size : 61.3 GiB (77%)
Writing library : ATEME Titan File 3.8.3 (4.8.3.0)
Language : English
Default : No
Forced : No
Color range : Limited
Color primaries : BT.2020
Transfer characteristics : PQ
Matrix coefficients : BT.2020 non-constant
Mastering display color primaries : Display P3
Mastering display luminance : min: 0.0050 cd/m2, max: 4000 cd/m2
Maximum Content Light Level : 1538 cd/m2
Maximum Frame-Average Light Level : 308 cd/m2
Original source medium : Blu-ray

Audio #1
ID : 2
ID in the original source medium : 4352 (0x1100)
Format : DTS XLL
Format/Info : Digital Theater Systems
Commercial name : DTS-HD Master Audio
Codec ID : A_DTS
Duration : 2 h 28 min
Bit rate mode : Variable
Bit rate : 3 821 kb/s
Channel(s) : 6 channels
Channel layout : C L R Ls Rs LFE
Sampling rate : 48.0 kHz
Frame rate : 93.750 FPS (512 SPF)
Bit depth : 24 bits
Compression mode : Lossless
Stream size : 3.95 GiB (5%)
Title : DTS-HD MA 5.1
Language : English
Default : Yes
Forced : No
Original source medium : Blu-ray

Audio #2
ID : 3
Format : AC-3
Format/Info : Audio Coding 3
Commercial name : Dolby Digital
Codec ID : A_AC3
Duration : 2 h 28 min
Bit rate mode : Constant
Bit rate : 640 kb/s
Channel(s) : 6 channels
Channel layout : L R C LFE Ls Rs
Sampling rate : 48.0 kHz
Frame rate : 31.250 FPS (1536 SPF)
Compression mode : Lossy
Stream size : 678 MiB (1%)
Title : DD 5.1
Language : English
Service kind : Complete Main
Default : No
Forced : No

Audio #3
ID : 4
ID in the original source medium : 4354 (0x1102)
Format : AC-3
Format/Info : Audio Coding 3
Commercial name : Dolby Digital
Codec ID : A_AC3
Duration : 2 h 28 min
Bit rate mode : Constant
Bit rate : 640 kb/s
Channel(s) : 6 channels
Channel layout : L R C LFE Ls Rs
Sampling rate : 48.0 kHz
Frame rate : 31.250 FPS (1536 SPF)
Compression mode : Lossy
Stream size : 678 MiB (1%)
Title : DD 5.1
Language : English
Service kind : Complete Main
Default : No
Forced : No
Original source medium : Blu-ray

Audio #4
ID : 5
ID in the original source medium : 4355 (0x1103)
Format : AC-3
Format/Info : Audio Coding 3
Commercial name : Dolby Digital
Codec ID : A_AC3
Duration : 2 h 28 min
Bit rate mode : Constant
Bit rate : 640 kb/s
Channel(s) : 6 channels
Channel layout : L R C LFE Ls Rs
Sampling rate : 48.0 kHz
Frame rate : 31.250 FPS (1536 SPF)
Compression mode : Lossy
Stream size : 678 MiB (1%)
Title : DD 5.1
Language : French
Service kind : Complete Main
Default : No
Forced : No
Original source medium : Blu-ray

Audio #5
ID : 6
ID in the original source medium : 4356 (0x1104)
Format : DTS XLL
Format/Info : Digital Theater Systems
Commercial name : DTS-HD Master Audio
Codec ID : A_DTS
Duration : 2 h 28 min
Bit rate mode : Variable
Bit rate : 2 260 kb/s
Channel(s) : 6 channels
Channel layout : C L R Ls Rs LFE
Sampling rate : 48.0 kHz
Frame rate : 93.750 FPS (512 SPF)
Bit depth : 16 bits
Compression mode : Lossless
Stream size : 2.34 GiB (3%)
Title : DTS-HD MA 5.1
Language : French
Default : No
Forced : No
Original source medium : Blu-ray

Audio #6
ID : 7
ID in the original source medium : 4357 (0x1105)
Format : DTS XLL
Format/Info : Digital Theater Systems
Commercial name : DTS-HD Master Audio
Codec ID : A_DTS
Duration : 2 h 28 min
Bit rate mode : Variable
Bit rate : 2 259 kb/s
Channel(s) : 6 channels
Channel layout : C L R Ls Rs LFE
Sampling rate : 48.0 kHz
Frame rate : 93.750 FPS (512 SPF)
Bit depth : 16 bits
Compression mode : Lossless
Stream size : 2.34 GiB (3%)
Title : DTS-HD MA 5.1
Language : German
Default : No
Forced : No
Original source medium : Blu-ray

Audio #7
ID : 8
ID in the original source medium : 4358 (0x1106)
Format : AC-3
Format/Info : Audio Coding 3
Commercial name : Dolby Digital
Codec ID : A_AC3
Duration : 2 h 28 min
Bit rate mode : Constant
Bit rate : 640 kb/s
Channel(s) : 6 channels
Channel layout : L R C LFE Ls Rs
Sampling rate : 48.0 kHz
Frame rate : 31.250 FPS (1536 SPF)
Compression mode : Lossy
Stream size : 678 MiB (1%)
Title : DD 5.1
Language : Italian
Service kind : Complete Main
Default : No
Forced : No
Original source medium : Blu-ray

Audio #8
ID : 9
ID in the original source medium : 4359 (0x1107)
Format : AC-3
Format/Info : Audio Coding 3
Commercial name : Dolby Digital
Codec ID : A_AC3
Duration : 2 h 28 min
Bit rate mode : Constant
Bit rate : 640 kb/s
Channel(s) : 6 channels
Channel layout : L R C LFE Ls Rs
Sampling rate : 48.0 kHz
Frame rate : 31.250 FPS (1536 SPF)
Compression mode : Lossy
Stream size : 678 MiB (1%)
Title : DD 5.1
Language : Spanish
Service kind : Complete Main
Default : No
Forced : No
Original source medium : Blu-ray

Audio #9
ID : 10
ID in the original source medium : 4360 (0x1108)
Format : AC-3
Format/Info : Audio Coding 3
Commercial name : Dolby Digital
Codec ID : A_AC3
Duration : 2 h 28 min
Bit rate mode : Constant
Bit rate : 640 kb/s
Channel(s) : 6 channels
Channel layout : L R C LFE Ls Rs
Sampling rate : 48.0 kHz
Frame rate : 31.250 FPS (1536 SPF)
Compression mode : Lossy
Stream size : 678 MiB (1%)
Title : DD 5.1
Language : Chinese
Service kind : Complete Main
Default : No
Forced : No
Original source medium : Blu-ray

Audio #10
ID : 11
ID in the original source medium : 4361 (0x1109)
Format : AC-3
Format/Info : Audio Coding 3
Commercial name : Dolby Digital
Codec ID : A_AC3
Duration : 2 h 28 min
Bit rate mode : Constant
Bit rate : 640 kb/s
Channel(s) : 6 channels
Channel layout : L R C LFE Ls Rs
Sampling rate : 48.0 kHz
Frame rate : 31.250 FPS (1536 SPF)
Compression mode : Lossy
Stream size : 678 MiB (1%)
Title : DD 5.1
Language : Spanish
Service kind : Complete Main
Default : No
Forced : No
Original source medium : Blu-ray

Audio #11
ID : 12
ID in the original source medium : 4362 (0x110A)
Format : AC-3
Format/Info : Audio Coding 3
Commercial name : Dolby Digital
Codec ID : A_AC3
Duration : 2 h 28 min
Bit rate mode : Constant
Bit rate : 640 kb/s
Channel(s) : 6 channels
Channel layout : L R C LFE Ls Rs
Sampling rate : 48.0 kHz
Frame rate : 31.250 FPS (1536 SPF)
Compression mode : Lossy
Stream size : 678 MiB (1%)
Title : DD 5.1
Language : Portuguese
Service kind : Complete Main
Default : No
Forced : No
Original source medium : Blu-ray

Audio #12
ID : 13
ID in the original source medium : 4363 (0x110B)
Format : AC-3
Format/Info : Audio Coding 3
Commercial name : Dolby Digital
Codec ID : A_AC3
Duration : 2 h 28 min
Bit rate mode : Constant
Bit rate : 640 kb/s
Channel(s) : 6 channels
Channel layout : L R C LFE Ls Rs
Sampling rate : 48.0 kHz
Frame rate : 31.250 FPS (1536 SPF)
Compression mode : Lossy
Stream size : 678 MiB (1%)
Title : DD 5.1
Language : Czech
Service kind : Complete Main
Default : No
Forced : No
Original source medium : Blu-ray

Audio #13
ID : 14
ID in the original source medium : 4364 (0x110C)
Format : AC-3
Format/Info : Audio Coding 3
Commercial name : Dolby Digital
Codec ID : A_AC3
Duration : 2 h 28 min
Bit rate mode : Constant
Bit rate : 640 kb/s
Channel(s) : 6 channels
Channel layout : L R C LFE Ls Rs
Sampling rate : 48.0 kHz
Frame rate : 31.250 FPS (1536 SPF)
Compression mode : Lossy
Stream size : 678 MiB (1%)
Title : DD 5.1
Language : Hungarian
Service kind : Complete Main
Default : No
Forced : No
Original source medium : Blu-ray

Audio #14
ID : 15
ID in the original source medium : 4365 (0x110D)
Format : AC-3
Format/Info : Audio Coding 3
Commercial name : Dolby Digital
Codec ID : A_AC3
Duration : 2 h 28 min
Bit rate mode : Constant
Bit rate : 640 kb/s
Channel(s) : 6 channels
Channel layout : L R C LFE Ls Rs
Sampling rate : 48.0 kHz
Frame rate : 31.250 FPS (1536 SPF)
Compression mode : Lossy
Stream size : 678 MiB (1%)
Title : DD 5.1
Language : Polish
Service kind : Complete Main
Default : No
Forced : No
Original source medium : Blu-ray

Audio #15
ID : 16
ID in the original source medium : 4366 (0x110E)
Format : AC-3
Format/Info : Audio Coding 3
Commercial name : Dolby Digital
Codec ID : A_AC3
Duration : 2 h 28 min
Bit rate mode : Constant
Bit rate : 640 kb/s
Channel(s) : 6 channels
Channel layout : L R C LFE Ls Rs
Sampling rate : 48.0 kHz
Frame rate : 31.250 FPS (1536 SPF)
Compression mode : Lossy
Stream size : 678 MiB (1%)
Title : DD 5.1
Language : Russian
Service kind : Complete Main
Default : No
Forced : No
Original source medium : Blu-ray

Audio #16
ID : 17
ID in the original source medium : 4367 (0x110F)
Format : AC-3
Format/Info : Audio Coding 3
Commercial name : Dolby Digital
Codec ID : A_AC3
Duration : 2 h 28 min
Bit rate mode : Constant
Bit rate : 640 kb/s
Channel(s) : 6 channels
Channel layout : L R C LFE Ls Rs
Sampling rate : 48.0 kHz
Frame rate : 31.250 FPS (1536 SPF)
Compression mode : Lossy
Stream size : 678 MiB (1%)
Title : DD 5.1
Language : Thai
Service kind : Complete Main
Default : No
Forced : No
Original source medium : Blu-ray

Audio #17
ID : 18
ID in the original source medium : 4368 (0x1110)
Format : AC-3
Format/Info : Audio Coding 3
Commercial name : Dolby Digital
Codec ID : A_AC3
Duration : 2 h 28 min
Bit rate mode : Constant
Bit rate : 640 kb/s
Channel(s) : 6 channels
Channel layout : L R C LFE Ls Rs
Sampling rate : 48.0 kHz
Frame rate : 31.250 FPS (1536 SPF)
Compression mode : Lossy
Stream size : 678 MiB (1%)
Title : DD 5.1
Language : Turkish
Service kind : Complete Main
Default : No
Forced : No
Original source medium : Blu-ray

Text #1
ID : 19
Format : UTF-8
Codec ID : S_TEXT/UTF8
Codec ID/Info : UTF-8 Plain Text
Duration : 2 h 19 min
Bit rate : 60 b/s
Frame rate : 0.185 FPS
Count of elements : 1547
Stream size : 61.6 KiB (0%)
Language : English
Default : Yes
Forced : No

Text #2
ID : 20
Format : UTF-8
Codec ID : S_TEXT/UTF8
Codec ID/Info : UTF-8 Plain Text
Duration : 2 h 27 min
Bit rate : 59 b/s
Frame rate : 0.193 FPS
Count of elements : 1704
Stream size : 64.0 KiB (0%)
Title : SDH
Language : English
Default : No
Forced : No

Text #3
ID : 21
ID in the original source medium : 4769 (0x12A1)
Format : PGS
Muxing mode : zlib
Codec ID : S_HDMV/PGS
Codec ID/Info : Picture based subtitle format used on BDs/HD-DVDs
Duration : 2 h 27 min
Bit rate : 32.7 kb/s
Frame rate : 0.394 FPS
Count of elements : 3476
Stream size : 34.4 MiB (0%)
Language : English
Default : No
Forced : No
Original source medium : Blu-ray

Text #4
ID : 22
ID in the original source medium : 4771 (0x12A3)
Format : PGS
Muxing mode : zlib
Codec ID : S_HDMV/PGS
Codec ID/Info : Picture based subtitle format used on BDs/HD-DVDs
Duration : 2 h 26 min
Bit rate : 24.1 kb/s
Frame rate : 0.396 FPS
Count of elements : 3482
Stream size : 25.2 MiB (0%)
Language : French
Default : No
Forced : No
Original source medium : Blu-ray

Text #5
ID : 23
ID in the original source medium : 4771 (0x12A3)
Format : PGS
Muxing mode : zlib
Codec ID : S_HDMV/PGS
Codec ID/Info : Picture based subtitle format used on BDs/HD-DVDs
Duration : 16 s 621 ms
Bit rate : 24.5 kb/s
Frame rate : 0.481 FPS
Count of elements : 8
Stream size : 49.7 KiB (0%)
Language : French
Default : No
Forced : No
Original source medium : Blu-ray

Text #6
ID : 24
ID in the original source medium : 4772 (0x12A4)
Format : PGS
Muxing mode : zlib
Codec ID : S_HDMV/PGS
Codec ID/Info : Picture based subtitle format used on BDs/HD-DVDs
Duration : 2 h 27 min
Bit rate : 39.1 kb/s
Frame rate : 0.411 FPS
Count of elements : 3630
Stream size : 41.1 MiB (0%)
Language : German
Default : No
Forced : No
Original source medium : Blu-ray

Text #7
ID : 25
ID in the original source medium : 4772 (0x12A4)
Format : PGS
Muxing mode : zlib
Codec ID : S_HDMV/PGS
Codec ID/Info : Picture based subtitle format used on BDs/HD-DVDs
Duration : 16 s 496 ms
Bit rate : 26.8 kb/s
Frame rate : 0.485 FPS
Count of elements : 8
Stream size : 54.0 KiB (0%)
Language : German
Default : No
Forced : No
Original source medium : Blu-ray

Text #8
ID : 26
ID in the original source medium : 4773 (0x12A5)
Format : PGS
Muxing mode : zlib
Codec ID : S_HDMV/PGS
Codec ID/Info : Picture based subtitle format used on BDs/HD-DVDs
Duration : 2 h 27 min
Bit rate : 30.3 kb/s
Frame rate : 0.394 FPS
Count of elements : 3480
Stream size : 31.9 MiB (0%)
Language : Italian
Default : No
Forced : No
Original source medium : Blu-ray

Text #9
ID : 27
ID in the original source medium : 4773 (0x12A5)
Format : PGS
Muxing mode : zlib
Codec ID : S_HDMV/PGS
Codec ID/Info : Picture based subtitle format used on BDs/HD-DVDs
Duration : 8 min 27 s
Bit rate : 1 280 b/s
Frame rate : 0.032 FPS
Count of elements : 16
Stream size : 79.4 KiB (0%)
Language : Italian
Default : No
Forced : No
Original source medium : Blu-ray

Text #10
ID : 28
ID in the original source medium : 4774 (0x12A6)
Format : PGS
Muxing mode : zlib
Codec ID : S_HDMV/PGS
Codec ID/Info : Picture based subtitle format used on BDs/HD-DVDs
Duration : 2 h 26 min
Bit rate : 28.5 kb/s
Frame rate : 0.364 FPS
Count of elements : 3201
Stream size : 29.8 MiB (0%)
Language : Spanish
Default : No
Forced : No
Original source medium : Blu-ray

Text #11
ID : 29
ID in the original source medium : 4774 (0x12A6)
Format : PGS
Muxing mode : zlib
Codec ID : S_HDMV/PGS
Codec ID/Info : Picture based subtitle format used on BDs/HD-DVDs
Duration : 16 s 580 ms
Bit rate : 25.7 kb/s
Frame rate : 0.483 FPS
Count of elements : 8
Stream size : 51.9 KiB (0%)
Language : Spanish
Default : No
Forced : No
Original source medium : Blu-ray

Text #12
ID : 30
ID in the original source medium : 4775 (0x12A7)
Format : PGS
Muxing mode : zlib
Codec ID : S_HDMV/PGS
Codec ID/Info : Picture based subtitle format used on BDs/HD-DVDs
Duration : 2 h 26 min
Bit rate : 25.2 kb/s
Frame rate : 0.311 FPS
Count of elements : 2734
Stream size : 26.4 MiB (0%)
Language : Dutch
Default : No
Forced : No
Original source medium : Blu-ray

Text #13
ID : 31
ID in the original source medium : 4776 (0x12A8)
Format : PGS
Muxing mode : zlib
Codec ID : S_HDMV/PGS
Codec ID/Info : Picture based subtitle format used on BDs/HD-DVDs
Duration : 2 h 26 min
Bit rate : 25.2 kb/s
Frame rate : 0.409 FPS
Count of elements : 3593
Stream size : 26.3 MiB (0%)
Language : 粤语中字
Default : No
Forced : No
Original source medium : Blu-ray

Text #14
ID : 32
ID in the original source medium : 4777 (0x12A9)
Format : PGS
Muxing mode : zlib
Codec ID : S_HDMV/PGS
Codec ID/Info : Picture based subtitle format used on BDs/HD-DVDs
Duration : 2 h 26 min
Bit rate : 27.5 kb/s
Frame rate : 0.379 FPS
Count of elements : 3332
Stream size : 28.8 MiB (0%)
Language : 简体中字
Default : No
Forced : No
Original source medium : Blu-ray

Text #15
ID : 33
ID in the original source medium : 4778 (0x12AA)
Format : PGS
Muxing mode : zlib
Codec ID : S_HDMV/PGS
Codec ID/Info : Picture based subtitle format used on BDs/HD-DVDs
Duration : 2 h 26 min
Bit rate : 22.2 kb/s
Frame rate : 0.369 FPS
Count of elements : 3245
Stream size : 23.3 MiB (0%)
Language : 繁体中字
Default : No
Forced : No
Original source medium : Blu-ray

Text #16
ID : 34
ID in the original source medium : 4779 (0x12AB)
Format : PGS
Muxing mode : zlib
Codec ID : S_HDMV/PGS
Codec ID/Info : Picture based subtitle format used on BDs/HD-DVDs
Duration : 2 h 26 min
Bit rate : 18.4 kb/s
Frame rate : 0.353 FPS
Count of elements : 3099
Stream size : 19.3 MiB (0%)
Language : Korean
Default : No
Forced : No
Original source medium : Blu-ray

Text #17
ID : 35
ID in the original source medium : 4780 (0x12AC)
Format : PGS
Muxing mode : zlib
Codec ID : S_HDMV/PGS
Codec ID/Info : Picture based subtitle format used on BDs/HD-DVDs
Duration : 2 h 26 min
Bit rate : 27.0 kb/s
Frame rate : 0.353 FPS
Count of elements : 3102
Stream size : 28.3 MiB (0%)
Language : Spanish
Default : No
Forced : No
Original source medium : Blu-ray

Text #18
ID : 36
ID in the original source medium : 4780 (0x12AC)
Format : PGS
Muxing mode : zlib
Codec ID : S_HDMV/PGS
Codec ID/Info : Picture based subtitle format used on BDs/HD-DVDs
Duration : 18 s 601 ms
Bit rate : 24.3 kb/s
Frame rate : 0.538 FPS
Count of elements : 10
Stream size : 55.3 KiB (0%)
Language : Spanish
Default : No
Forced : No
Original source medium : Blu-ray

Text #19
ID : 37
ID in the original source medium : 4781 (0x12AD)
Format : PGS
Muxing mode : zlib
Codec ID : S_HDMV/PGS
Codec ID/Info : Picture based subtitle format used on BDs/HD-DVDs
Duration : 2 h 26 min
Bit rate : 29.2 kb/s
Frame rate : 0.365 FPS
Count of elements : 3205
Stream size : 30.6 MiB (0%)
Language : Portuguese
Default : No
Forced : No
Original source medium : Blu-ray

Text #20
ID : 38
ID in the original source medium : 4781 (0x12AD)
Format : PGS
Muxing mode : zlib
Codec ID : S_HDMV/PGS
Codec ID/Info : Picture based subtitle format used on BDs/HD-DVDs
Duration : 19 s 561 ms
Bit rate : 51.8 kb/s
Frame rate : 0.818 FPS
Count of elements : 16
Stream size : 124 KiB (0%)
Language : Portuguese
Default : No
Forced : No
Original source medium : Blu-ray

Text #21
ID : 39
ID in the original source medium : 4782 (0x12AE)
Format : PGS
Muxing mode : zlib
Codec ID : S_HDMV/PGS
Codec ID/Info : Picture based subtitle format used on BDs/HD-DVDs
Duration : 2 h 26 min
Bit rate : 15.0 kb/s
Frame rate : 0.379 FPS
Count of elements : 3328
Stream size : 15.7 MiB (0%)
Language : Arabic
Default : No
Forced : No
Original source medium : Blu-ray

Text #22
ID : 40
ID in the original source medium : 4783 (0x12AF)
Format : PGS
Muxing mode : zlib
Codec ID : S_HDMV/PGS
Codec ID/Info : Picture based subtitle format used on BDs/HD-DVDs
Duration : 2 h 26 min
Bit rate : 27.6 kb/s
Frame rate : 0.353 FPS
Count of elements : 3105
Stream size : 28.9 MiB (0%)
Language : Croatian
Default : No
Forced : No
Original source medium : Blu-ray

Text #23
ID : 41
ID in the original source medium : 4784 (0x12B0)
Format : PGS
Muxing mode : zlib
Codec ID : S_HDMV/PGS
Codec ID/Info : Picture based subtitle format used on BDs/HD-DVDs
Duration : 2 h 26 min
Bit rate : 22.5 kb/s
Frame rate : 0.290 FPS
Count of elements : 2549
Stream size : 23.6 MiB (0%)
Language : Czech
Default : No
Forced : No
Original source medium : Blu-ray

Text #24
ID : 42
ID in the original source medium : 4784 (0x12B0)
Format : PGS
Muxing mode : zlib
Codec ID : S_HDMV/PGS
Codec ID/Info : Picture based subtitle format used on BDs/HD-DVDs
Duration : 8 min 27 s
Bit rate : 851 b/s
Frame rate : 0.028 FPS
Count of elements : 14
Stream size : 52.7 KiB (0%)
Language : Czech
Default : No
Forced : No
Original source medium : Blu-ray

Text #25
ID : 43
ID in the original source medium : 4785 (0x12B1)
Format : PGS
Muxing mode : zlib
Codec ID : S_HDMV/PGS
Codec ID/Info : Picture based subtitle format used on BDs/HD-DVDs
Duration : 2 h 26 min
Bit rate : 24.4 kb/s
Frame rate : 0.288 FPS
Count of elements : 2526
Stream size : 25.5 MiB (0%)
Language : Danish
Default : No
Forced : No
Original source medium : Blu-ray

Text #26
ID : 44
ID in the original source medium : 4786 (0x12B2)
Format : PGS
Muxing mode : zlib
Codec ID : S_HDMV/PGS
Codec ID/Info : Picture based subtitle format used on BDs/HD-DVDs
Duration : 2 h 26 min
Bit rate : 29.3 kb/s
Frame rate : 0.314 FPS
Count of elements : 2762
Stream size : 30.7 MiB (0%)
Language : Finnish
Default : No
Forced : No
Original source medium : Blu-ray

Text #27
ID : 45
ID in the original source medium : 4787 (0x12B3)
Format : PGS
Muxing mode : zlib
Codec ID : S_HDMV/PGS
Codec ID/Info : Picture based subtitle format used on BDs/HD-DVDs
Duration : 2 h 26 min
Bit rate : 27.8 kb/s
Frame rate : 0.361 FPS
Count of elements : 3172
Stream size : 29.1 MiB (0%)
Language : Greek
Default : No
Forced : No
Original source medium : Blu-ray

Text #28
ID : 46
ID in the original source medium : 4788 (0x12B4)
Format : PGS
Muxing mode : zlib
Codec ID : S_HDMV/PGS
Codec ID/Info : Picture based subtitle format used on BDs/HD-DVDs
Duration : 2 h 26 min
Bit rate : 22.4 kb/s
Frame rate : 0.367 FPS
Count of elements : 3224
Stream size : 23.5 MiB (0%)
Language : Hebrew
Default : No
Forced : No
Original source medium : Blu-ray

Text #29
ID : 47
ID in the original source medium : 4789 (0x12B5)
Format : PGS
Muxing mode : zlib
Codec ID : S_HDMV/PGS
Codec ID/Info : Picture based subtitle format used on BDs/HD-DVDs
Duration : 2 h 26 min
Bit rate : 25.5 kb/s
Frame rate : 0.349 FPS
Count of elements : 3069
Stream size : 26.7 MiB (0%)
Language : Hungarian
Default : No
Forced : No
Original source medium : Blu-ray

Text #30
ID : 48
ID in the original source medium : 4789 (0x12B5)
Format : PGS
Muxing mode : zlib
Codec ID : S_HDMV/PGS
Codec ID/Info : Picture based subtitle format used on BDs/HD-DVDs
Duration : 16 s 580 ms
Bit rate : 25.9 kb/s
Frame rate : 0.483 FPS
Count of elements : 8
Stream size : 52.5 KiB (0%)
Language : Hungarian
Default : No
Forced : No
Original source medium : Blu-ray

Text #31
ID : 49
ID in the original source medium : 4790 (0x12B6)
Format : PGS
Muxing mode : zlib
Codec ID : S_HDMV/PGS
Codec ID/Info : Picture based subtitle format used on BDs/HD-DVDs
Duration : 2 h 26 min
Bit rate : 25.8 kb/s
Frame rate : 0.358 FPS
Count of elements : 3142
Stream size : 27.0 MiB (0%)
Language : Norwegian
Default : No
Forced : No
Original source medium : Blu-ray

Text #32
ID : 50
ID in the original source medium : 4791 (0x12B7)
Format : PGS
Muxing mode : zlib
Codec ID : S_HDMV/PGS
Codec ID/Info : Picture based subtitle format used on BDs/HD-DVDs
Duration : 2 h 26 min
Bit rate : 24.1 kb/s
Frame rate : 0.341 FPS
Count of elements : 2993
Stream size : 25.3 MiB (0%)
Language : Polish
Default : No
Forced : No
Original source medium : Blu-ray

Text #33
ID : 51
ID in the original source medium : 4792 (0x12B8)
Format : PGS
Muxing mode : zlib
Codec ID : S_HDMV/PGS
Codec ID/Info : Picture based subtitle format used on BDs/HD-DVDs
Duration : 2 h 26 min
Bit rate : 29.7 kb/s
Frame rate : 0.351 FPS
Count of elements : 3081
Stream size : 31.1 MiB (0%)
Language : Portuguese
Default : No
Forced : No
Original source medium : Blu-ray

Text #34
ID : 52
ID in the original source medium : 4793 (0x12B9)
Format : PGS
Muxing mode : zlib
Codec ID : S_HDMV/PGS
Codec ID/Info : Picture based subtitle format used on BDs/HD-DVDs
Duration : 2 h 26 min
Bit rate : 27.1 kb/s
Frame rate : 0.358 FPS
Count of elements : 3141
Stream size : 28.4 MiB (0%)
Language : Romanian
Default : No
Forced : No
Original source medium : Blu-ray

Text #35
ID : 53
ID in the original source medium : 4794 (0x12BA)
Format : PGS
Muxing mode : zlib
Codec ID : S_HDMV/PGS
Codec ID/Info : Picture based subtitle format used on BDs/HD-DVDs
Duration : 2 h 26 min
Bit rate : 28.5 kb/s
Frame rate : 0.367 FPS
Count of elements : 3227
Stream size : 29.9 MiB (0%)
Language : Russian
Default : No
Forced : No
Original source medium : Blu-ray

Text #36
ID : 54
ID in the original source medium : 4794 (0x12BA)
Format : PGS
Muxing mode : zlib
Codec ID : S_HDMV/PGS
Codec ID/Info : Picture based subtitle format used on BDs/HD-DVDs
Duration : 2 h 9 min
Bit rate : 86 b/s
Frame rate : 0.002 FPS
Count of elements : 14
Stream size : 82.1 KiB (0%)
Language : Russian
Default : No
Forced : No
Original source medium : Blu-ray

Text #37
ID : 55
ID in the original source medium : 4795 (0x12BB)
Format : PGS
Muxing mode : zlib
Codec ID : S_HDMV/PGS
Codec ID/Info : Picture based subtitle format used on BDs/HD-DVDs
Duration : 2 h 26 min
Bit rate : 26.1 kb/s
Frame rate : 0.348 FPS
Count of elements : 3060
Stream size : 27.3 MiB (0%)
Language : Swedish
Default : No
Forced : No
Original source medium : Blu-ray

Text #38
ID : 56
ID in the original source medium : 4796 (0x12BC)
Format : PGS
Muxing mode : zlib
Codec ID : S_HDMV/PGS
Codec ID/Info : Picture based subtitle format used on BDs/HD-DVDs
Duration : 2 h 26 min
Bit rate : 26.8 kb/s
Frame rate : 0.363 FPS
Count of elements : 3185
Stream size : 28.0 MiB (0%)
Language : Thai
Default : No
Forced : No
Original source medium : Blu-ray

Text #39
ID : 57
ID in the original source medium : 4797 (0x12BD)
Format : PGS
Muxing mode : zlib
Codec ID : S_HDMV/PGS
Codec ID/Info : Picture based subtitle format used on BDs/HD-DVDs
Duration : 2 h 26 min
Bit rate : 28.2 kb/s
Frame rate : 0.359 FPS
Count of elements : 3156
Stream size : 29.6 MiB (0%)
Language : Turkish
Default : No
Forced : No
Original source medium : Blu-ray

Text #40
ID : 58
ID in the original source medium : 4797 (0x12BD)
Format : PGS
Muxing mode : zlib
Codec ID : S_HDMV/PGS
Codec ID/Info : Picture based subtitle format used on BDs/HD-DVDs
Duration : 2 h 17 min
Bit rate : 135 b/s
Frame rate : 0.002 FPS
Count of elements : 20
Stream size : 137 KiB (0%)
Language : Turkish
Default : No
Forced : No
Original source medium : Blu-ray

Menu
00:00:00.000 : en:Chapter 01
00:11:41.701 : en:Chapter 02
00:21:37.296 : en:Chapter 03
00:31:20.295 : en:Chapter 04
00:41:21.979 : en:Chapter 05
00:51:13.695 : en:Chapter 06
01:01:21.511 : en:Chapter 07
01:10:29.600 : en:Chapter 08
01:22:15.555 : en:Chapter 09
01:31:52.465 : en:Chapter 10
01:40:38.490 : en:Chapter 11
01:51:22.133 : en:Chapter 12
02:00:54.372 : en:Chapter 13
02:10:08.717 : en:Chapter 14
02:20:55.447 : en:Chapter 15


新种推荐使用qBittorrent、uTorrent、BitComet等下载软件,有条件的推荐115更好的下载软件!

盗梦空间(79.56GB)Inception.2010.PROPER.2160p.BluRay.REMUX.HEVC.DTS-HD.MA.5.1-FGT
游客,如果您要查看本帖隐藏内容请回复





4K海报.gif

上一篇:小精灵[简繁中字] / Gremlins (1984) 4K蓝光REMUX版本下载
下一篇:荒野浪子 / High Plains Drifter (1973) 4K蓝光[原盘+REMUX]版本下载
回复

使用道具 举报

0

主题

3

帖子

12

积分

新手上路

Rank: 1

积分
12
发表于 2022-11-17 21:53:23 | 显示全部楼层
谢谢老板
回复

使用道具 举报

0

主题

6

帖子

24

积分

新手上路

Rank: 1

积分
24
发表于 2022-11-18 19:50:49 | 显示全部楼层
感恩的心   感谢有你!!!
回复 支持 反对

使用道具 举报

主题

帖子

0

积分

新手上路

Rank: 1

积分
0
发表于 2022-11-18 22:22:41 | 显示全部楼层
感谢分享!!!
回复

使用道具 举报

0

主题

1

帖子

6

积分

新手上路

Rank: 1

积分
6
发表于 2022-11-19 00:04:16 来自手机 | 显示全部楼层
感谢分享
回复

使用道具 举报

主题

帖子

0

积分

新手上路

Rank: 1

积分
0
发表于 2022-11-19 09:22:35 | 显示全部楼层
ddddddddddddd
回复 支持 反对

使用道具 举报

0

主题

1

帖子

6

积分

新手上路

Rank: 1

积分
6
发表于 2022-11-19 19:59:27 来自手机 | 显示全部楼层
感谢
回复

使用道具 举报

0

主题

1

帖子

6

积分

新手上路

Rank: 1

积分
6
发表于 5 天前 | 显示全部楼层
666666666666
回复 支持 反对

使用道具 举报

您需要登录后才可以回帖 登录 | 立即注册

本版积分规则

精彩图文
Archiver|手机版|TAG|Sitemap|新帖|专题|联系我们:邮箱: 4kjia.com@gmail.com   

4k家园   ©2019