[4K电影] 兰博基尼:传奇 / Lamborghini: The Legend (2022)4K高清版本下载

[复制链接]

主题

帖子

0

积分

超级版主

Rank: 8Rank: 8

积分
0
 楼主| 发表于 2022-11-18 15:14:10 | 显示全部楼层 |阅读模式
本帖最后由 最爱4K哟 于 2022-11-19 21:17 编辑

兰博基尼.png

◎译  名 兰博基尼:传奇 / Lamborghini: The Legend
◎片  名 Lamborghini
◎年  代 2022
◎产  地 意大利
◎类  别 剧情 / 传记
◎语  言 英语
◎上映日期 2022-11-18(意大利)
◎IMDb评分 0/10 from 0users
◎IMDb链接 https://www.imdb.com/title/tt5533370/
◎豆瓣评分 0/10 from 0users
◎豆瓣链接 https://movie.douban.com/subject/26698891/
◎片  长 123分钟
◎导  演 罗伯特·莫里斯克 Robert Moresco
◎编  剧 罗伯特·莫里斯克 Robert Moresco
◎演  员 弗兰克·格里罗 Frank Grillo
       米拉·索维诺 Mira Sorvino
       加布里埃尔·伯恩 Gabriel Byrne
       伊莲娜·琼斯 Eliana Jones
       汉娜·范·德尔·韦斯特哈森 Hannah van der Westhuysen
       乔治·坎塔里尼 Giorgio Cantarini
       弗朗西斯卡·蒂扎诺 Francesca Tizzano
       福图纳多 塞林诺 Fortunato Cerlino
       莱昂纳多·捷克 Leonardo Cecchi
       埃玛·科瓦奇 Ema Kovac
       罗曼诺·雷吉亚尼 Romano Reggiani
       洛瑞斯·洛迪 Loris Loddi
       莱昂纳多·萨莱尼 Leonardo Salerni
       乔治·帕格利亚奇 Giorgia Pagliacci
       弗朗切斯卡·德·马提尼 Francesca De Martini
       吉安·弗朗哥·托尔迪 Gian Franco Tordi
       Elles Case Elles Case
       Chiara Primavesi Chiara Primavesi
       安德烈亚·布鲁斯基 Andrea Bruschi
       Paola Marchesin Paola Marchesin
       Akiko Kusayanagi Akiko Kusayanagi

◎简  介

  继法拉利之后,又一位意大利汽车业大亨的生平故事将被搬上银幕,他就是费鲁齐欧·兰博基尼(Ferruccio Lamborghini)。
这部影片暂名为《兰博基尼:传奇》(Lamborghini – The Legend),由前段时间刚刚去宣布将重拍诺兰《记忆碎片》(Memento)的AMBI集团制作。影片将涵盖兰博基尼的整个人生,包括他二战中当空军机械师的经历、制造拖拉机起家,直至最后弄出了兰博基尼跑车。当然,这部影片并不仅仅关于汽车、机器,也会展现鲜为人知的兰博基尼的私人生活,比如他名人般的生活方式和动人的爱情故事。
《兰博基尼:传奇》将于明年夏天在意大利开机,之后还将到世界各地取景。

Video
ID : 1
Format : HEVC
Format/Info : High Efficiency Video Coding
Format profile : Main 10@L5@High
Codec ID : V_MPEGH/ISO/HEVC
Duration : 1 h 36 min
Bit rate : 11.7 Mb/s
Width : 3 832 pixels
Height : 1 596 pixels
Display aspect ratio : 2.40:1
Frame rate mode : Constant
Frame rate : 23.976 (24000/1001) FPS
Color space : YUV
Chroma subsampling : 4:2:0
Bit depth : 10 bits
Bits/(Pixel*Frame) : 0.080
Stream size : 7.87 GiB (95%)
Language : English
Default : Yes
Forced : No
Color range : Limited
Color primaries : BT.709
Transfer characteristics : BT.709
Matrix coefficients : BT.709

Audio
ID : 2
Format : AC-3
Format/Info : Audio Coding 3
Commercial name : Dolby Digital
Codec ID : A_AC3
Duration : 1 h 36 min
Bit rate mode : Constant
Bit rate : 384 kb/s
Channel(s) : 6 channels
Channel layout : L R C LFE Ls Rs
Sampling rate : 48.0 kHz
Frame rate : 31.250 FPS (1536 SPF)
Compression mode : Lossy
Stream size : 265 MiB (3%)
Language : English
Service kind : Complete Main
Default : Yes
Forced : No

Text #1
ID : 3
Format : UTF-8
Codec ID : S_TEXT/UTF8
Codec ID/Info : UTF-8 Plain Text
Title : English
Language : English
Default : No
Forced : No

Text #2
ID : 4
Format : UTF-8
Codec ID : S_TEXT/UTF8
Codec ID/Info : UTF-8 Plain Text
Title : English
Language : English
Default : No
Forced : No

推荐使用qBittorrent、uTorrent、BitComet等下载软件,有条件的推荐115或会员软件下载!

下载地址

游客,如果您要查看本帖隐藏内容请回复








上一篇:热情洋溢 [简繁粤中字] / Spirited (2022) 4K高清版本下载
下一篇:魔法奇缘2:解除魔法[简繁粤中字] (2022)4K高清版本下载
回复

使用道具 举报

0

主题

3

帖子

12

积分

新手上路

Rank: 1

积分
12
发表于 2022-11-18 16:13:14 | 显示全部楼层
谢谢分享顶起来
回复 支持 反对

使用道具 举报

0

主题

1

帖子

6

积分

新手上路

Rank: 1

积分
6
发表于 2022-11-18 16:40:53 | 显示全部楼层
谢谢分享
回复

使用道具 举报

0

主题

5

帖子

18

积分

新手上路

Rank: 1

积分
18
发表于 2022-11-18 18:03:58 来自手机 | 显示全部楼层
谢谢分享
回复

使用道具 举报

0

主题

2

帖子

12

积分

新手上路

Rank: 1

积分
12
发表于 2022-11-18 19:49:34 | 显示全部楼层

谢谢分享
回复

使用道具 举报

主题

帖子

0

积分

新手上路

Rank: 1

积分
0
发表于 2022-11-18 20:38:13 | 显示全部楼层
谢谢楼主分享
回复 支持 反对

使用道具 举报

主题

帖子

0

积分

新手上路

Rank: 1

积分
0
发表于 2022-11-18 22:10:23 | 显示全部楼层
楼主v587,顶起来xdm
回复 支持 反对

使用道具 举报

0

主题

158

帖子

835

积分

4K家园VIP

Rank: 9Rank: 9Rank: 9

积分
835
发表于 2022-11-19 22:41:12 | 显示全部楼层
楼主辛苦了,谢谢楼主,感谢楼主分享,楼主好人一生平安!!!
回复 支持 反对

使用道具 举报

0

主题

2

帖子

9

积分

新手上路

Rank: 1

积分
9
发表于 4 天前 来自手机 | 显示全部楼层
kkk谢谢谢谢谢谢
回复 支持 反对

使用道具 举报

0

主题

2

帖子

9

积分

新手上路

Rank: 1

积分
9
发表于 4 天前 来自手机 | 显示全部楼层
快看快看我我我先
回复 支持 反对

使用道具 举报

您需要登录后才可以回帖 登录 | 立即注册

本版积分规则

精彩图文
Archiver|手机版|TAG|Sitemap|新帖|专题|联系我们:邮箱: 4kjia.com@gmail.com   

4k家园   ©2019