[4K UHD 蓝光原盘] 【首发】最后的武士(DIY简繁中字] (1997) 4K蓝光REMUX版本下载

[复制链接]

主题

帖子

0

积分

超级版主

Rank: 8Rank: 8

积分
0
 楼主| 发表于 2022-11-20 11:34:00 | 显示全部楼层 |阅读模式
本帖最后由 没完没了 于 2022-11-20 11:38 编辑

最后的武士.png

◎标  题 最后的武士
◎译  名 最后武士(港) / 末代武士(台) / The Last Samurai: Bushidou
◎片  名 The Last Samurai
◎年  代 2003
◎产  地 美国 / 新西兰 / 日本
◎类  别 剧情 / 动作 / 历史 / 战争 / 冒险
◎语  言 英语 / 日语
◎上映日期 2003-12-05
◎IMDb评分 7.8/10 from 441469 users 更新 : 2022-11-16
◎IMDb链接 https://www.imdb.com/title/tt0325710/
◎豆瓣评分 7.9/10 (74540 users 更新 : 2022-11-18
◎豆瓣链接 https://movie.douban.com/subject/1299383/
◎片  长 154 分钟
◎导  演 爱德华·兹威克 Edward Zwick
◎编  剧 约翰·洛根 John Logan / 爱德华·兹威克 Edward Zwick / 马歇尔·赫斯科维兹 Marshall Herskovitz
◎演  员 汤姆·克鲁斯 Tom Cruise
       渡边谦 Ken Watanabe
       蒂莫西·斯波 Timothy Spall
       比利·康诺利 Billy Connolly
       托尼·戈德温 Tony Goldwyn
       真田广之 Hiroyuki Sanada
       小雪 Koyuki
       原田真人 Masato Harada
       威廉·阿瑟东 William Atherton
       二阶堂智 Satoshi Nikaido
       中村七之助 Shichinosuke Nakamura
       沙恩·科苏奇 Shane Kosugi
       约翰·科耶马 John Koyama
       大立雅史 Masashi Odate
       查德·林德伯格 Chad Lindberg
       斯科特·威尔森 Scott Wilson
       松崎悠希 Yuki Matsuzaki
       池松壮亮 Sosuke Ikematsu
       福本清三 Seizo Fukumoto
       伊川东吾 Togo Igawa
       菅田俊 Shun Sugata
       小山田新 Shin Koyamada
       张鹏 Peng Zhang


◎简  介


    美国内战结束的十年后,当年的南北战争英雄纳森(汤姆•克鲁斯 Tom Cruise)因无所事事而终日酗酒。一次偶然的机会,他结识了来美做生意的日本商人。纳森的彪炳战绩令对方刮目相看。此时正值明治维新时期,日本天皇意欲训练一支现代化的作战部队,于是纳森被请到了日本。   日本很多武士都不欢迎纳森的到来,他们坚决不肯抛弃传统的武士道精神,对将武士西化十分反感。他们在首领乌吉奥(真田广之 饰)的带领下举刀起义,躲到了一条偏僻的小山村自立为政。天皇大怒,派纳森率领他训练出来的现代化军队去围剿叛变武士。岂料皇军全军覆没,纳森亦成为了阶下囚……

General
Complete name                  : D:\DIY简繁4K蓝光REMUX\[4Kjia小组压制分享]最后的武士[DIY简繁中字] Last Samurai, The.2160p .BluRay.REMUX.AI_UPSCALE_3840x2160_SDR_Final_ALANG
Format                         : Matroska
Format version                 : Version 4
File size                      : 68.9 GiB
Duration                       : 2 h 34 min
Overall bit rate mode          : Variable
Overall bit rate               : 64.0 Mb/s
Encoded date                   : UTC 2022-11-18 06:03:27
Writing application            : mkvmerge v68.0.0 ('The Curtain') 64-bit
Writing library                : libebml v1.4.2 + libmatroska v1.6.4

Video
ID                             : 1
Format                         : HEVC
Format/Info                    : High Efficiency Video Coding
Format profile                 : Main@L5.2@Main
Codec ID                       : V_MPEGH/ISO/HEVC
Duration                       : 2 h 34 min
Bit rate                       : 61.7 Mb/s
Width                          : 3 840 pixels
Height                         : 2 160 pixels
Display aspect ratio           : 16:9
Frame rate mode                : Constant
Frame rate                     : 23.976 (24000/1001) FPS
Color space                    : YUV
Chroma subsampling             : 4:2:0
Bit depth                      : 8 bits
Bits/(Pixel*Frame)             : 0.310
Stream size                    : 66.5 GiB (96%)
Language                       : English
Default                        : Yes
Forced                         : No

Audio #1
ID                             : 2
Format                         : MLP FBA
Format/Info                    : Meridian Lossless Packing FBA
Commercial name                : Dolby TrueHD
Codec ID                       : A_TRUEHD
Duration                       : 2 h 34 min
Bit rate mode                  : Variable
Bit rate                       : 1 367 kb/s
Maximum bit rate               : 3 168 kb/s
Channel(s)                     : 6 channels
Channel layout                 : L R C LFE Ls Rs
Sampling rate                  : 48.0 kHz
Frame rate                     : 1 200.000 FPS (40 SPF)
Compression mode               : Lossless
Stream size                    : 1.47 GiB (2%)
Language                       : English
Default                        : No
Forced                         : No

Audio #2
ID                             : 3
Format                         : AC-3
Format/Info                    : Audio Coding 3
Commercial name                : Dolby Digital
Codec ID                       : A_AC3
Duration                       : 2 h 34 min
Bit rate mode                  : Constant
Bit rate                       : 640 kb/s
Channel(s)                     : 6 channels
Channel layout                 : L R C LFE Ls Rs
Sampling rate                  : 48.0 kHz
Frame rate                     : 31.250 FPS (1536 SPF)
Compression mode               : Lossy
Stream size                    : 706 MiB (1%)
Language                       : English
Service kind                   : Complete Main
Default                        : No
Forced                         : No

Audio #3
ID                             : 4
Format                         : AC-3
Format/Info                    : Audio Coding 3
Commercial name                : Dolby Digital
Format settings                : Dolby Surround
Codec ID                       : A_AC3
Duration                       : 2 h 34 min
Bit rate mode                  : Constant
Bit rate                       : 192 kb/s
Channel(s)                     : 2 channels
Channel layout                 : L R
Sampling rate                  : 48.0 kHz
Frame rate                     : 31.250 FPS (1536 SPF)
Compression mode               : Lossy
Stream size                    : 212 MiB (0%)
Language                       : English
Service kind                   : Complete Main
Default                        : No
Forced                         : No

Text #1
ID                             : 5
Format                         : PGS
Muxing mode                    : zlib
Codec ID                       : S_HDMV/PGS
Codec ID/Info                  : Picture based subtitle format used on BDs/HD-DVDs
Duration                       : 2 h 33 min
Bit rate                       : 22.1 kb/s
Frame rate                     : 0.159 FPS
Count of elements              : 1466
Stream size                    : 24.3 MiB (0%)
Language                       : English
Default                        : No
Forced                         : No

Text #2
ID                             : 6
Format                         : PGS
Muxing mode                    : zlib
Codec ID                       : S_HDMV/PGS
Codec ID/Info                  : Picture based subtitle format used on BDs/HD-DVDs
Duration                       : 2 h 33 min
Bit rate                       : 26.9 kb/s
Frame rate                     : 0.201 FPS
Count of elements              : 1852
Stream size                    : 29.6 MiB (0%)
Language                       : English
Default                        : No
Forced                         : No

Text #3
ID                             : 7
Format                         : ASS
Codec ID                       : S_TEXT/ASS
Codec ID/Info                  : Advanced Sub Station Alpha
Duration                       : 2 h 25 min
Bit rate                       : 86 b/s
Frame rate                     : 0.107 FPS
Count of elements              : 934
Compression mode               : Lossless
Stream size                    : 92.5 KiB (0%)
Title                          : 繁体中字&英文
Language                       : Chinese
Default                        : Yes
Forced                         : No

Text #4
ID                             : 8
Format                         : ASS
Codec ID                       : S_TEXT/ASS
Codec ID/Info                  : Advanced Sub Station Alpha
Duration                       : 2 h 25 min
Bit rate                       : 86 b/s
Frame rate                     : 0.107 FPS
Count of elements              : 934
Compression mode               : Lossless
Stream size                    : 92.5 KiB (0%)
Title                          : 简体中字&英文
Language                       : Chinese
Default                        : Yes
Forced                         : No

小水管制作不易,建议用qBittorrent、uTorrent、BitComet等下载软件挂机下载或使用会员,谢谢!

最后的武士1_副本.png [4Kjia小组压制分享]最后的武士(68.92GB)[DIY简繁中字] Last Samurai, The.2160p .BluRay.REMUX.AI_UPSCALE_SDR_Final_ALANG-【2160P蓝光REMUX】
游客,如果您要查看本帖隐藏内容请回复





4K海报.gif

上一篇:盐湖城朋克 / SLC Punk! (1998) 4K蓝光[原盘+REMUX]版本下载
下一篇:神秘兵团 / Mystery Men (1999) 4K蓝光[原盘+REMUX]版本下载
回复

使用道具 举报

主题

帖子

0

积分

超级版主

Rank: 8Rank: 8

积分
0
 楼主| 发表于 2022-11-20 11:57:43 | 显示全部楼层
QQ图片20221120114311.png QQ图片20221120114349.png QQ图片20221120114202.png QQ图片20221120114532.png QQ图片20221120114827.png QQ图片20221120114908.png QQ图片20221120114944.png QQ图片20221120115125.png QQ图片20221120115224.png QQ图片20221120115346.png
回复 支持 反对

使用道具 举报

0

主题

1

帖子

9

积分

新手上路

Rank: 1

积分
9
发表于 2022-11-20 17:36:14 | 显示全部楼层
谢谢楼主!!!!
回复

使用道具 举报

0

主题

2

帖子

12

积分

新手上路

Rank: 1

积分
12
发表于 2022-11-21 07:42:15 | 显示全部楼层
没看过这片
回复 支持 反对

使用道具 举报

您需要登录后才可以回帖 登录 | 立即注册

本版积分规则

精彩图文
Archiver|手机版|TAG|Sitemap|新帖|专题|联系我们:邮箱: 4kjia.com@gmail.com   

4k家园   ©2019