[4K电影] 神之造物 / God's Creatures (2022) 4K高清版本下载

[复制链接]

主题

帖子

0

积分

超级版主

Rank: 8Rank: 8

积分
0
 楼主| 发表于 2022-11-19 11:44:34 | 显示全部楼层 |阅读模式
本帖最后由 最爱4K哟 于 2022-11-19 11:47 编辑

QQ图片20221119111707_副本.png

◎标  题 神之造物
◎片  名 God's Creatures
◎年  代 2022
◎产  地 爱尔兰 / 英国 / 美国
◎类  别 剧情
◎语  言 英语
◎上映日期 2022-05-19(戛纳电影节) / 2022-09-30(美国)
◎IMDb评分 5.8/10 from 1080 users 更新 : 2022-11-16
◎IMDb链接 https://www.imdb.com/title/tt10375396/
◎豆瓣评分 5.5/10 from 89 users 更新 : 2022-11-19
◎豆瓣链接 https://movie.douban.com/subject/35453487/
◎导  演 萨拉·戴维斯 Saela Davis / 安娜·罗斯·霍尔默 Anna Rose Holmer
◎编  剧 福德拉·克罗宁·奥赖利 Fodhla Cronin O'Reilly
◎演  员 艾米丽·沃森 Emily Watson
       保罗·麦斯卡 Paul Mescal
       艾斯琳·弗兰乔茜 Aisling Franciosi
       戴克兰·康仑 Declan Conlon
       马里昂·奥德怀尔 Marion O'Dwyer
       布伦丹·麦科马克 Brendan McCormack
       安德鲁·班尼特 Andrew Bennett
       斯蒂夫·根恩 Steve Gunn
       利厄·明托 Leah Minto
       恩达·奥茨 Enda Oates
       莱勒·罗迪 Lalor Roddy
       塞恩·T·米莱 Seán T. Ó Meallaigh
       蔡斯·欧文 Chayse Irvin
       琼·贝金 Joan Bergin


◎简  介


  故事发生在一个大雨滂沱的爱尔兰渔村,讲述一位母亲为了保护儿子而撒谎,以及这个选择对她的社群、家庭和她自己造成的毁灭性影响。

Video
ID : 1
Format : HEVC
Format/Info : High Efficiency Video Coding
Format profile : Main 10@L5@High
HDR format : Dolby Vision, Version 1.0, dvhe.05.06, BL+RPU
Codec ID : V_MPEGH/ISO/HEVC
Duration : 1 h 40 min
Bit rate : 24.6 Mb/s
Width : 3 836 pixels
Height : 1 600 pixels
Display aspect ratio : 2.40:1
Original display aspect ratio : 2.40:1
Frame rate mode : Constant
Frame rate : 23.976 (24000/1001) FPS
Color space : YUV
Chroma subsampling : 4:2:0
Bit depth : 10 bits
Bits/(Pixel*Frame) : 0.167
Stream size : 17.3 GiB (97%)
Default : Yes
Forced : No

Audio
ID : 2
Format : E-AC-3 JOC
Format/Info : Enhanced AC-3 with Joint Object Coding
Commercial name : Dolby Digital Plus with Dolby Atmos
Codec ID : A_EAC3
Duration : 1 h 40 min
Bit rate mode : Constant
Bit rate : 768 kb/s
Channel(s) : 6 channels
Channel layout : L R C LFE Ls Rs
Sampling rate : 48.0 kHz
Frame rate : 31.250 FPS (1536 SPF)
Compression mode : Lossy
Stream size : 553 MiB (3%)
Title : Ireland
Language : English
Service kind : Complete Main
Default : Yes
Forced : No
Complexity index : 16
Number of dynamic objects : 15
Bed channel count : 1 channel
Bed channel configuration : LFE

Text #1
ID : 3
Format : UTF-8
Codec ID : S_TEXT/UTF8
Codec ID/Info : UTF-8 Plain Text
Duration : 1 h 29 min
Bit rate : 39 b/s
Frame rate : 0.151 FPS
Count of elements : 809
Stream size : 25.9 KiB (0%)
Title : English CC
Language : English
Default : No
Forced : No

Text #2
ID : 4
Format : UTF-8
Codec ID : S_TEXT/UTF8
Codec ID/Info : UTF-8 Plain Text
Duration : 1 h 28 min
Bit rate : 32 b/s
Frame rate : 0.124 FPS
Count of elements : 654
Stream size : 20.9 KiB (0%)
Title : Spanish Latin American
Language : Spanish
Default : No
Forced : No

Menu
00:00:00.000 : en:Chapter 01
00:11:25.685 : en:Chapter 02
00:20:29.688 : en:Chapter 03
00:31:46.448 : en:Chapter 04
00:42:08.737 : en:Chapter 05
00:52:10.505 : en:Chapter 06
01:02:26.871 : en:Chapter 07
01:10:04.996 : en:Chapter 08
01:20:30.663 : en:Chapter 09
01:34:01.099 : en:Chapter 10

推荐使用qBittorrent、uTorrent、BitComet等下载软件,有条件的推荐115或会员软件下载!

下载地址


游客,如果您要查看本帖隐藏内容请回复

游客,如果您要查看本帖隐藏内容请回复

游客,如果您要查看本帖隐藏内容请回复





上一篇:魔法奇缘2:解除魔法[简繁粤中字] (2022)4K高清版本下载
下一篇:黄阿丽:风流女子 [简繁中字] (2022)4K高清版本下载
回复

使用道具 举报

主题

帖子

0

积分

新手上路

Rank: 1

积分
0
发表于 2022-11-19 19:28:37 | 显示全部楼层
感谢分享!!!
回复

使用道具 举报

0

主题

2

帖子

24

积分

新手上路

Rank: 1

积分
24
发表于 2022-11-19 23:09:16 | 显示全部楼层
感谢分享
回复

使用道具 举报

您需要登录后才可以回帖 登录 | 立即注册

本版积分规则

精彩图文
Archiver|手机版|TAG|Sitemap|新帖|专题|联系我们:邮箱: 4kjia.com@gmail.com   

4k家园   ©2019