艾薇儿·拉维尼-我是一个麻烦 (with YUNGBLUD) [2160P/MP4/565MB]

  [复制链接]

主题

帖子

0

积分

超级版主

Rank: 8Rank: 8

积分
0
 楼主| 发表于 2022-11-21 13:03:23 | 显示全部楼层 |阅读模式
本帖最后由 叽里呱啦 于 2022-11-21 13:27 编辑

艾薇儿·拉维尼-我是一个麻烦 (with YUNGBLUD).mp4_20221121_125313.329.jpg 艾薇儿·拉维尼-我是一个麻烦 (with YUNGBLUD).mp4_20221121_125319.481.jpg 艾薇儿·拉维尼-我是一个麻烦 (with YUNGBLUD).mp4_20221121_125404.770.jpg 艾薇儿·拉维尼-我是一个麻烦 (with YUNGBLUD).mp4_20221121_125413.890.jpg 艾薇儿·拉维尼-我是一个麻烦 (with YUNGBLUD).mp4_20221121_125438.977.jpg 艾薇儿·拉维尼-我是一个麻烦 (with YUNGBLUD).mp4_20221121_125503.329.jpg

Video
ID                             : 1
Format                         : AVC
Format/Info                    : Advanced Video Codec
Format profile                 : High@L5.2
Format settings                : CABAC / 5 Ref Frames
Format settings, CABAC         : Yes
Format settings, Reference fra : 5 frames
Codec ID                       : avc1
Codec ID/Info                  : Advanced Video Coding
Duration                       : 3 min 17 s
Bit rate                       : 23.8 Mb/s
Width                          : 2 880 pixels
Height                         : 2 160 pixels
Display aspect ratio           : 4:3
Frame rate mode                : Constant
Frame rate                     : 23.976 (24000/1001) FPS
Color space                    : YUV
Chroma subsampling             : 4:2:0
Bit depth                      : 8 bits
Scan type                      : Progressive
Bits/(Pixel*Frame)             : 0.159
Stream size                    : 561 MiB (99%)
Writing library                : x264 core 161 r3027 4121277
Encoding settings              : cabac=1 / ref=5 / deblock=1:0:0 / analyse=0x3:0x113 / me=hex / subme=8 / psy=1 / psy_rd=1.00:0.00 / mixed_ref=1 / me_range=16 / chroma_me=1 / trellis=2 / 8x8dct=1 / cqm=0 / deadzone=21,11 / fast_pskip=1 / chroma_qp_offset=-2 / threads=4 / lookahead_threads=1 / sliced_threads=0 / nr=0 / decimate=1 / interlaced=0 / bluray_compat=0 / stitchable=1 / constrained_intra=0 / bframes=3 / b_pyramid=2 / b_adapt=2 / b_bias=0 / direct=3 / weightb=1 / open_gop=0 / weightp=2 / keyint=infinite / keyint_min=23 / scenecut=40 / intra_refresh=0 / rc_lookahead=50 / rc=crf / mbtree=1 / crf=20.0 / qcomp=0.60 / qpmin=5 / qpmax=69 / qpstep=4 / vbv_maxrate=24200 / vbv_bufsize=66000 / crf_max=0.0 / nal_hrd=none / filler=0 / ip_ratio=1.40 / aq=1:1.00
Encoded date                   : UTC 2022-11-07 19:33:46
Tagged date                    : UTC 2022-11-07 19:33:46
Color range                    : Limited
Color primaries                : BT.709
Transfer characteristics       : BT.709
Matrix coefficients            : BT.709
mdhd_Duration                  : 197822
Codec configuration box        : avcC

Audio
ID                             : 2
Format                         : AAC LC
Format/Info                    : Advanced Audio Codec Low Complexity
Codec ID                       : mp4a-40-2
Duration                       : 3 min 17 s
Bit rate mode                  : Variable
Bit rate                       : 192 kb/s
Channel(s)                     : 2 channels
Channel layout                 : L R
Sampling rate                  : 48.0 kHz
Frame rate                     : 46.875 FPS (1024 SPF)
Compression mode               : Lossy
Stream size                    : 4.47 MiB (1%)
Encoded date                   : UTC 2022-11-07 19:33:46
Tagged date                    : UTC 2022-11-07 19:33:46
mdhd_Duration                  : 197823

下载地址:

PS:用qBittorrent、uTorrent、BitComet等软件挂机下载,小水管制作不易,下载后请保持做种姿势,谢谢!
游客,如果您要查看本帖隐藏内容请回复
提供2010-2022年本人多年来珍藏优质[4K、8K、16K(25-120fps)] 高品质韩国(女团)MV、各种演示片、测试片等4K韩国MV“珍藏版”视频硬盘有偿拷贝或网盘分享,最新4K视频每天更新中,需要的联系本楼主!



上一篇:2022 Seulgi(红色天鹅绒)-28个理由 [2160P/MP4/2.47GB]
下一篇:迈克尔·杰克逊-惊悚片(数字还原版)1983 [2160P/MP4/2.0GB]
回复

使用道具 举报

0

主题

10

帖子

32

积分

新手上路

Rank: 1

积分
32
发表于 2022-11-24 10:15:47 | 显示全部楼层
楼主辛苦了!
回复 支持 反对

使用道具 举报

您需要登录后才可以回帖 登录 | 立即注册

本版积分规则

精彩图文
Archiver|手机版|TAG|Sitemap|新帖|专题|联系我们:邮箱: 4kjia.com@gmail.com   

4k家园   ©2019