[4K测试视频] 迈克尔·杰克逊-Beat It(数字还原版) [2160P/MP4/778MB]

[复制链接]

主题

帖子

0

积分

超级版主

Rank: 8Rank: 8

积分
0
 楼主| 发表于 7 天前 | 显示全部楼层 |阅读模式
本帖最后由 叽里呱啦 于 2022-11-21 13:26 编辑

Michael Jackson - Beat It (Digitally Restored Version).mp4_20221121_130808.849.jpg Michael Jackson - Beat It (Digitally Restored Version).mp4_20221121_130835.130.jpg Michael Jackson - Beat It (Digitally Restored Version).mp4_20221121_130843.585.jpg Michael Jackson - Beat It (Digitally Restored Version).mp4_20221121_130855.281.jpg Michael Jackson - Beat It (Digitally Restored Version).mp4_20221121_130910.401.jpg Michael Jackson - Beat It (Digitally Restored Version).mp4_20221121_130934.825.jpg

Video
ID                             : 1
Format                         : HEVC
Format/Info                    : High Efficiency Video Coding
Format profile                 : Main 10@L5@High
Codec ID                       : hvc1
Codec ID/Info                  : High Efficiency Video Coding
Duration                       : 4 min 58 s
Source duration                : 4 min 58 s
Bit rate                       : 20.6 Mb/s
Width                          : 2 880 pixels
Height                         : 2 160 pixels
Display aspect ratio           : 4:3
Frame rate mode                : Constant
Frame rate                     : 23.976 (24000/1001) FPS
Color space                    : YUV
Chroma subsampling             : 4:2:0
Bit depth                      : 10 bits
Bits/(Pixel*Frame)             : 0.138
Stream size                    : 733 MiB (94%)
Source stream size             : 733 MiB (94%)
Color range                    : Limited
Color primaries                : BT.709
Transfer characteristics       : BT.709
Matrix coefficients            : BT.709
mdhd_Duration                  : 298590
Codec configuration box        : hvcC

Audio #1
ID                             : 2
Format                         : E-AC-3
Format/Info                    : Enhanced AC-3
Commercial name                : Dolby Digital Plus
Codec ID                       : ec-3
Duration                       : 4 min 58 s
Source duration                : 4 min 58 s
Bit rate mode                  : Constant
Bit rate                       : 1 024 kb/s
Channel(s)                     : 6 channels
Channel layout                 : L R C LFE Ls Rs
Sampling rate                  : 48.0 kHz
Frame rate                     : 31.250 FPS (1536 SPF)
Compression mode               : Lossy
Stream size                    : 36.5 MiB (5%)
Source stream size             : 36.4 MiB (5%)
Language                       : English
Service kind                   : Complete Main
Default                        : Yes
Alternate group                : 1
mdhd_Duration                  : 298634

Audio #2
ID                             : 3
Format                         : AAC LC
Format/Info                    : Advanced Audio Codec Low Complexity
Codec ID                       : mp4a-40-2
Duration                       : 4 min 58 s
Source duration                : 4 min 58 s
Bit rate mode                  : Constant
Bit rate                       : 265 kb/s
Channel(s)                     : 2 channels
Channel layout                 : L R
Sampling rate                  : 48.0 kHz
Frame rate                     : 46.875 FPS (1024 SPF)
Compression mode               : Lossy
Stream size                    : 9.30 MiB (1%)
Source stream size             : 9.30 MiB (1%)
Language                       : English
Default                        : Yes
Alternate group                : 2
mdhd_Duration                  : 298635

下载地址:

PS:用qBittorrent、uTorrent、BitComet等软件挂机下载,小水管制作不易,下载后请保持做种姿势,谢谢!
游客,如果您要查看本帖隐藏内容请回复

提供2010-2022年本人多年来珍藏优质[4K、8K、16K(25-120fps)] 高品质韩国(女团)MV、各种演示片、测试片等4K韩国MV“珍藏版”视频硬盘有偿拷贝或网盘分享,最新4K视频每天更新中,需要的联系本楼主!




上一篇:[国家地理] 精彩瑞士(2021)[2160P/MKV/3379MB]
下一篇:[首发] 2022年卡塔尔世界杯开幕式--多哈海湾球场举行 4.42GB
回复

使用道具 举报

1

主题

52

帖子

4394

积分

4K家园VIP

Rank: 9Rank: 9Rank: 9

积分
4394
发表于 7 天前 | 显示全部楼层
谢谢分享
回复

使用道具 举报

主题

帖子

0

积分

新手上路

Rank: 1

积分
0
发表于 7 天前 | 显示全部楼层
不知有没有中文字幕,小容量先看看
回复 支持 反对

使用道具 举报

0

主题

1

帖子

6

积分

新手上路

Rank: 1

积分
6
发表于 7 天前 | 显示全部楼层
回复专用
回复

使用道具 举报

0

主题

4

帖子

15

积分

新手上路

Rank: 1

积分
15
发表于 6 天前 | 显示全部楼层
感谢楼主
回复

使用道具 举报

0

主题

1

帖子

6

积分

新手上路

Rank: 1

积分
6
发表于 6 天前 来自手机 | 显示全部楼层
嗷,登登登登
回复 支持 反对

使用道具 举报

0

主题

6

帖子

27

积分

新手上路

Rank: 1

积分
27
发表于 6 天前 | 显示全部楼层
好好好
回复

使用道具 举报

0

主题

2

帖子

9

积分

新手上路

Rank: 1

积分
9
发表于 前天 15:39 来自手机 | 显示全部楼层
感谢楼主
回复

使用道具 举报

0

主题

15

帖子

206

积分

4K家园VIP

Rank: 9Rank: 9Rank: 9

积分
206
发表于 昨天 18:03 | 显示全部楼层
非常好特别棒
回复 支持 反对

使用道具 举报

主题

帖子

0

积分

新手上路

Rank: 1

积分
0
发表于 昨天 23:35 | 显示全部楼层
感谢楼主
回复

使用道具 举报

您需要登录后才可以回帖 登录 | 立即注册

本版积分规则

精彩图文
Archiver|手机版|TAG|Sitemap|新帖|专题|联系我们:邮箱: 4kjia.com@gmail.com   

4k家园   ©2019