[4K记录视频] [首发] 2022年卡塔尔世界杯开幕式--多哈海湾球场举行 4.42GB

[复制链接]

主题

帖子

0

积分

超级版主

Rank: 8Rank: 8

积分
0
 楼主| 发表于 6 天前 | 显示全部楼层 |阅读模式
本帖最后由 叽里呱啦 于 2022-11-22 12:21 编辑

FIFAWC.2022.OpeningCeremony.TVP4K.2160p.IPTV.x265.10bit.HDR.DDP5.1.Atmos.Pol-SF2.jpg FIFAWC.2022.OpeningCeremony.TVP4K.2160p.IPTV.x265.10bit.HDR.DDP5.1.Atmos.Pol-SF2.jpg FIFAWC.2022.OpeningCeremony.TVP4K.2160p.IPTV.x265.10bit.HDR.DDP5.1.Atmos.Pol-SF2.jpg FIFAWC.2022.OpeningCeremony.TVP4K.2160p.IPTV.x265.10bit.HDR.DDP5.1.Atmos.Pol-SF2.jpg FIFAWC.2022.OpeningCeremony.TVP4K.2160p.IPTV.x265.10bit.HDR.DDP5.1.Atmos.Pol-SF2.jpg FIFAWC.2022.OpeningCeremony.TVP4K.2160p.IPTV.x265.10bit.HDR.DDP5.1.Atmos.Pol-SF2.jpg FIFAWC.2022.OpeningCeremony.TVP4K.2160p.IPTV.x265.10bit.HDR.DDP5.1.Atmos.Pol-SF2.jpg FIFAWC.2022.OpeningCeremony.TVP4K.2160p.IPTV.x265.10bit.HDR.DDP5.1.Atmos.Pol-SF2.jpg FIFAWC.2022.OpeningCeremony.TVP4K.2160p.IPTV.x265.10bit.HDR.DDP5.1.Atmos.Pol-SF2.jpg FIFAWC.2022.OpeningCeremony.TVP4K.2160p.IPTV.x265.10bit.HDR.DDP5.1.Atmos.Pol-SF2.jpg FIFAWC.2022.OpeningCeremony.TVP4K.2160p.IPTV.x265.10bit.HDR.DDP5.1.Atmos.Pol-SF2.jpg FIFAWC.2022.OpeningCeremony.TVP4K.2160p.IPTV.x265.10bit.HDR.DDP5.1.Atmos.Pol-SF2.jpg FIFAWC.2022.OpeningCeremony.TVP4K.2160p.IPTV.x265.10bit.HDR.DDP5.1.Atmos.Pol-SF2.jpg FIFAWC.2022.OpeningCeremony.TVP4K.2160p.IPTV.x265.10bit.HDR.DDP5.1.Atmos.Pol-SF2.jpg FIFAWC.2022.OpeningCeremony.TVP4K.2160p.IPTV.x265.10bit.HDR.DDP5.1.Atmos.Pol-SF2.jpg FIFAWC.2022.OpeningCeremony.TVP4K.2160p.IPTV.x265.10bit.HDR.DDP5.1.Atmos.Pol-SF2.jpg
比赛日期:11/20/2022
评论语言:波兰语
描述:2022 年世界杯开幕式于 2022 年 11 月 20 日在 Al Khor 的 Al Bayt 体育场举行

撕/录作者:SpursFan2005

质量:IPTV
格式:MKV

视频:
编解码器:H.265
分辨率:3840x2160
帧率:50fps 比特
率:18.8mbps

音频:
编解码器:E-AC3 DD+ Dolby Atmos
声道数:6ch
采样率:48kHz
比特率:384kbps

General
Unique ID                      : 103363003852546287569732815266285573728 (0x4DC2FD8C91563295D1AF1FA005935660)
Complete name                  : F:\纪录片\[4Kjia小组压制分享]2022年卡塔尔世界杯开幕式FIFAWC.2022.OpeningCeremony.TVP4K.2160p.IPTV.x265.10bit.50fps.HDR.DDP5.1.Atmos.Pol-Alang\
Format                         : Matroska
Format version                 : Version 4
File size                      : 4.43 GiB
Duration                       : 32 min 24 s
Overall bit rate               : 19.6 Mb/s
Writing application            : Lavf58.76.100
Writing library                : Lavf58.76.100
ErrorDetectionType             : Per level 1

Video
ID                             : 1
Format                         : HEVC
Format/Info                    : High Efficiency Video Coding
Format profile                 : Main 10@L5.1@Main
HDR format                     : SMPTE ST 2086, HDR10 compatible
Codec ID                       : V_MPEGH/ISO/HEVC
Duration                       : 32 min 24 s
Bit rate                       : 18.8 Mb/s
Width                          : 3 840 pixels
Height                         : 2 160 pixels
Display aspect ratio           : 16:9
Frame rate mode                : Constant
Frame rate                     : 50.000 FPS
Color space                    : YUV
Chroma subsampling             : 4:2:0 (Type 0)
Bit depth                      : 10 bits
Bits/(Pixel*Frame)             : 0.045
Stream size                    : 4.25 GiB (96%)
Default                        : Yes
Forced                         : No
Color range                    : Limited
Color primaries                : BT.2020
Transfer characteristics       : HLG / BT.2020 (10-bit)
Matrix coefficients            : BT.2020 non-constant
Mastering display color primar : BT.2020
Mastering display luminance    : min: 0.0000 cd/m2, max: 1000 cd/m2
DURATION                       : 00:32:24,440000000

Audio
ID                             : 2
Format                         : E-AC-3 JOC
Format/Info                    : Enhanced AC-3 with Joint Object Coding
Commercial name                : Dolby Digital Plus with Dolby Atmos
Codec ID                       : A_EAC3
Duration                       : 32 min 24 s
Bit rate mode                  : Constant
Bit rate                       : 384 kb/s
Channel(s)                     : 6 channels
Channel layout                 : L R C LFE Ls Rs
Sampling rate                  : 48.0 kHz
Frame rate                     : 31.250 FPS (1536 SPF)
Compression mode               : Lossy
Delay relative to video        : 22 ms
Stream size                    : 89.0 MiB (2%)
Service kind                   : Complete Main
Default                        : Yes
Forced                         : No
DURATION                       : 00:32:24,462000000
Complexity index               : 10
Number of dynamic objects      : 0
Bed channel count              : 10 channels
Bed channel configuration      : L R C LFE Ls Rs Tfl Tfr Tbl Tbr

下载地址:

游客,如果您要查看本帖隐藏内容请回复

关于新种资源下载问题:请用迅雷以外的下载软件挂机下载,谢谢!





上一篇:迈克尔·杰克逊-Beat It(数字还原版) [2160P/MP4/778MB]
回复

使用道具 举报

主题

帖子

0

积分

新手上路

Rank: 1

积分
0
发表于 6 天前 | 显示全部楼层
谢谢楼主分享
回复 支持 反对

使用道具 举报

0

主题

1

帖子

6

积分

新手上路

Rank: 1

积分
6
发表于 6 天前 | 显示全部楼层
谢谢楼主分享
回复 支持 反对

使用道具 举报

0

主题

5

帖子

18

积分

新手上路

Rank: 1

积分
18
发表于 6 天前 | 显示全部楼层
谢谢楼主分享
回复 支持 反对

使用道具 举报

主题

帖子

0

积分

新手上路

Rank: 1

积分
0
发表于 5 天前 | 显示全部楼层
如何下载
回复

使用道具 举报

0

主题

2

帖子

9

积分

新手上路

Rank: 1

积分
9
发表于 5 天前 | 显示全部楼层
谢谢楼主
回复

使用道具 举报

主题

帖子

0

积分

新手上路

Rank: 1

积分
0
发表于 5 天前 | 显示全部楼层
谢谢楼主分享
回复 支持 反对

使用道具 举报

0

主题

1

帖子

6

积分

新手上路

Rank: 1

积分
6
发表于 4 天前 | 显示全部楼层
非常感谢楼主分享
回复 支持 反对

使用道具 举报

0

主题

1

帖子

6

积分

新手上路

Rank: 1

积分
6
发表于 4 天前 | 显示全部楼层
谢谢楼主分享视频
回复 支持 反对

使用道具 举报

主题

帖子

0

积分

新手上路

Rank: 1

积分
0
发表于 3 天前 | 显示全部楼层
感谢楼主,很快!
回复 支持 反对

使用道具 举报

您需要登录后才可以回帖 登录 | 立即注册

本版积分规则

精彩图文
Archiver|手机版|TAG|Sitemap|新帖|专题|联系我们:邮箱: 4kjia.com@gmail.com   

4k家园   ©2019