[4K电影] 世界末日 / Armageddon Time (2022) 4K高清版本下载

[复制链接]

主题

帖子

0

积分

超级版主

Rank: 8Rank: 8

积分
0
 楼主| 发表于 6 天前 | 显示全部楼层 |阅读模式
本帖最后由 最爱4K哟 于 2022-11-22 20:50 编辑

QQ图片20221122204833_副本.png

◎标  题 世界末日
◎译  名 世界末日的时刻
◎片  名 Armageddon Time
◎年  代 2022
◎产  地 巴西 / 美国
◎类  别 剧情
◎语  言 英语
◎上映日期 2022-05-19(戛纳电影节) / 2022-11-04(美国)
◎IMDb评分 7.0/10 from 2626 users Updated : 2022-11-22
◎IMDb链接 https://www.imdb.com/title/tt10343028/
◎豆瓣评分 7.1/10 from 366 users Updated : 2022-11-22
◎豆瓣链接 https://movie.douban.com/subject/33451890/
◎片  长 115分钟
◎导  演 詹姆斯·格雷 James Gray
◎编  剧 詹姆斯·格雷 James Gray
◎演  员 安妮·海瑟薇 Anne Hathaway
       杰瑞米·斯特朗 Jeremy Strong
       安东尼·霍普金斯 Anthony Hopkins
       杰西卡·查斯坦 Jessica Chastain
       多米尼克·隆巴多兹 Domenick Lombardozzi
       托芙·菲尔德舒 Tovah Feldshuh
       玛西娅·让·库尔茨 Marcia Jean Kurtz
       泰迪·库卢卡 Teddy Coluca
       迈克尔·班克斯 Michael Banks Repeta
       安德鲁·波尔克 Andrew Polk
       詹姆斯·格雷 James Gray


◎简  介


  世界末日是一部非常个人化的电影,展示了家庭的力量和一代人对美国梦的追求

Video
ID : 1
Format : HEVC
Format/Info : High Efficiency Video Coding
Format profile : Main 10@L5@High
HDR format : Dolby Vision, Version 1.0, dvhe.05.06, BL+RPU
Codec ID : V_MPEGH/ISO/HEVC
Duration : 1 h 54 min
Bit rate : 24.0 Mb/s
Width : 3 836 pixels
Height : 1 602 pixels
Display aspect ratio : 2.40:1
Frame rate mode : Constant
Frame rate : 23.976 (24000/1001) FPS
Color space : YUV
Chroma subsampling : 4:2:0
Bit depth : 10 bits
Bits/(Pixel*Frame) : 0.163
Stream size : 19.2 GiB (95%)
Language : English
Default : Yes
Forced : No

Audio
ID : 2
Format : E-AC-3 JOC
Format/Info : Enhanced AC-3 with Joint Object Coding
Commercial name : Dolby Digital Plus with Dolby Atmos
Codec ID : A_EAC3
Duration : 1 h 54 min
Bit rate mode : Constant
Bit rate : 768 kb/s
Channel(s) : 6 channels
Channel layout : L R C LFE Ls Rs
Sampling rate : 48.0 kHz
Frame rate : 31.250 FPS (1536 SPF)
Compression mode : Lossy
Stream size : 630 MiB (3%)
Language : English
Service kind : Complete Main
Default : Yes
Forced : No
Complexity index : 16
Number of dynamic objects : 15
Bed channel count : 1 channel
Bed channel configuration : LFE

Text #1
ID : 3
Format : UTF-8
Codec ID : S_TEXT/UTF8
Codec ID/Info : UTF-8 Plain Text
Title : English
Language : English
Default : No
Forced : No

Text #2
ID : 4
Format : UTF-8
Codec ID : S_TEXT/UTF8
Codec ID/Info : UTF-8 Plain Text
Title : French Canadian
Language : French
Default : No
Forced : No

Text #3
ID : 5
Format : UTF-8
Codec ID : S_TEXT/UTF8
Codec ID/Info : UTF-8 Plain Text
Title : Latin America Spanish
Language : Spanish
Default : No
Forced : No

推荐使用qBittorrent、uTorrent、BitComet等下载软件,有条件的推荐115或会员软件下载!

下载地址


游客,如果您要查看本帖隐藏内容请回复

游客,如果您要查看本帖隐藏内容请回复

游客,如果您要查看本帖隐藏内容请回复

游客,如果您要查看本帖隐藏内容请回复










上一篇:梦乡[简繁中字] / Slumberland (2022) 4K高清版本下载
下一篇:黑亚当[繁体中字] / Black Adam (2022) 4K高清版本下载
回复

使用道具 举报

0

主题

1

帖子

6

积分

新手上路

Rank: 1

积分
6
发表于 6 天前 | 显示全部楼层
想看看4K的效果,感谢分享。
回复 支持 反对

使用道具 举报

主题

帖子

0

积分

新手上路

Rank: 1

积分
0
发表于 5 天前 | 显示全部楼层
rgffffddddhhhhh
回复 支持 反对

使用道具 举报

主题

帖子

0

积分

新手上路

Rank: 1

积分
0
发表于 5 天前 | 显示全部楼层
感谢
回复

使用道具 举报

主题

帖子

0

积分

新手上路

Rank: 1

积分
0
发表于 7 小时前 | 显示全部楼层
世界末日是一部非常个人化的电影,展示了家庭的力量和一代人对美国梦的追求
回复 支持 反对

使用道具 举报

您需要登录后才可以回帖 登录 | 立即注册

本版积分规则

精彩图文
Archiver|手机版|TAG|Sitemap|新帖|专题|联系我们:邮箱: 4kjia.com@gmail.com   

4k家园   ©2019