[4K电影] 鳄鱼莱莱[繁体中字] / Lyle, Lyle, Crocodile (2022)4K高清版本下载

[复制链接]

主题

帖子

0

积分

超级版主

Rank: 8Rank: 8

积分
0
 楼主| 发表于 2022-11-22 18:33:01 | 显示全部楼层 |阅读模式
本帖最后由 最爱4K哟 于 2022-11-23 20:36 编辑

鳄鱼莱莱.png

◎译  名 纽约爱音鳄(港) / 鳄鱼歌王(台) / 鳄鱼莱尔
◎片  名 Lyle, Lyle, Crocodile
◎年  代 2022
◎产  地 美国
◎类  别 喜剧 / 动画 / 歌舞 / 家庭 / 奇幻 / 冒险
◎语  言 英语
◎上映日期 2022-10-07(美国)
◎IMDb评分 6.2/10 from 2762 users 更新 : 2022-11-22
◎IMDb链接 https://www.imdb.com/title/tt14668630/
◎豆瓣评分 7.0/10 from 188 users 更新 : 2022-11-22
◎豆瓣链接 https://movie.douban.com/subject/35606498/
◎片  长 106分钟
◎导  演 乔什·戈登 Josh Gordon / 威尔·斯佩克 Will Speck
◎编  剧 威廉姆·戴维斯 William Davies / 伯纳德·韦伯 Bernard Waber
◎演  员 肖恩·蒙德兹 Shawn Mendes
       哈维尔·巴登 Javier Bardem
       吴恬敏 Constance Wu
       斯科特·麦克纳里 Scoot McNairy
       温斯洛·费格雷 Winslow Fegley
       布伦特·吉尔曼 Brett Gelman
       萨尔·维斯库索 Sal Viscuso
       多恩·迪皮塔 Don DiPetta
       尤西·丘辟特 Yussie Jupiter
       科拉·林德尔 Cora Maple Lindell
       马克·威尔斯 Mac Wells
       林赛·莫泽 Lindsey Moser
       丹尼·所罗门 Danny Salomon
       本吉·帕塞克 Benj Pasek
       贾斯汀·保罗 Justin Paul


◎简  介


  影片改编自风靡全球的同名绘本系列,肖恩·蒙德兹献声演唱鳄鱼莱莱。
故事讲述了小男孩乔什·普利姆跟随父母举家搬进大城市的新居,和一只住在阁楼上、能舞会唱的鳄鱼成为好朋友的奇遇故事。自带欢乐属性的鳄鱼莱莱治愈了难以适应新环境的乔什,乔什也努力消除父母对莱莱的偏见。两小只开启前所未有的都市历险,历经重重欢乐闹剧,莱莱与普利姆一家最终成为了彼此的家人与伙伴。

Video
ID : 1
Format : HEVC
Format/Info : High Efficiency Video Coding
Format profile : Main 10@L5@High
HDR format : Dolby Vision, Version 1.0, dvhe.08.06, BL+RPU, HDR10 compatible / SMPTE ST 2086, HDR10 compatible
Codec ID : V_MPEGH/ISO/HEVC
Duration : 1 h 42 min
Bit rate : 25.7 Mb/s
Width : 3 840 pixels
Height : 1 606 pixels
Display aspect ratio : 2.40:1
Frame rate mode : Constant
Frame rate : 25.000 FPS
Color space : YUV
Chroma subsampling : 4:2:0 (Type 2)
Bit depth : 10 bits
Bits/(Pixel*Frame) : 0.166
Stream size : 18.3 GiB (97%)
Default : Yes
Forced : No
Color range : Limited
Color primaries : BT.2020
Transfer characteristics : PQ
Matrix coefficients : BT.2020 non-constant
Mastering display color primaries : BT.2020
Mastering display luminance : min: 0.0050 cd/m2, max: 1000 cd/m2
Maximum Content Light Level : 710 cd/m2
Maximum Frame-Average Light Level : 232 cd/m2

Audio
ID : 2
Format : E-AC-3 JOC
Format/Info : Enhanced AC-3 with Joint Object Coding
Commercial name : Dolby Digital Plus with Dolby Atmos
Codec ID : A_EAC3
Duration : 1 h 46 min
Bit rate mode : Constant
Bit rate : 768 kb/s
Channel(s) : 6 channels
Channel layout : L R C LFE Ls Rs
Sampling rate : 48.0 kHz
Frame rate : 31.250 FPS (1536 SPF)
Compression mode : Lossy
Stream size : 586 MiB (3%)
Language : English
Service kind : Complete Main
Default : Yes
Forced : No
Complexity index : 16
Number of dynamic objects : 15
Bed channel count : 1 channel
Bed channel configuration : LFE

Text #1
ID : 3
Format : UTF-8
Codec ID : S_TEXT/UTF8
Codec ID/Info : UTF-8 Plain Text
Duration : 1 h 38 min
Bit rate : 51 b/s
Frame rate : 0.210 FPS
Count of elements : 1249
Stream size : 37.5 KiB (0%)
Title : British
Language : English
Default : No
Forced : No

Text #2
ID : 4
Format : UTF-8
Codec ID : S_TEXT/UTF8
Codec ID/Info : UTF-8 Plain Text
Duration : 1 h 38 min
Bit rate : 51 b/s
Frame rate : 0.210 FPS
Count of elements : 1249
Stream size : 37.5 KiB (0%)
Language : English
Default : No
Forced : No

Text #3
ID : 5
Format : UTF-8
Codec ID : S_TEXT/UTF8
Codec ID/Info : UTF-8 Plain Text
Duration : 1 h 44 min
Bit rate : 68 b/s
Frame rate : 0.272 FPS
Count of elements : 1703
Stream size : 52.2 KiB (0%)
Title : SDH
Language : English
Default : No
Forced : No

Text #4
ID : 6
Format : UTF-8
Codec ID : S_TEXT/UTF8
Codec ID/Info : UTF-8 Plain Text
Duration : 1 h 45 min
Bit rate : 43 b/s
Frame rate : 0.192 FPS
Count of elements : 1217
Stream size : 34.0 KiB (0%)
Language : Indonesian
Default : No
Forced : No

Text #5
ID : 7
Format : UTF-8
Codec ID : S_TEXT/UTF8
Codec ID/Info : UTF-8 Plain Text
Duration : 1 h 45 min
Bit rate : 63 b/s
Frame rate : 0.194 FPS
Count of elements : 1228
Stream size : 48.9 KiB (0%)
Language : Vietnamese
Default : No
Forced : No

Text #6
ID : 8
Format : UTF-8
Codec ID : S_TEXT/UTF8
Codec ID/Info : UTF-8 Plain Text
Duration : 1 h 45 min
Bit rate : 42 b/s
Frame rate : 0.193 FPS
Count of elements : 1226
Stream size : 32.9 KiB (0%)
Title : 繁体中字
Language : Chinese
Default : No
Forced : No


Menu
00:00:00.000 : en:Chapter 01
00:05:30.205 : en:Chapter 02
00:12:30.166 : en:Chapter 03
00:19:28.960 : en:Chapter 04
00:25:47.047 : en:Chapter 05
00:32:14.392 : en:Chapter 06
00:38:41.112 : en:Chapter 07
00:46:31.875 : en:Chapter 08
00:52:39.200 : en:Chapter 09
00:59:03.418 : en:Chapter 10
01:05:06.031 : en:Chapter 11
01:11:06.474 : en:Chapter 12
01:18:27.040 : en:Chapter 13
01:26:05.915 : en:Chapter 14
01:30:00.900 : en:Chapter 15
01:38:56.644 : en:Chapter 16

推荐使用qBittorrent、uTorrent、BitComet等下载软件,有条件的推荐115或会员软件下载!

下载地址

游客,如果您要查看本帖隐藏内容请回复

游客,如果您要查看本帖隐藏内容请回复

游客,如果您要查看本帖隐藏内容请回复

游客,如果您要查看本帖隐藏内容请回复

游客,如果您要查看本帖隐藏内容请回复






上一篇:黑亚当[繁体中字] / Black Adam (2022) 4K高清版本下载
下一篇:达荷美女战士 [繁体中字] / The Woman King (2022) 4K高清版本下载
回复

使用道具 举报

0

主题

1

帖子

6

积分

新手上路

Rank: 1

积分
6
发表于 2022-11-23 13:08:49 来自手机 | 显示全部楼层
磁力链接
回复

使用道具 举报

0

主题

26

帖子

223

积分

新手上路

Rank: 1

积分
223
发表于 2022-11-23 20:11:52 | 显示全部楼层
可以的!!!!!!!!!!!
回复

使用道具 举报

0

主题

1

帖子

6

积分

新手上路

Rank: 1

积分
6
发表于 2022-11-23 23:05:46 来自手机 | 显示全部楼层
1111111上上上
回复 支持 反对

使用道具 举报

您需要登录后才可以回帖 登录 | 立即注册

本版积分规则

精彩图文
Archiver|手机版|TAG|Sitemap|新帖|专题|联系我们:邮箱: 4kjia.com@gmail.com   

4k家园   ©2019