[4K电影] 达荷美女战士 [繁体中字] / The Woman King (2022) 4K高清版本下载

[复制链接]

主题

帖子

0

积分

超级版主

Rank: 8Rank: 8

积分
0
 楼主| 发表于 2022-11-22 18:57:40 | 显示全部楼层 |阅读模式
QQ图片20221122185206_副本.png

◎标  题 达荷美女战士
◎译  名 女战不败(港) / 女王 / 达荷美女王
◎片  名 The Woman King
◎年  代 2022
◎产  地 美国 / 加拿大
◎类  别 剧情 / 历史
◎语  言 英语
◎上映日期 2022-09-10(多伦多电影节) / 2022-09-16(美国)
◎IMDb评分 6.7/10 from 33236 users 更新 : 2022-11-22
◎IMDb链接 https://www.imdb.com/title/tt8093700/
◎豆瓣评分 5.2/10 from 110 users 更新 : 2022-11-22
◎豆瓣链接 https://movie.douban.com/subject/30159288/
◎片  长 126分钟
◎导  演 吉娜·普林斯-拜斯伍德 Gina Prince-Bythewood
◎编  剧 吉娜·普林斯-拜斯伍德 Gina Prince-Bythewood / 达娜·史蒂文斯 Dana Stevens / 玛丽亚·贝罗 Maria Bello
◎演  员 维奥拉·戴维斯 Viola Davis
       图索·姆贝杜 Thuso Mbedu
       拉什纳·林奇 Lashana Lynch
       希拉·阿蒂姆 Sheila Atim
       约翰·博耶加 John Boyega
       赫洛·费因斯-提芬 Hero Fiennes Tiffin
       吉米·奥杜科亚 Jimmy Odukoya
       玛萨利·班度萨 Masali Baduza
       杰米·劳森 Jayme Lawson
       艾德丽安·沃伦 Adrienne Warren
       奇奥玛·乌梅拉 Chioma Antoinette Umeala
       西亚姆坦达·马卡坎 Siyamthanda Makakane
       谢娜·韦斯特 Shaina West
       安格丽克·基乔 Angélique Kidjo
       丹尼尔·哈德比 Daniel Hadebe
       佐齐比妮·通齐 Zozibini Tunzi
       邦戈·姆布图马 Bongo Mbutuma
       乔丹·博尔格 Jordan Bolger


◎简  介


  影片讲述了史上最英勇女战士的非凡故事,改编自发生在19世纪非洲西海岸的真实历史事件。
当外来侵略者虎视眈眈,位于西非的达荷美王国组建了一支完全由女性组成的军团,她们骁勇善战、所向披靡,誓要粉碎侵略者的野心。影片展现了纳尼斯卡将军震撼人心的旅程——她训练下一代新兵,并让她们做好准备,不惜一切代价保卫家园……

Video
ID : 1
Format : HEVC
Format/Info : High Efficiency Video Coding
Format profile : Main 10@L5@High
HDR format : SMPTE ST 2086, HDR10 compatible
Codec ID : V_MPEGH/ISO/HEVC
Duration : 2 h 14 min
Bit rate : 24.0 Mb/s
Width : 3 840 pixels
Height : 1 604 pixels
Display aspect ratio : 2.40:1
Frame rate mode : Constant
Frame rate : 23.976 (24000/1001) FPS
Color space : YUV
Chroma subsampling : 4:2:0 (Type 2)
Bit depth : 10 bits
Bits/(Pixel*Frame) : 0.163
Stream size : 22.6 GiB (95%)
Language : English
Default : Yes
Forced : No
Color range : Limited
Color primaries : BT.2020
Transfer characteristics : PQ
Matrix coefficients : BT.2020 non-constant
Mastering display color primaries : BT.2020
Mastering display luminance : min: 0.0050 cd/m2, max: 1000 cd/m2
Maximum Content Light Level : 535 cd/m2
Maximum Frame-Average Light Level : 268 cd/m2

Audio
ID : 2
Format : E-AC-3 JOC
Format/Info : Enhanced AC-3 with Joint Object Coding
Commercial name : Dolby Digital Plus with Dolby Atmos
Codec ID : A_EAC3
Duration : 2 h 14 min
Bit rate mode : Constant
Bit rate : 768 kb/s
Channel(s) : 6 channels
Channel layout : L R C LFE Ls Rs
Sampling rate : 48.0 kHz
Frame rate : 31.250 FPS (1536 SPF)
Compression mode : Lossy
Stream size : 741 MiB (3%)
Language : English
Service kind : Complete Main
Default : Yes
Forced : No
Complexity index : 16
Number of dynamic objects : 15
Bed channel count : 1 channel
Bed channel configuration : LFE

Text #1
ID : 3
Format : UTF-8
Codec ID : S_TEXT/UTF8
Codec ID/Info : UTF-8 Plain Text
Title : English
Language : English
Default : No
Forced : No

Text #2
ID : 4
Format : UTF-8
Codec ID : S_TEXT/UTF8
Codec ID/Info : UTF-8 Plain Text
Title : English [Forced]
Language : English
Default : Yes
Forced : Yes

Text #3
ID : 5
Format : UTF-8
Codec ID : S_TEXT/UTF8
Codec ID/Info : UTF-8 Plain Text
Title : English
Language : English
Default : No
Forced : No

Text #4
ID : 6
Format : UTF-8
Codec ID : S_TEXT/UTF8
Codec ID/Info : UTF-8 Plain Text
Title : English
Language : English
Default : No
Forced : No

Text #5
ID : 7
Format : UTF-8
Codec ID : S_TEXT/UTF8
Codec ID/Info : UTF-8 Plain Text
Title : 粤语中字
Language : Chinese
Default : No
Forced : No


Text #6
ID : 8
Format : UTF-8
Codec ID : S_TEXT/UTF8
Codec ID/Info : UTF-8 Plain Text
Title : Dutch
Language : Dutch
Default : No
Forced : No

Text #7
ID : 9
Format : UTF-8
Codec ID : S_TEXT/UTF8
Codec ID/Info : UTF-8 Plain Text
Title : French
Language : French
Default : No
Forced : No

Text #8
ID : 10
Format : UTF-8
Codec ID : S_TEXT/UTF8
Codec ID/Info : UTF-8 Plain Text
Title : German
Language : German
Default : No
Forced : No

Text #9
ID : 11
Format : UTF-8
Codec ID : S_TEXT/UTF8
Codec ID/Info : UTF-8 Plain Text
Title : Indonesian
Language : Indonesian
Default : No
Forced : No

Text #10
ID : 12
Format : UTF-8
Codec ID : S_TEXT/UTF8
Codec ID/Info : UTF-8 Plain Text
Title : Italian
Language : Italian
Default : No
Forced : No

Text #11
ID : 13
Format : UTF-8
Codec ID : S_TEXT/UTF8
Codec ID/Info : UTF-8 Plain Text
Title : Latin America Spanish
Language : Spanish
Default : No
Forced : No

Text #12
ID : 14
Format : UTF-8
Codec ID : S_TEXT/UTF8
Codec ID/Info : UTF-8 Plain Text
Title : Malay
Language : Malay
Default : No
Forced : No

Text #13
ID : 15
Format : UTF-8
Codec ID : S_TEXT/UTF8
Codec ID/Info : UTF-8 Plain Text
Title : Portuguese Brazilian
Language : Portuguese
Default : No
Forced : No

Text #14
ID : 16
Format : UTF-8
Codec ID : S_TEXT/UTF8
Codec ID/Info : UTF-8 Plain Text
Title : Ukrainian
Language : Ukrainian
Default : No
Forced : No

Text #15
ID : 17
Format : UTF-8
Codec ID : S_TEXT/UTF8
Codec ID/Info : UTF-8 Plain Text
Title : Vietnamese
Language : Vietnamese
Default : No
Forced : No


推荐使用qBittorrent、uTorrent、BitComet等下载软件,有条件的推荐115或会员软件下载!

下载地址


游客,如果您要查看本帖隐藏内容请回复

游客,如果您要查看本帖隐藏内容请回复

游客,如果您要查看本帖隐藏内容请回复

游客,如果您要查看本帖隐藏内容请回复







上一篇:鳄鱼莱莱[繁体中字] / Lyle, Lyle, Crocodile (2022)4K高清版本下载
下一篇:不露声色 / Poker Face (2022) 4K高清版本下载
回复

使用道具 举报

0

主题

1

帖子

6

积分

新手上路

Rank: 1

积分
6
发表于 2022-11-22 20:47:11 | 显示全部楼层
下载4K电影
回复 支持 反对

使用道具 举报

0

主题

5

帖子

24

积分

新手上路

Rank: 1

积分
24
发表于 2022-11-22 20:58:46 | 显示全部楼层
下载看看,感谢分享
回复 支持 反对

使用道具 举报

0

主题

3

帖子

12

积分

新手上路

Rank: 1

积分
12
发表于 2022-11-22 22:57:37 来自手机 | 显示全部楼层
下载看看,感谢分享
回复 支持 反对

使用道具 举报

0

主题

3

帖子

12

积分

新手上路

Rank: 1

积分
12
发表于 2022-11-22 22:58:35 来自手机 | 显示全部楼层
谢谢分享,非常感谢!
回复 支持 反对

使用道具 举报

0

主题

1

帖子

6

积分

新手上路

Rank: 1

积分
6
发表于 2022-11-23 17:21:19 | 显示全部楼层
下载看看
回复

使用道具 举报

0

主题

10

帖子

32

积分

新手上路

Rank: 1

积分
32
发表于 2022-11-24 16:16:05 | 显示全部楼层
不错
回复

使用道具 举报

0

主题

1

帖子

6

积分

新手上路

Rank: 1

积分
6
发表于 2022-11-29 03:58:06 | 显示全部楼层
楼主辛苦了
回复 支持 反对

使用道具 举报

您需要登录后才可以回帖 登录 | 立即注册

本版积分规则

精彩图文
Archiver|手机版|TAG|Sitemap|新帖|专题|联系我们:邮箱: 4kjia.com@gmail.com   

4k家园   ©2019