[4K电影] 不露声色 / Poker Face (2022) 4K高清版本下载

[复制链接]

主题

帖子

0

积分

超级版主

Rank: 8Rank: 8

积分
0
 楼主| 发表于 2022-11-22 21:07:34 | 显示全部楼层 |阅读模式
QQ图片20221122210650_副本.png

◎标  题 不露声色
◎片  名 Poker Face
◎年  代 2022
◎产  地 美国
◎类  别 剧情 / 惊悚
◎语  言 英语
◎上映日期 2022-10-16(意大利(罗马电影节)) / 2022-11-16(美国)
◎IMDb评分 5.1/10 from 2364 users 更新 : 2022-11-21
◎IMDb链接 https://www.imdb.com/title/tt14714980/
◎豆瓣评分 4.7/10 from 147 users 更新 : 2022-11-22
◎豆瓣链接 https://movie.douban.com/subject/35463205/
◎片  长 120分钟
◎导  演 罗素·克劳 Russell Crowe / 加里·弗莱德 Gary Fleder
◎编  剧 罗素·克劳 Russell Crowe
◎演  员 罗素·克劳 Russell Crowe
       埃尔莎·帕塔奇 Elsa Pataky
       利亚姆·海姆斯沃斯 Liam Hemsworth
       杰奎琳·麦根斯 Jacqueline McKenzie
       罗伯特·菲茨杰拉德·迪格斯 RZA
       马特·纳夫莱 Matt Nable
       K·卡兰 K Callan
       林恩·吉尔马丁 Lynn Gilmartin
       丹尼尔·麦克弗森 Daniel MacPherson
       斯蒂夫·巴什托尼 Steve Bastoni
       本尼迪克·哈迪 Benedict Hardie
       莫莉·格雷斯 Molly Grace
       保罗·塔松 Paul Tassone
       扎克·格里奇 Zack Grech
       罗素·克劳 Russell Crowe


◎简  介


  罗素·克劳将主演惊悚新片[扑克脸](Poker Face,暂译)。加里·弗莱德([家园防线])执导,斯蒂芬·M·科茨操刀剧本。该片讲述杰克(克劳饰)是一个科技界的亿万富翁,他把他的童年朋友们召集到他的迈阿密豪宅,进行一场高赌注的扑克游戏。这些朋友与这位主人有一种爱恨交织的关系。杰克也是个游戏高手&策划者,他精心策划了一个计划,旨在给他们所有人带来某种正义。然而,当杰克的迈阿密豪宅被一个危险的入室抢劫者占领时,他发现自己需要重新思考他的策略。

Video
ID : 1
Format : HEVC
Format/Info : High Efficiency Video Coding
Format profile : Main 10@L5@High
HDR format : SMPTE ST 2086, HDR10 compatible
Codec ID : V_MPEGH/ISO/HEVC
Duration : 1 h 34 min
Bit rate : 14.4 Mb/s
Width : 3 840 pixels
Height : 2 160 pixels
Display aspect ratio : 16:9
Frame rate mode : Constant
Frame rate : 23.976 (24000/1001) FPS
Color space : YUV
Chroma subsampling : 4:2:0
Bit depth : 10 bits
Bits/(Pixel*Frame) : 0.072
Stream size : 9.50 GiB (96%)
Default : Yes
Forced : No
Color range : Limited
Color primaries : BT.2020
Transfer characteristics : PQ
Matrix coefficients : BT.2020 non-constant
Mastering display color primaries : Display P3
Mastering display luminance : min: 0.0000 cd/m2, max: 1000 cd/m2
Maximum Content Light Level : 696 cd/m2
Maximum Frame-Average Light Level : 265 cd/m2

Audio
ID : 2
Format : E-AC-3
Format/Info : Enhanced AC-3
Commercial name : Dolby Digital Plus
Codec ID : A_EAC3
Duration : 1 h 34 min
Bit rate mode : Constant
Bit rate : 640 kb/s
Channel(s) : 6 channels
Channel layout : L R C LFE Ls Rs
Sampling rate : 48.0 kHz
Frame rate : 31.250 FPS (1536 SPF)
Compression mode : Lossy
Delay relative to video : 28 ms
Stream size : 433 MiB (4%)
Language : English
Service kind : Complete Main
Default : Yes
Forced : No

Text #1
ID : 3
Format : UTF-8
Codec ID : S_TEXT/UTF8
Codec ID/Info : UTF-8 Plain Text
Duration : 1 h 26 min
Bit rate : 58 b/s
Frame rate : 0.231 FPS
Count of elements : 1197
Stream size : 36.7 KiB (0%)
Language : English
Default : Yes
Forced : No

Text #2
ID : 4
Format : UTF-8
Codec ID : S_TEXT/UTF8
Codec ID/Info : UTF-8 Plain Text
Duration : 1 h 27 min
Bit rate : 59 b/s
Frame rate : 0.236 FPS
Count of elements : 1243
Stream size : 38.2 KiB (0%)
Title : SDH
Language : English
Default : No
Forced : No

推荐使用qBittorrent、uTorrent、BitComet等下载软件,有条件的推荐115或会员软件下载!

下载地址

游客,如果您要查看本帖隐藏内容请回复

游客,如果您要查看本帖隐藏内容请回复







上一篇:达荷美女战士 [繁体中字] / The Woman King (2022) 4K高清版本下载
下一篇:蒂尔 / Till (2022) 4K高清版本下载
回复

使用道具 举报

0

主题

3

帖子

12

积分

新手上路

Rank: 1

积分
12
发表于 2022-11-23 19:50:22 | 显示全部楼层
回复

使用道具 举报

0

主题

2

帖子

9

积分

新手上路

Rank: 1

积分
9
发表于 2022-11-30 18:55:15 | 显示全部楼层
感谢
回复

使用道具 举报

您需要登录后才可以回帖 登录 | 立即注册

本版积分规则

精彩图文
Archiver|手机版|TAG|Sitemap|新帖|专题|联系我们:邮箱: 4kjia.com@gmail.com   

4k家园   ©2019