迈克尔·杰克逊-惊悚片(数字还原版)1983 [2160P/MP4/2.0GB]

[复制链接]

主题

帖子

0

积分

超级版主

Rank: 8Rank: 8

积分
0
 楼主| 发表于 5 天前 | 显示全部楼层 |阅读模式
迈克尔·杰克逊-惊悚片(数字还原版)1983.mp4_20221123_110209.267.jpg 迈克尔·杰克逊-惊悚片(数字还原版)1983.mp4_20221123_110232.899.jpg 迈克尔·杰克逊-惊悚片(数字还原版)1983.mp4_20221123_110242.995.jpg 迈克尔·杰克逊-惊悚片(数字还原版)1983.mp4_20221123_110312.867.jpg 迈克尔·杰克逊-惊悚片(数字还原版)1983.mp4_20221123_110327.435.jpg 迈克尔·杰克逊-惊悚片(数字还原版)1983.mp4_20221123_110338.075.jpg 迈克尔·杰克逊-惊悚片(数字还原版)1983.mp4_20221123_110348.531.jpg 迈克尔·杰克逊-惊悚片(数字还原版)1983.mp4_20221123_110408.802.jpg
General
Complete name                  : D:\4K视频\[4Kjia小组压制分享]迈克尔·杰克逊-惊悚片(数字还原版)1983\
Format                         : MPEG-4
Format profile                 : Base Media
Codec ID                       : isom (isom/iso2/mp41)
File size                      : 2.00 GiB
Duration                       : 13 min 41 s
Overall bit rate               : 20.9 Mb/s
Writing application            : Lavf58.76.100

Video
ID                             : 1
Format                         : HEVC
Format/Info                    : High Efficiency Video Coding
Format profile                 : Main 10@L5@High
Codec ID                       : hvc1
Codec ID/Info                  : High Efficiency Video Coding
Duration                       : 13 min 41 s
Source duration                : 13 min 41 s
Bit rate                       : 20.6 Mb/s
Width                          : 2 880 pixels
Height                         : 2 160 pixels
Display aspect ratio           : 4:3
Frame rate mode                : Constant
Frame rate                     : 24.000 FPS
Color space                    : YUV
Chroma subsampling             : 4:2:0
Bit depth                      : 10 bits
Bits/(Pixel*Frame)             : 0.138
Stream size                    : 1.97 GiB (99%)
Source stream size             : 1.97 GiB (99%)
Color range                    : Limited
Color primaries                : BT.709
Transfer characteristics       : BT.709
Matrix coefficients            : BT.709
mdhd_Duration                  : 821875
Codec configuration box        : hvcC

Audio
ID                             : 2
Format                         : AAC LC
Format/Info                    : Advanced Audio Codec Low Complexity
Codec ID                       : mp4a-40-2
Duration                       : 13 min 41 s
Source duration                : 13 min 41 s
Bit rate mode                  : Constant
Bit rate                       : 277 kb/s
Channel(s)                     : 2 channels
Channel layout                 : L R
Sampling rate                  : 48.0 kHz
Frame rate                     : 46.875 FPS (1024 SPF)
Compression mode               : Lossy
Stream size                    : 27.1 MiB (1%)
Source stream size             : 27.1 MiB (1%)
Language                       : English
Default                        : Yes
Alternate group                : 1
mdhd_Duration                  : 821919
下载地址:

PS:用qBittorrent、uTorrent、BitComet等软件挂机下载,小水管制作不易,下载后请保持做种姿势,谢谢!
游客,如果您要查看本帖隐藏内容请回复
提供2010-2022年本人多年来珍藏优质[4K、8K、16K(25-120fps)] 高品质韩国(女团)MV、各种演示片、测试片等4K韩国MV“珍藏版”视频硬盘有偿拷贝或网盘分享,最新4K视频每天更新中,需要的联系本楼主!




上一篇:艾薇儿·拉维尼-我是一个麻烦 (with YUNGBLUD) [2160P/MP4/565MB]
回复

使用道具 举报

0

主题

1

帖子

6

积分

新手上路

Rank: 1

积分
6
发表于 5 天前 | 显示全部楼层
感谢分享
回复

使用道具 举报

0

主题

1

帖子

6

积分

新手上路

Rank: 1

积分
6
发表于 4 天前 来自手机 | 显示全部楼层
3ks            
回复 支持 反对

使用道具 举报

主题

帖子

0

积分

4K家园VIP

Rank: 9Rank: 9Rank: 9

积分
0
发表于 4 天前 | 显示全部楼层
怎么没有字幕?
回复 支持 反对

使用道具 举报

0

主题

2

帖子

9

积分

新手上路

Rank: 1

积分
9
发表于 前天 10:15 | 显示全部楼层
好东西
回复

使用道具 举报

您需要登录后才可以回帖 登录 | 立即注册

本版积分规则

精彩图文
Archiver|手机版|TAG|Sitemap|新帖|专题|联系我们:邮箱: 4kjia.com@gmail.com   

4k家园   ©2019