[4K电影] 亚当黑 [DIY简繁] / Black Adam (2022) 4K高清版本下载

  [复制链接]

主题

帖子

0

积分

超级版主

Rank: 8Rank: 8

积分
0
 楼主| 发表于 2022-11-24 20:29:16 | 显示全部楼层 |阅读模式
本帖最后由 最爱4K哟 于 2022-11-24 20:56 编辑

黑亚当.png

◎标  题 黑亚当
◎译  名 霹雳亚当 / 黑亞當(港 / 台)
◎片  名 Black Adam
◎年  代 2022
◎产  地 美国 / 加拿大 / 新西兰 / 匈牙利
◎类  别 动作 / 科幻 / 奇幻 / 冒险
◎语  言 英语
◎上映日期 2022-11(中国大陆) / 2022-10-19(法国) / 2022-10-21(美国)
◎IMDb评分 6.8/10 from 131325 users 更新 : 2022-11-24
◎IMDb链接 https://www.imdb.com/title/tt6443346/
◎豆瓣评分 5.8/10 from 31112 users 更新 : 2022-11-24
◎豆瓣链接 https://movie.douban.com/subject/26959697/
◎片  长 125分钟
◎导  演 佐米·希尔拉 Jaume Collet-Serra
◎编  剧 亚当·希泰凯尔 Adam Sztykiel / 罗里·海恩斯 Rory Haines / 苏哈·诺什瓦尼 Sohrab Noshirvani / 比尔·帕克 Bill Parker / C·C·贝克 C.C. Beck / 奥托·班德 Otto Binder
◎演  员 道恩·强森 Dwayne Johnson
       阿尔迪斯·霍吉 Aldis Hodge
       皮尔斯·布鲁斯南 Pierce Brosnan
       诺亚·琴蒂内奥 Noah Centineo
       莎拉·夏希 Sarah Shahi
       昆泰莎·斯文戴尔 Quintessa Swindell
       马尔万·肯扎里 Marwan Kenzari
       博德希·萨邦圭 Bodhi Sabongui
       穆罕默德·阿米尔 Mohammed Amer
       詹姆斯·卡萨蒂-莫耶尔 James Cusati-Moyer
       哈隆·克里斯蒂安 Jalon Christian
       本杰明·帕特森 Benjamin Patterson
       奥德娅·哈尔维 Odelya Halevi
       乌利·拉图基孚 Uli Latukefu
       詹尼佛·霍兰德 Jennifer Holland
       亨利·温克勒 Henry Winkler
       哈伊姆·吉拉菲 Chaim Jeraffi
       杰曼·翰苏 Djimon Hounsou
       桑娜·海恩斯 Sanna Haynes
       托内亚·斯图尔特 Tonea Stewart
       帕特里克·萨邦圭 Patrick Sabongui
       约瑟夫·盖特 Joseph Gatt
       杰梅因·里弗斯 Jermaine Rivers
       里贾纳·陈婷 Regina Ting Chen
       卡梅隆·莫伊尔 Cameron Moir
       德里克·罗素 Derek Russo
       小安杰尔·罗萨里奥 Angel Rosario Jr.
       克里斯托弗·马修·库克 Christopher Matthew Cook
       娜塔莉·伯恩 Natalie Burn
       亨利·卡维尔 Henry Cavill
       维奥拉·戴维斯 Viola Davis
       施奎塔·詹姆斯 Shiquita James
       拉希姆·赖利 Rahiem Riley
       海拉姆·加西亚 Hiram Garcia
       道恩·强森 Dwayne Johnson
       劳伦斯·谢尔 Lawrence Sher
       汤姆·迈耶 Tom Meyer
       凯文·吉尔伯特 Kevin Gilbert


◎简  介


  这个世界需要超级英雄…… 黑亚当降临。
黑亚当(道恩·强森 饰)被赋予了古代诸神无所不能的力量,但很快就被封印。近五千年后,他终于重见天日,并将在现代世界以独一无二的方式行使正义。
Video
ID                             : 1
Format                         : HEVC
Format/Info                    : High Efficiency Video Coding
Format profile                 : Main 10@L5@High
HDR format                     : Dolby Vision, Version 1.0, dvhe.08.06, BL+RPU, HDR10 compatible / SMPTE ST 2086, HDR10 compatible
Codec ID                       : V_MPEGH/ISO/HEVC
Duration                       : 2 h 4 min
Bit rate                       : 24.7 Mb/s
Width                          : 3 840 pixels
Height                         : 2 160 pixels
Display aspect ratio           : 16:9
Frame rate mode                : Constant
Frame rate                     : 23.976 (24000/1001) FPS
Color space                    : YUV
Chroma subsampling             : 4:2:0 (Type 2)
Bit depth                      : 10 bits
Bits/(Pixel*Frame)             : 0.124
Stream size                    : 21.6 GiB (97%)
Language                       : English
Default                        : Yes
Forced                         : No
Color range                    : Limited
Color primaries                : BT.2020
Transfer characteristics       : PQ
Matrix coefficients            : BT.2020 non-constant
Mastering display color primar : Display P3
Mastering display luminance    : min: 0.0001 cd/m2, max: 1000 cd/m2
Maximum Content Light Level    : 718 cd/m2
Maximum Frame-Average Light Le : 301 cd/m2

Audio
ID                             : 2
Format                         : E-AC-3 JOC
Format/Info                    : Enhanced AC-3 with Joint Object Coding
Commercial name                : Dolby Digital Plus with Dolby Atmos
Codec ID                       : A_EAC3
Duration                       : 2 h 4 min
Bit rate mode                  : Constant
Bit rate                       : 768 kb/s
Channel(s)                     : 6 channels
Channel layout                 : L R C LFE Ls Rs
Sampling rate                  : 48.0 kHz
Frame rate                     : 31.250 FPS (1536 SPF)
Compression mode               : Lossy
Stream size                    : 686 MiB (3%)
Language                       : English
Service kind                   : Complete Main
Default                        : Yes
Forced                         : No
Complexity index               : 16
Number of dynamic objects      : 15
Bed channel count              : 1 channel
Bed channel configuration      : LFE

Text #1
ID                             : 3
Format                         : UTF-8
Codec ID                       : S_TEXT/UTF8
Codec ID/Info                  : UTF-8 Plain Text
Duration                       : 1 h 56 min
Bit rate                       : 47 b/s
Frame rate                     : 0.194 FPS
Count of elements              : 1356
Stream size                    : 40.3 KiB (0%)
Language                       : English
Default                        : No
Forced                         : No

Text #2
ID                             : 4
Format                         : UTF-8
Codec ID                       : S_TEXT/UTF8
Codec ID/Info                  : UTF-8 Plain Text
Duration                       : 1 h 42 min
Bit rate                       : 2 b/s
Frame rate                     : 0.012 FPS
Count of elements              : 76
Stream size                    : 1.61 KiB (0%)
Title                          : Forced
Language                       : English
Default                        : Yes
Forced                         : Yes

Text #3
ID                             : 5
Format                         : UTF-8
Codec ID                       : S_TEXT/UTF8
Codec ID/Info                  : UTF-8 Plain Text
Duration                       : 1 h 56 min
Bit rate                       : 58 b/s
Frame rate                     : 0.253 FPS
Count of elements              : 1769
Stream size                    : 50.0 KiB (0%)
Title                          : SDH
Language                       : English
Default                        : No
Forced                         : No

Text #4
ID                             : 6
Format                         : UTF-8
Codec ID                       : S_TEXT/UTF8
Codec ID/Info                  : UTF-8 Plain Text
Duration                       : 2 h 3 min
Bit rate                       : 67 b/s
Frame rate                     : 0.170 FPS
Count of elements              : 1260
Stream size                    : 61.2 KiB (0%)
Language                       : Arabic
Default                        : No
Forced                         : No

Text #5
ID                             : 7
Format                         : UTF-8
Codec ID                       : S_TEXT/UTF8
Codec ID/Info                  : UTF-8 Plain Text
Duration                       : 2 h 3 min
Bit rate                       : 42 b/s
Frame rate                     : 0.135 FPS
Count of elements              : 1004
Stream size                    : 38.8 KiB (0%)
Language                       : Czech
Default                        : No
Forced                         : No

Text #6
ID                             : 8
Format                         : UTF-8
Codec ID                       : S_TEXT/UTF8
Codec ID/Info                  : UTF-8 Plain Text
Duration                       : 2 h 3 min
Bit rate                       : 36 b/s
Frame rate                     : 0.110 FPS
Count of elements              : 818
Stream size                    : 33.0 KiB (0%)
Language                       : Danish
Default                        : No
Forced                         : No

Text #7
ID                             : 9
Format                         : UTF-8
Codec ID                       : S_TEXT/UTF8
Codec ID/Info                  : UTF-8 Plain Text
Duration                       : 2 h 4 min
Bit rate                       : 52 b/s
Frame rate                     : 0.188 FPS
Count of elements              : 1397
Stream size                    : 47.4 KiB (0%)
Language                       : German
Default                        : No
Forced                         : No

Text #8
ID                             : 10
Format                         : UTF-8
Codec ID                       : S_TEXT/UTF8
Codec ID/Info                  : UTF-8 Plain Text
Duration                       : 2 h 3 min
Bit rate                       : 70 b/s
Frame rate                     : 0.169 FPS
Count of elements              : 1256
Stream size                    : 63.6 KiB (0%)
Language                       : Greek
Default                        : No
Forced                         : No

Text #9
ID                             : 11
Format                         : UTF-8
Codec ID                       : S_TEXT/UTF8
Codec ID/Info                  : UTF-8 Plain Text
Duration                       : 2 h 3 min
Bit rate                       : 36 b/s
Frame rate                     : 0.169 FPS
Count of elements              : 1251
Stream size                    : 33.0 KiB (0%)
Language                       : Estonian
Default                        : No
Forced                         : No

Text #10
ID                             : 12
Format                         : UTF-8
Codec ID                       : S_TEXT/UTF8
Codec ID/Info                  : UTF-8 Plain Text
Duration                       : 2 h 3 min
Bit rate                       : 43 b/s
Frame rate                     : 0.170 FPS
Count of elements              : 1258
Stream size                    : 39.3 KiB (0%)
Title                          : Latin American
Language                       : Spanish
Default                        : No
Forced                         : No

Text #11
ID                             : 13
Format                         : UTF-8
Codec ID                       : S_TEXT/UTF8
Codec ID/Info                  : UTF-8 Plain Text
Duration                       : 2 h 3 min
Bit rate                       : 38 b/s
Frame rate                     : 0.170 FPS
Count of elements              : 1258
Stream size                    : 34.7 KiB (0%)
Language                       : Finnish
Default                        : No
Forced                         : No

Text #12
ID                             : 14
Format                         : UTF-8
Codec ID                       : S_TEXT/UTF8
Codec ID/Info                  : UTF-8 Plain Text
Duration                       : 2 h 3 min
Bit rate                       : 37 b/s
Frame rate                     : 0.174 FPS
Count of elements              : 1294
Stream size                    : 34.4 KiB (0%)
Language                       : French
Default                        : No
Forced                         : No

Text #13
ID                             : 15
Format                         : UTF-8
Codec ID                       : S_TEXT/UTF8
Codec ID/Info                  : UTF-8 Plain Text
Duration                       : 2 h 3 min
Bit rate                       : 41 b/s
Frame rate                     : 0.167 FPS
Count of elements              : 1242
Stream size                    : 37.6 KiB (0%)
Language                       : Croatian
Default                        : No
Forced                         : No

Text #14
ID                             : 16
Format                         : UTF-8
Codec ID                       : S_TEXT/UTF8
Codec ID/Info                  : UTF-8 Plain Text
Duration                       : 2 h 3 min
Bit rate                       : 38 b/s
Frame rate                     : 0.126 FPS
Count of elements              : 936
Stream size                    : 35.1 KiB (0%)
Language                       : Hungarian
Default                        : No
Forced                         : No

Text #15
ID                             : 17
Format                         : UTF-8
Codec ID                       : S_TEXT/UTF8
Codec ID/Info                  : UTF-8 Plain Text
Duration                       : 2 h 3 min
Bit rate                       : 43 b/s
Frame rate                     : 0.167 FPS
Count of elements              : 1239
Stream size                    : 39.3 KiB (0%)
Language                       : Icelandic
Default                        : No
Forced                         : No

Text #16
ID                             : 18
Format                         : UTF-8
Codec ID                       : S_TEXT/UTF8
Codec ID/Info                  : UTF-8 Plain Text
Duration                       : 1 h 56 min
Bit rate                       : 45 b/s
Frame rate                     : 0.191 FPS
Count of elements              : 1335
Stream size                    : 38.5 KiB (0%)
Language                       : Italian
Default                        : No
Forced                         : No

Text #17
ID                             : 19
Format                         : UTF-8
Codec ID                       : S_TEXT/UTF8
Codec ID/Info                  : UTF-8 Plain Text
Duration                       : 1 h 56 min
Bit rate                       : 40 b/s
Frame rate                     : 0.179 FPS
Count of elements              : 1254
Stream size                    : 34.5 KiB (0%)
Language                       : Korean
Default                        : No
Forced                         : No

Text #18
ID                             : 20
Format                         : UTF-8
Codec ID                       : S_TEXT/UTF8
Codec ID/Info                  : UTF-8 Plain Text
Duration                       : 2 h 3 min
Bit rate                       : 43 b/s
Frame rate                     : 0.170 FPS
Count of elements              : 1262
Stream size                    : 39.8 KiB (0%)
Language                       : Lithuanian
Default                        : No
Forced                         : No

Text #19
ID                             : 21
Format                         : UTF-8
Codec ID                       : S_TEXT/UTF8
Codec ID/Info                  : UTF-8 Plain Text
Duration                       : 2 h 3 min
Bit rate                       : 42 b/s
Frame rate                     : 0.170 FPS
Count of elements              : 1262
Stream size                    : 38.6 KiB (0%)
Language                       : Latvian
Default                        : No
Forced                         : No

Text #20
ID                             : 22
Format                         : UTF-8
Codec ID                       : S_TEXT/UTF8
Codec ID/Info                  : UTF-8 Plain Text
Duration                       : 2 h 3 min
Bit rate                       : 37 b/s
Frame rate                     : 0.128 FPS
Count of elements              : 948
Stream size                    : 33.7 KiB (0%)
Language                       : Dutch
Default                        : No
Forced                         : No

Text #21
ID                             : 23
Format                         : UTF-8
Codec ID                       : S_TEXT/UTF8
Codec ID/Info                  : UTF-8 Plain Text
Duration                       : 2 h 3 min
Bit rate                       : 39 b/s
Frame rate                     : 0.127 FPS
Count of elements              : 944
Stream size                    : 35.8 KiB (0%)
Language                       : Norwegian
Default                        : No
Forced                         : No

Text #22
ID                             : 24
Format                         : UTF-8
Codec ID                       : S_TEXT/UTF8
Codec ID/Info                  : UTF-8 Plain Text
Duration                       : 2 h 3 min
Bit rate                       : 38 b/s
Frame rate                     : 0.167 FPS
Count of elements              : 1241
Stream size                    : 35.0 KiB (0%)
Language                       : Polish
Default                        : No
Forced                         : No

Text #23
ID                             : 25
Format                         : UTF-8
Codec ID                       : S_TEXT/UTF8
Codec ID/Info                  : UTF-8 Plain Text
Duration                       : 2 h 3 min
Bit rate                       : 45 b/s
Frame rate                     : 0.169 FPS
Count of elements              : 1253
Stream size                    : 41.1 KiB (0%)
Language                       : Portuguese
Default                        : No
Forced                         : No

Text #24
ID                             : 26
Format                         : UTF-8
Codec ID                       : S_TEXT/UTF8
Codec ID/Info                  : UTF-8 Plain Text
Duration                       : 2 h 3 min
Bit rate                       : 43 b/s
Frame rate                     : 0.167 FPS
Count of elements              : 1237
Stream size                    : 39.0 KiB (0%)
Title                          : Brazilian
Language                       : Portuguese
Default                        : No
Forced                         : No

Text #25
ID                             : 27
Format                         : UTF-8
Codec ID                       : S_TEXT/UTF8
Codec ID/Info                  : UTF-8 Plain Text
Duration                       : 2 h 3 min
Bit rate                       : 68 b/s
Frame rate                     : 0.175 FPS
Count of elements              : 1297
Stream size                    : 62.4 KiB (0%)
Language                       : Russian
Default                        : No
Forced                         : No

Text #26
ID                             : 28
Format                         : UTF-8
Codec ID                       : S_TEXT/UTF8
Codec ID/Info                  : UTF-8 Plain Text
Duration                       : 2 h 3 min
Bit rate                       : 37 b/s
Frame rate                     : 0.141 FPS
Count of elements              : 1048
Stream size                    : 33.8 KiB (0%)
Language                       : Slovenian
Default                        : No
Forced                         : No

Text #27
ID                             : 29
Format                         : UTF-8
Codec ID                       : S_TEXT/UTF8
Codec ID/Info                  : UTF-8 Plain Text
Duration                       : 2 h 3 min
Bit rate                       : 39 b/s
Frame rate                     : 0.124 FPS
Count of elements              : 923
Stream size                    : 35.4 KiB (0%)
Language                       : Swedish
Default                        : No
Forced                         : No

Text #28
ID                             : 30
Format                         : UTF-8
Codec ID                       : S_TEXT/UTF8
Codec ID/Info                  : UTF-8 Plain Text
Duration                       : 2 h 3 min
Bit rate                       : 91 b/s
Frame rate                     : 0.170 FPS
Count of elements              : 1264
Stream size                    : 82.4 KiB (0%)
Language                       : Thai
Default                        : No
Forced                         : No

Text #29
ID                             : 31
Format                         : UTF-8
Codec ID                       : S_TEXT/UTF8
Codec ID/Info                  : UTF-8 Plain Text
Duration                       : 2 h 3 min
Bit rate                       : 34 b/s
Frame rate                     : 0.167 FPS
Count of elements              : 1239
Stream size                    : 30.8 KiB (0%)
Title                          : Traditional
Language                       : Chinese
Default                        : No
Forced                         : No

Text #30
ID                             : 32
Format                         : ASS
Codec ID                       : S_TEXT/ASS
Codec ID/Info                  : Advanced Sub Station Alpha
Duration                       : 1 h 56 min
Bit rate                       : 99 b/s
Frame rate                     : 0.177 FPS
Count of elements              : 1236
Compression mode               : Lossless
Stream size                    : 85.2 KiB (0%)
Title                          :
繁体中字
Language                       : Chinese
Default                        : Yes
Forced                         : No

Text #31
ID                             : 33
Format                         : ASS
Codec ID                       : S_TEXT/ASS
Codec ID/Info                  : Advanced Sub Station Alpha
Duration                       : 1 h 56 min
Bit rate                       : 99 b/s
Frame rate                     : 0.177 FPS
Count of elements              : 1236
Compression mode               : Lossless
Stream size                    : 85.2 KiB (0%)
Title                          : 简体中字
Language                       : Chinese
Default                        : Yes
Forced                         : No

推荐使用qBittorrent、uTorrent、BitComet等下载软件,有条件的推荐115或会员软件下载!

下载地址
[4Kjia小组压制分享]亚当黑(22.23GB)[DIY简繁中字] Black.Adam.2022.2160p.MA.WEB-DL.x265.10bit.HDR.DDP5.1.Atmos-Alang
游客,如果您要查看本帖隐藏内容请回复







上一篇:谁偷了圣诞铃 / A Christmas Mystery (2022) 4K高清版本下载
下一篇:邂逅浪漫[简繁中字] / Meet Cute (2022) 4K高清版本下载
回复

使用道具 举报

主题

帖子

0

积分

超级版主

Rank: 8Rank: 8

积分
0
 楼主| 发表于 2022-11-24 20:51:46 | 显示全部楼层
QQ图片20221124203539.png QQ图片20221124203613.png QQ图片20221124204108.png QQ图片20221124204233.png QQ图片20221124204327.png QQ图片20221124204458.png QQ图片20221124204522.png QQ图片20221124204606.png QQ图片20221124204739.png QQ图片20221124204816.png
回复 支持 反对

使用道具 举报

主题

帖子

0

积分

新手上路

Rank: 1

积分
0
发表于 2022-11-24 21:50:53 | 显示全部楼层
感谢楼主分享
回复 支持 反对

使用道具 举报

0

主题

1

帖子

6

积分

新手上路

Rank: 1

积分
6
发表于 2022-11-25 12:03:13 来自手机 | 显示全部楼层
感谢楼主分享
回复 支持 反对

使用道具 举报

0

主题

1

帖子

6

积分

新手上路

Rank: 1

积分
6
发表于 2022-11-25 12:32:44 | 显示全部楼层
很精彩的一部电影,终于有4K版本了,感谢分享
回复 支持 反对

使用道具 举报

0

主题

1

帖子

6

积分

新手上路

Rank: 1

积分
6
发表于 2022-11-25 13:29:25 | 显示全部楼层
可以下载的话,真的是善举一桩
回复 支持 反对

使用道具 举报

0

主题

1

帖子

6

积分

新手上路

Rank: 1

积分
6
发表于 2022-11-25 13:30:43 | 显示全部楼层
咕咕咕咕咕咕过过过过过过过过过
回复 支持 反对

使用道具 举报

0

主题

3

帖子

12

积分

新手上路

Rank: 1

积分
12
发表于 2022-11-25 14:17:33 | 显示全部楼层
厉害厉害,支持一下
回复 支持 反对

使用道具 举报

0

主题

1

帖子

6

积分

新手上路

Rank: 1

积分
6
发表于 2022-11-25 16:43:39 | 显示全部楼层
感谢
回复

使用道具 举报

0

主题

1

帖子

6

积分

新手上路

Rank: 1

积分
6
发表于 2022-11-25 18:49:08 | 显示全部楼层

感谢楼主分享
回复 支持 反对

使用道具 举报

您需要登录后才可以回帖 登录 | 立即注册

本版积分规则

精彩图文
Archiver|手机版|TAG|Sitemap|新帖|专题|联系我们:邮箱: 4kjia.com@gmail.com   

4k家园   ©2019