[4K电影] 夏夜追风[简繁中字] / Along for the Ride (2022) 4K高清版本下载

[复制链接]

主题

帖子

0

积分

超级版主

Rank: 8Rank: 8

积分
0
 楼主| 发表于 2022-11-27 11:09:53 | 显示全部楼层 |阅读模式
本帖最后由 最爱4K哟 于 2022-11-27 11:28 编辑

夏夜追风.png

◎标  题 夏夜追风 / 单车上的夏天
◎片  名 Along for the Ride
◎年  代 2022
◎产  地 美国
◎类  别 剧情
◎语  言 英语
◎上映日期 2022-05-06(美国)
◎IMDb评分 6.1/10 from 6823 users 更新 : 2022-11-23
◎IMDb链接 https://www.imdb.com/title/tt14506528/
◎豆瓣评分 6.5/10 from 1035 users 更新 : 2022-11-27
◎豆瓣链接 https://movie.douban.com/subject/34456012/
◎片  长 106分钟
◎导  演 索菲娅·阿尔瓦雷斯 Sofia Alvarez
◎编  剧 索菲娅·阿尔瓦雷斯 Sofia Alvarez / 萨拉·丹森 Sarah Dessen
◎演  员 埃玛·帕萨罗 Emma Pasarow
                   贝尔蒙·卡梅利 Belmont Cameli
                   劳拉·卡里乌基 Laura Kariuki
                   凯特·博斯沃思 Kate Bosworth
                   德莫特·马尔罗尼 Dermot Mulroney
                   安迪·麦克唐纳 Andie MacDowell
                   Genevieve Hannelius Genevieve Hannelius
                   萨米娅·芬纳蒂 Samia Finnerty
                   里卡多·胡塔多 Ricardo Hurtado
                   保罗·卡尔米扬 Paul Karmiryan
                   马库斯·斯里布纳 Marcus Scribner
                   大卫·S·布里德森 David S. Bridson
                   艾萨克·李 Isaac Lee
                   詹尼克·贝内特 Jenique Bennett
                   安吉尔·路易斯 Angel Luis
                   罗根·萧 Logan Siu
                   艾莉莎·哈里斯 Alisa Harris
                   玛吉·阿里亚斯 Maggie Arias


◎简  介



  大学开学前的暑假,勤奋好学的奥登遇到了神秘的伊莱。通过一次次的夜出探索,伊莱帮奥登体验到了她不曾拥有的无忧青春。

Video
ID : 1
Format : HEVC
Format/Info : High Efficiency Video Coding
Format profile : Main 10@L5@Main
HDR format : Dolby Vision, Version 1.0, dvhe.08.06, BL+RPU, HDR10 compatible / SMPTE ST 2086, HDR10 compatible
Codec ID : V_MPEGH/ISO/HEVC
Duration : 1 h 46 min
Bit rate : 15.4 Mb/s
Width : 3 840 pixels
Height : 2 160 pixels
Display aspect ratio : 16:9
Frame rate mode : Constant
Frame rate : 24.000 FPS
Color space : YUV
Chroma subsampling : 4:2:0 (Type 2)
Bit depth : 10 bits
Bits/(Pixel*Frame) : 0.077
Stream size : 11.5 GiB (95%)
Default : Yes
Forced : No
Color range : Limited
Color primaries : BT.2020
Transfer characteristics : PQ
Matrix coefficients : BT.2020 non-constant
Mastering display color primaries : Display P3
Mastering display luminance : min: 0.0001 cd/m2, max: 1000 cd/m2
Maximum Content Light Level : 1206 cd/m2
Maximum Frame-Average Light Level : 637 cd/m2

Audio
ID : 2
Format : E-AC-3 JOC
Format/Info : Enhanced AC-3 with Joint Object Coding
Commercial name : Dolby Digital Plus with Dolby Atmos
Codec ID : A_EAC3
Duration : 1 h 46 min
Bit rate mode : Constant
Bit rate : 768 kb/s
Channel(s) : 6 channels
Channel layout : L R C LFE Ls Rs
Sampling rate : 48.0 kHz
Frame rate : 31.250 FPS (1536 SPF)
Compression mode : Lossy
Stream size : 586 MiB (5%)
Language : English
Service kind : Complete Main
Default : Yes
Forced : No
Complexity index : 16
Number of dynamic objects : 15
Bed channel count : 1 channel
Bed channel configuration : LFE

Text #1
ID : 3
Format : UTF-8
Codec ID : S_TEXT/UTF8
Codec ID/Info : UTF-8 Plain Text
Duration : 1 h 44 min
Bit rate : 89 b/s
Frame rate : 0.244 FPS
Count of elements : 1529
Stream size : 68.5 KiB (0%)
Language : English
Default : No
Forced : No

Text #2
ID : 4
Format : UTF-8
Codec ID : S_TEXT/UTF8
Codec ID/Info : UTF-8 Plain Text
Duration : 1 h 46 min
Bit rate : 100 b/s
Frame rate : 0.275 FPS
Count of elements : 1755
Stream size : 78.1 KiB (0%)
Title : SDH
Language : English
Default : No
Forced : No

Text #3
ID : 5
Format : UTF-8
Codec ID : S_TEXT/UTF8
Codec ID/Info : UTF-8 Plain Text
Duration : 1 h 46 min
Bit rate : 100 b/s
Frame rate : 0.197 FPS
Count of elements : 1255
Stream size : 78.1 KiB (0%)
Language : Arabic
Default : No
Forced : No

Text #4
ID : 6
Format : UTF-8
Codec ID : S_TEXT/UTF8
Codec ID/Info : UTF-8 Plain Text
Duration : 1 h 46 min
Bit rate : 51 b/s
Frame rate : 0.197 FPS
Count of elements : 1260
Stream size : 40.4 KiB (0%)
Language : Catalan
Default : No
Forced : No

Text #5
ID : 7
Format : UTF-8
Codec ID : S_TEXT/UTF8
Codec ID/Info : UTF-8 Plain Text
Duration : 1 h 46 min
Bit rate : 58 b/s
Frame rate : 0.198 FPS
Count of elements : 1261
Stream size : 45.5 KiB (0%)
Title : 简体中字
Language : Chinese
Default : No
Forced : No

Text #6
ID : 8
Format : UTF-8
Codec ID : S_TEXT/UTF8
Codec ID/Info : UTF-8 Plain Text
Duration : 1 h 46 min
Bit rate : 60 b/s
Frame rate : 0.218 FPS
Count of elements : 1393
Stream size : 47.4 KiB (0%)
Title : 繁体中字
Language : Chinese
Default : No
Forced : No


Text #7
ID : 9
Format : UTF-8
Codec ID : S_TEXT/UTF8
Codec ID/Info : UTF-8 Plain Text
Duration : 1 h 46 min
Bit rate : 46 b/s
Frame rate : 0.187 FPS
Count of elements : 1193
Stream size : 36.0 KiB (0%)
Language : Croatian
Default : No
Forced : No

Text #8
ID : 10
Format : UTF-8
Codec ID : S_TEXT/UTF8
Codec ID/Info : UTF-8 Plain Text
Duration : 1 h 46 min
Bit rate : 53 b/s
Frame rate : 0.204 FPS
Count of elements : 1305
Stream size : 41.5 KiB (0%)
Language : Czech
Default : No
Forced : No

Text #9
ID : 11
Format : UTF-8
Codec ID : S_TEXT/UTF8
Codec ID/Info : UTF-8 Plain Text
Duration : 1 h 46 min
Bit rate : 49 b/s
Frame rate : 0.191 FPS
Count of elements : 1219
Stream size : 38.2 KiB (0%)
Language : Danish
Default : No
Forced : No

Text #10
ID : 12
Format : UTF-8
Codec ID : S_TEXT/UTF8
Codec ID/Info : UTF-8 Plain Text
Duration : 1 h 46 min
Bit rate : 53 b/s
Frame rate : 0.187 FPS
Count of elements : 1193
Stream size : 41.3 KiB (0%)
Language : Dutch
Default : No
Forced : No

Text #11
ID : 13
Format : UTF-8
Codec ID : S_TEXT/UTF8
Codec ID/Info : UTF-8 Plain Text
Duration : 1 h 46 min
Bit rate : 48 b/s
Frame rate : 0.165 FPS
Count of elements : 1055
Stream size : 38.0 KiB (0%)
Language : Finnish
Default : No
Forced : No

Text #12
ID : 14
Format : UTF-8
Codec ID : S_TEXT/UTF8
Codec ID/Info : UTF-8 Plain Text
Duration : 1 h 46 min
Bit rate : 53 b/s
Frame rate : 0.204 FPS
Count of elements : 1303
Stream size : 42.0 KiB (0%)
Language : French
Default : No
Forced : No

Text #13
ID : 15
Format : UTF-8
Codec ID : S_TEXT/UTF8
Codec ID/Info : UTF-8 Plain Text
Duration : 1 h 46 min
Bit rate : 55 b/s
Frame rate : 0.189 FPS
Count of elements : 1209
Stream size : 43.0 KiB (0%)
Language : German
Default : No
Forced : No

Text #14
ID : 16
Format : UTF-8
Codec ID : S_TEXT/UTF8
Codec ID/Info : UTF-8 Plain Text
Duration : 1 h 46 min
Bit rate : 87 b/s
Frame rate : 0.204 FPS
Count of elements : 1300
Stream size : 68.0 KiB (0%)
Language : Greek
Default : No
Forced : No

Text #15
ID : 17
Format : UTF-8
Codec ID : S_TEXT/UTF8
Codec ID/Info : UTF-8 Plain Text
Duration : 1 h 46 min
Bit rate : 85 b/s
Frame rate : 0.212 FPS
Count of elements : 1353
Stream size : 66.3 KiB (0%)
Language : Hebrew
Default : No
Forced : No

Text #16
ID : 18
Format : UTF-8
Codec ID : S_TEXT/UTF8
Codec ID/Info : UTF-8 Plain Text
Duration : 1 h 46 min
Bit rate : 52 b/s
Frame rate : 0.189 FPS
Count of elements : 1207
Stream size : 41.3 KiB (0%)
Language : Hungarian
Default : No
Forced : No

Text #17
ID : 19
Format : UTF-8
Codec ID : S_TEXT/UTF8
Codec ID/Info : UTF-8 Plain Text
Duration : 1 h 46 min
Bit rate : 51 b/s
Frame rate : 0.195 FPS
Count of elements : 1246
Stream size : 40.3 KiB (0%)
Language : Indonesian
Default : No
Forced : No

Text #18
ID : 20
Format : UTF-8
Codec ID : S_TEXT/UTF8
Codec ID/Info : UTF-8 Plain Text
Duration : 1 h 46 min
Bit rate : 55 b/s
Frame rate : 0.198 FPS
Count of elements : 1266
Stream size : 43.6 KiB (0%)
Language : Italian
Default : No
Forced : No

Text #19
ID : 21
Format : UTF-8
Codec ID : S_TEXT/UTF8
Codec ID/Info : UTF-8 Plain Text
Duration : 1 h 46 min
Bit rate : 55 b/s
Frame rate : 0.211 FPS
Count of elements : 1349
Stream size : 43.2 KiB (0%)
Language : Japanese
Default : No
Forced : No

Text #20
ID : 22
Format : UTF-8
Codec ID : S_TEXT/UTF8
Codec ID/Info : UTF-8 Plain Text
Duration : 1 h 46 min
Bit rate : 63 b/s
Frame rate : 0.196 FPS
Count of elements : 1250
Stream size : 49.7 KiB (0%)
Language : Korean
Default : No
Forced : No

Text #21
ID : 23
Format : UTF-8
Codec ID : S_TEXT/UTF8
Codec ID/Info : UTF-8 Plain Text
Duration : 1 h 41 min
Bit rate : 55 b/s
Frame rate : 0.208 FPS
Count of elements : 1272
Stream size : 41.5 KiB (0%)
Language : Malay
Default : No
Forced : No

Text #22
ID : 24
Format : UTF-8
Codec ID : S_TEXT/UTF8
Codec ID/Info : UTF-8 Plain Text
Duration : 1 h 46 min
Bit rate : 49 b/s
Frame rate : 0.181 FPS
Count of elements : 1156
Stream size : 38.4 KiB (0%)
Language : Norwegian Bokmal
Default : No
Forced : No

Text #23
ID : 25
Format : UTF-8
Codec ID : S_TEXT/UTF8
Codec ID/Info : UTF-8 Plain Text
Duration : 1 h 41 min
Bit rate : 50 b/s
Frame rate : 0.201 FPS
Count of elements : 1229
Stream size : 38.0 KiB (0%)
Language : Polish
Default : No
Forced : No

Text #24
ID : 26
Format : UTF-8
Codec ID : S_TEXT/UTF8
Codec ID/Info : UTF-8 Plain Text
Duration : 1 h 41 min
Bit rate : 59 b/s
Frame rate : 0.210 FPS
Count of elements : 1287
Stream size : 44.4 KiB (0%)
Title : Brazilian
Language : Portuguese
Default : No
Forced : No

Text #25
ID : 27
Format : UTF-8
Codec ID : S_TEXT/UTF8
Codec ID/Info : UTF-8 Plain Text
Duration : 1 h 46 min
Bit rate : 52 b/s
Frame rate : 0.189 FPS
Count of elements : 1205
Stream size : 41.2 KiB (0%)
Title : Iberian
Language : Portuguese
Default : No
Forced : No

Text #26
ID : 28
Format : UTF-8
Codec ID : S_TEXT/UTF8
Codec ID/Info : UTF-8 Plain Text
Duration : 1 h 41 min
Bit rate : 61 b/s
Frame rate : 0.198 FPS
Count of elements : 1209
Stream size : 46.1 KiB (0%)
Language : Romanian
Default : No
Forced : No

Text #27
ID : 29
Format : UTF-8
Codec ID : S_TEXT/UTF8
Codec ID/Info : UTF-8 Plain Text
Duration : 1 h 46 min
Bit rate : 89 b/s
Frame rate : 0.209 FPS
Count of elements : 1337
Stream size : 70.1 KiB (0%)
Language : Russian
Default : No
Forced : No

Text #28
ID : 30
Format : UTF-8
Codec ID : S_TEXT/UTF8
Codec ID/Info : UTF-8 Plain Text
Duration : 1 h 46 min
Bit rate : 50 b/s
Frame rate : 0.209 FPS
Count of elements : 1335
Stream size : 39.7 KiB (0%)
Title : Castilian
Language : Spanish
Default : No
Forced : No

Text #29
ID : 31
Format : UTF-8
Codec ID : S_TEXT/UTF8
Codec ID/Info : UTF-8 Plain Text
Duration : 1 h 41 min
Bit rate : 60 b/s
Frame rate : 0.231 FPS
Count of elements : 1410
Stream size : 45.0 KiB (0%)
Title : Latin American
Language : Spanish
Default : No
Forced : No

Text #30
ID : 32
Format : UTF-8
Codec ID : S_TEXT/UTF8
Codec ID/Info : UTF-8 Plain Text
Duration : 1 h 46 min
Bit rate : 51 b/s
Frame rate : 0.180 FPS
Count of elements : 1150
Stream size : 39.9 KiB (0%)
Language : Swedish
Default : No
Forced : No

Text #31
ID : 33
Format : UTF-8
Codec ID : S_TEXT/UTF8
Codec ID/Info : UTF-8 Plain Text
Duration : 1 h 46 min
Bit rate : 147 b/s
Frame rate : 0.198 FPS
Count of elements : 1261
Stream size : 115 KiB (0%)
Language : Thai
Default : No
Forced : No

Text #32
ID : 34
Format : UTF-8
Codec ID : S_TEXT/UTF8
Codec ID/Info : UTF-8 Plain Text
Duration : 1 h 46 min
Bit rate : 55 b/s
Frame rate : 0.192 FPS
Count of elements : 1225
Stream size : 42.9 KiB (0%)
Language : Turkish
Default : No
Forced : No

Text #33
ID : 35
Format : UTF-8
Codec ID : S_TEXT/UTF8
Codec ID/Info : UTF-8 Plain Text
Duration : 1 h 46 min
Bit rate : 82 b/s
Frame rate : 0.191 FPS
Count of elements : 1219
Stream size : 63.9 KiB (0%)
Language : Ukrainian
Default : No
Forced : No

Text #34
ID : 36
Format : UTF-8
Codec ID : S_TEXT/UTF8
Codec ID/Info : UTF-8 Plain Text
Duration : 1 h 46 min
Bit rate : 78 b/s
Frame rate : 0.189 FPS
Count of elements : 1208
Stream size : 60.9 KiB (0%)
Language : Vietnamese
Default : No
Forced : No

推荐使用qBittorrent、uTorrent、BitComet等下载软件,有条件的推荐115或会员软件下载!

下载地址:

游客,如果您要查看本帖隐藏内容请回复




上一篇:梦幻足球 / Fantasy Football (2022) 4K高清版本下载
下一篇:黑蟹行动[简繁中字] / Svart krabba (2022) 4K高清版本下载
回复

使用道具 举报

3

主题

95

帖子

1270

积分

4K家园VIP

Rank: 9Rank: 9Rank: 9

积分
1270
发表于 2022-11-27 14:11:05 | 显示全部楼层
没有字幕,差评
回复 支持 反对

使用道具 举报

0

主题

2

帖子

9

积分

新手上路

Rank: 1

积分
9
发表于 2022-11-28 11:45:10 | 显示全部楼层
111111111111
回复 支持 反对

使用道具 举报

您需要登录后才可以回帖 登录 | 立即注册

本版积分规则

精彩图文
Archiver|手机版|TAG|Sitemap|新帖|专题|联系我们:邮箱: 4kjia.com@gmail.com   

4k家园   ©2019