[4K电影] 氧气危机[简繁中字] / Oxygen (2021) 4K高清版本下载

[复制链接]

主题

帖子

0

积分

超级版主

Rank: 8Rank: 8

积分
0
 楼主| 发表于 2022-11-27 21:44:27 | 显示全部楼层 |阅读模式
本帖最后由 最爱4K哟 于 2022-11-27 23:04 编辑

QQ图片20221127230401_副本.png

◎译  名 氧气危机/囊中人/氧气/O2/Oxygène
◎片  名 Oxygen
◎年  代 2021
◎产  地 法国/美国
◎类  别 科幻/惊悚/恐怖
◎语  言 法语
◎上映日期 2021-05-12(美国)
◎IMDb评分 6.5/10 from 39228 users 更新 : 2022-11-23
◎IMDb链接 https://www.imdb.com/title/tt6341832/
◎豆瓣评分 6.5/10 from 7847 users 更新 : 2022-11-27
◎豆瓣链接 https://movie.douban.com/subject/27093500/
◎导  演 亚历山大·阿嘉 Alexandre Aja
◎主  演 梅拉尼·罗兰 Mélanie Laurent
       马修·阿马立克 Mathieu Amalric
       马立克·兹迪 Malik Zidi


◎简  介


  《氧气》是一部求生题材法国惊悚片,由亚历山大·阿嘉执导。这部电影讲述了一名年轻女子(梅拉尼·罗兰饰,《鬼影特攻:以暴制暴》《无耻混蛋》)在低温舱中醒来,她不记得自己是谁,为何出现在这里。由于氧气即将耗尽,她必须重建自己的记忆,以逃离这噩梦般的场景。

Video
ID : 1
Format : HEVC
Format/Info : High Efficiency Video Coding
Format profile : Main 10@L5@Main
HDR format : Dolby Vision, Version 1.0, dvhe.08.06, BL+RPU, HDR10 compatible / SMPTE ST 2086, HDR10 compatible
Codec ID : V_MPEGH/ISO/HEVC
Duration : 1 h 40 min
Bit rate : 15.0 Mb/s
Width : 3 840 pixels
Height : 2 160 pixels
Display aspect ratio : 16:9
Frame rate mode : Constant
Frame rate : 24.000 FPS
Color space : YUV
Chroma subsampling : 4:2:0 (Type 2)
Bit depth : 10 bits
Bits/(Pixel*Frame) : 0.075
Stream size : 10.5 GiB (95%)
Default : Yes
Forced : No
Color range : Limited
Color primaries : BT.2020
Transfer characteristics : PQ
Matrix coefficients : BT.2020 non-constant
Mastering display color primaries : Display P3
Mastering display luminance : min: 0.0001 cd/m2, max: 1000 cd/m2
Maximum Content Light Level : 1012 cd/m2
Maximum Frame-Average Light Level : 173 cd/m2

Audio
ID : 2
Format : E-AC-3 JOC
Format/Info : Enhanced AC-3 with Joint Object Coding
Commercial name : Dolby Digital Plus with Dolby Atmos
Codec ID : A_EAC3
Duration : 1 h 40 min
Bit rate mode : Constant
Bit rate : 768 kb/s
Channel(s) : 6 channels
Channel layout : L R C LFE Ls Rs
Sampling rate : 48.0 kHz
Frame rate : 31.250 FPS (1536 SPF)
Compression mode : Lossy
Stream size : 554 MiB (5%)
Language : French
Service kind : Complete Main
Default : Yes
Forced : No
Complexity index : 16
Number of dynamic objects : 15
Bed channel count : 1 channel
Bed channel configuration : LFE

Text #1
ID : 3
Format : UTF-8
Codec ID : S_TEXT/UTF8
Codec ID/Info : UTF-8 Plain Text
Duration : 1 h 27 min
Bit rate : 60 b/s
Frame rate : 0.204 FPS
Count of elements : 1074
Stream size : 39.1 KiB (0%)
Language : English
Default : Yes
Forced : No

Text #2
ID : 4
Format : UTF-8
Codec ID : S_TEXT/UTF8
Codec ID/Info : UTF-8 Plain Text
Duration : 1 h 35 min
Bit rate : 75 b/s
Frame rate : 0.195 FPS
Count of elements : 1110
Stream size : 52.4 KiB (0%)
Language : Arabic
Default : No
Forced : No

Text #3
ID : 5
Format : UTF-8
Codec ID : S_TEXT/UTF8
Codec ID/Info : UTF-8 Plain Text
Duration : 1 h 35 min
Bit rate : 43 b/s
Frame rate : 0.203 FPS
Count of elements : 1160
Stream size : 30.4 KiB (0%)
Title : 简体中字
Language : Chinese
Default : No
Forced : No

Text #4
ID : 6
Format : UTF-8
Codec ID : S_TEXT/UTF8
Codec ID/Info : UTF-8 Plain Text
Duration : 1 h 35 min
Bit rate : 44 b/s
Frame rate : 0.192 FPS
Count of elements : 1094
Stream size : 30.9 KiB (0%)
Title : 繁体中字
Language : Chinese
Default : No
Forced : No

Text #5
ID : 7
Format : UTF-8
Codec ID : S_TEXT/UTF8
Codec ID/Info : UTF-8 Plain Text
Duration : 1 h 35 min
Bit rate : 51 b/s
Frame rate : 0.194 FPS
Count of elements : 1106
Stream size : 36.1 KiB (0%)
Language : Croatian
Default : No
Forced : No

Text #6
ID : 8
Format : UTF-8
Codec ID : S_TEXT/UTF8
Codec ID/Info : UTF-8 Plain Text
Duration : 1 h 35 min
Bit rate : 52 b/s
Frame rate : 0.194 FPS
Count of elements : 1105
Stream size : 36.7 KiB (0%)
Language : Czech
Default : No
Forced : No

Text #7
ID : 9
Format : UTF-8
Codec ID : S_TEXT/UTF8
Codec ID/Info : UTF-8 Plain Text
Duration : 1 h 35 min
Bit rate : 51 b/s
Frame rate : 0.190 FPS
Count of elements : 1082
Stream size : 36.2 KiB (0%)
Language : Danish
Default : No
Forced : No

Text #8
ID : 10
Format : UTF-8
Codec ID : S_TEXT/UTF8
Codec ID/Info : UTF-8 Plain Text
Duration : 1 h 35 min
Bit rate : 47 b/s
Frame rate : 0.181 FPS
Count of elements : 1033
Stream size : 33.0 KiB (0%)
Language : Dutch
Default : No
Forced : No

Text #9
ID : 11
Format : UTF-8
Codec ID : S_TEXT/UTF8
Codec ID/Info : UTF-8 Plain Text
Duration : 1 h 35 min
Bit rate : 49 b/s
Frame rate : 0.171 FPS
Count of elements : 974
Stream size : 34.6 KiB (0%)
Language : Finnish
Default : No
Forced : No

Text #10
ID : 12
Format : UTF-8
Codec ID : S_TEXT/UTF8
Codec ID/Info : UTF-8 Plain Text
Duration : 1 h 27 min
Bit rate : 66 b/s
Frame rate : 0.234 FPS
Count of elements : 1233
Stream size : 42.8 KiB (0%)
Language : French
Default : No
Forced : No

Text #11
ID : 13
Format : UTF-8
Codec ID : S_TEXT/UTF8
Codec ID/Info : UTF-8 Plain Text
Duration : 1 h 34 min
Bit rate : 68 b/s
Frame rate : 0.243 FPS
Count of elements : 1381
Stream size : 47.2 KiB (0%)
Title : SDH
Language : French
Default : No
Forced : No

Text #12
ID : 14
Format : UTF-8
Codec ID : S_TEXT/UTF8
Codec ID/Info : UTF-8 Plain Text
Duration : 1 h 35 min
Bit rate : 55 b/s
Frame rate : 0.188 FPS
Count of elements : 1074
Stream size : 38.5 KiB (0%)
Language : German
Default : No
Forced : No

Text #13
ID : 15
Format : UTF-8
Codec ID : S_TEXT/UTF8
Codec ID/Info : UTF-8 Plain Text
Duration : 1 h 35 min
Bit rate : 92 b/s
Frame rate : 0.192 FPS
Count of elements : 1095
Stream size : 64.3 KiB (0%)
Language : Greek
Default : No
Forced : No

Text #14
ID : 16
Format : UTF-8
Codec ID : S_TEXT/UTF8
Codec ID/Info : UTF-8 Plain Text
Duration : 1 h 35 min
Bit rate : 65 b/s
Frame rate : 0.195 FPS
Count of elements : 1110
Stream size : 45.4 KiB (0%)
Language : Hebrew
Default : No
Forced : No

Text #15
ID : 17
Format : UTF-8
Codec ID : S_TEXT/UTF8
Codec ID/Info : UTF-8 Plain Text
Duration : 1 h 35 min
Bit rate : 56 b/s
Frame rate : 0.190 FPS
Count of elements : 1084
Stream size : 39.1 KiB (0%)
Language : Hungarian
Default : No
Forced : No

Text #16
ID : 18
Format : UTF-8
Codec ID : S_TEXT/UTF8
Codec ID/Info : UTF-8 Plain Text
Duration : 1 h 35 min
Bit rate : 53 b/s
Frame rate : 0.199 FPS
Count of elements : 1134
Stream size : 37.4 KiB (0%)
Language : Indonesian
Default : No
Forced : No

Text #17
ID : 19
Format : UTF-8
Codec ID : S_TEXT/UTF8
Codec ID/Info : UTF-8 Plain Text
Duration : 1 h 35 min
Bit rate : 53 b/s
Frame rate : 0.187 FPS
Count of elements : 1068
Stream size : 37.5 KiB (0%)
Language : Italian
Default : No
Forced : No

Text #18
ID : 20
Format : UTF-8
Codec ID : S_TEXT/UTF8
Codec ID/Info : UTF-8 Plain Text
Duration : 1 h 35 min
Bit rate : 46 b/s
Frame rate : 0.198 FPS
Count of elements : 1131
Stream size : 32.1 KiB (0%)
Language : Japanese
Default : No
Forced : No

Text #19
ID : 21
Format : UTF-8
Codec ID : S_TEXT/UTF8
Codec ID/Info : UTF-8 Plain Text
Duration : 1 h 35 min
Bit rate : 52 b/s
Frame rate : 0.198 FPS
Count of elements : 1131
Stream size : 36.6 KiB (0%)
Language : Korean
Default : No
Forced : No

Text #20
ID : 22
Format : UTF-8
Codec ID : S_TEXT/UTF8
Codec ID/Info : UTF-8 Plain Text
Duration : 1 h 35 min
Bit rate : 53 b/s
Frame rate : 0.194 FPS
Count of elements : 1105
Stream size : 37.1 KiB (0%)
Language : Malay
Default : No
Forced : No

Text #21
ID : 23
Format : UTF-8
Codec ID : S_TEXT/UTF8
Codec ID/Info : UTF-8 Plain Text
Duration : 1 h 35 min
Bit rate : 51 b/s
Frame rate : 0.180 FPS
Count of elements : 1027
Stream size : 36.2 KiB (0%)
Language : Norwegian Bokmal
Default : No
Forced : No

Text #22
ID : 24
Format : UTF-8
Codec ID : S_TEXT/UTF8
Codec ID/Info : UTF-8 Plain Text
Duration : 1 h 35 min
Bit rate : 50 b/s
Frame rate : 0.185 FPS
Count of elements : 1053
Stream size : 35.2 KiB (0%)
Language : Polish
Default : No
Forced : No

Text #23
ID : 25
Format : UTF-8
Codec ID : S_TEXT/UTF8
Codec ID/Info : UTF-8 Plain Text
Duration : 1 h 34 min
Bit rate : 57 b/s
Frame rate : 0.189 FPS
Count of elements : 1078
Stream size : 39.9 KiB (0%)
Title : Brazilian
Language : Portuguese
Default : No
Forced : No

Text #24
ID : 26
Format : UTF-8
Codec ID : S_TEXT/UTF8
Codec ID/Info : UTF-8 Plain Text
Duration : 1 h 35 min
Bit rate : 54 b/s
Frame rate : 0.189 FPS
Count of elements : 1076
Stream size : 38.1 KiB (0%)
Title : Iberian
Language : Portuguese
Default : No
Forced : No

Text #25
ID : 27
Format : UTF-8
Codec ID : S_TEXT/UTF8
Codec ID/Info : UTF-8 Plain Text
Duration : 1 h 35 min
Bit rate : 56 b/s
Frame rate : 0.191 FPS
Count of elements : 1090
Stream size : 39.0 KiB (0%)
Language : Romanian
Default : No
Forced : No

Text #26
ID : 28
Format : UTF-8
Codec ID : S_TEXT/UTF8
Codec ID/Info : UTF-8 Plain Text
Duration : 1 h 35 min
Bit rate : 85 b/s
Frame rate : 0.196 FPS
Count of elements : 1118
Stream size : 59.4 KiB (0%)
Language : Russian
Default : No
Forced : No

Text #27
ID : 29
Format : UTF-8
Codec ID : S_TEXT/UTF8
Codec ID/Info : UTF-8 Plain Text
Duration : 1 h 35 min
Bit rate : 53 b/s
Frame rate : 0.198 FPS
Count of elements : 1130
Stream size : 37.6 KiB (0%)
Title : Castilian
Language : Spanish
Default : No
Forced : No

Text #28
ID : 30
Format : UTF-8
Codec ID : S_TEXT/UTF8
Codec ID/Info : UTF-8 Plain Text
Duration : 1 h 35 min
Bit rate : 54 b/s
Frame rate : 0.188 FPS
Count of elements : 1072
Stream size : 37.9 KiB (0%)
Title : Latin American
Language : Spanish
Default : No
Forced : No

Text #29
ID : 31
Format : UTF-8
Codec ID : S_TEXT/UTF8
Codec ID/Info : UTF-8 Plain Text
Duration : 1 h 35 min
Bit rate : 52 b/s
Frame rate : 0.193 FPS
Count of elements : 1100
Stream size : 36.4 KiB (0%)
Language : Swedish
Default : No
Forced : No

Text #30
ID : 32
Format : UTF-8
Codec ID : S_TEXT/UTF8
Codec ID/Info : UTF-8 Plain Text
Duration : 1 h 35 min
Bit rate : 117 b/s
Frame rate : 0.191 FPS
Count of elements : 1088
Stream size : 81.6 KiB (0%)
Language : Thai
Default : No
Forced : No

Text #31
ID : 33
Format : UTF-8
Codec ID : S_TEXT/UTF8
Codec ID/Info : UTF-8 Plain Text
Duration : 1 h 35 min
Bit rate : 55 b/s
Frame rate : 0.186 FPS
Count of elements : 1058
Stream size : 38.4 KiB (0%)
Language : Turkish
Default : No
Forced : No

Text #32
ID : 34
Format : UTF-8
Codec ID : S_TEXT/UTF8
Codec ID/Info : UTF-8 Plain Text
Duration : 1 h 35 min
Bit rate : 87 b/s
Frame rate : 0.195 FPS
Count of elements : 1112
Stream size : 60.9 KiB (0%)
Language : Ukrainian
Default : No
Forced : No

Text #33
ID : 35
Format : UTF-8
Codec ID : S_TEXT/UTF8
Codec ID/Info : UTF-8 Plain Text
Duration : 1 h 35 min
Bit rate : 66 b/s
Frame rate : 0.187 FPS
Count of elements : 1068
Stream size : 46.3 KiB (0%)
Language : Vietnamese
Default : No
Forced : No

推荐使用qBittorrent、uTorrent、BitComet等下载软件,有条件的推荐115或会员软件下载!

下载地址:


游客,如果您要查看本帖隐藏内容请回复





上一篇:曼克[简繁中字] / Mank (2020) 4K高清版本下载
下一篇:梦乡[简繁中字] / Slumberland (2022) 4K高清版本下载
回复

使用道具 举报

0

主题

3

帖子

33

积分

新手上路

Rank: 1

积分
33
发表于 2022-11-28 00:18:58 | 显示全部楼层
谢谢楼主
回复

使用道具 举报

0

主题

7

帖子

20

积分

新手上路

Rank: 1

积分
20
发表于 2022-11-28 18:10:39 | 显示全部楼层
谢谢楼主
回复

使用道具 举报

0

主题

7

帖子

20

积分

新手上路

Rank: 1

积分
20
发表于 2022-11-28 18:11:12 | 显示全部楼层
谢谢楼主
回复

使用道具 举报

0

主题

7

帖子

20

积分

新手上路

Rank: 1

积分
20
发表于 2022-11-28 18:11:20 | 显示全部楼层
谢谢楼主
回复

使用道具 举报

0

主题

226

帖子

1016

积分

4K家园VIP

Rank: 9Rank: 9Rank: 9

积分
1016
发表于 2022-12-9 19:56:04 | 显示全部楼层
让 江小白 来看看帖子里藏了啥好东西~~~
回复 支持 反对

使用道具 举报

您需要登录后才可以回帖 登录 | 立即注册

本版积分规则

精彩图文
Archiver|手机版|TAG|Sitemap|新帖|专题|联系我们:邮箱: 4kjia.com@gmail.com   

4k家园   ©2019