[4K电影] 解禁男女[简繁中字] / Love.and.Leashes (2022) 4K高清版本下载

[复制链接]

主题

帖子

0

积分

超级版主

Rank: 8Rank: 8

积分
0
 楼主| 发表于 2022-11-28 12:10:10 | 显示全部楼层 |阅读模式
本帖最后由 最爱4K哟 于 2023-1-17 11:14 编辑

解禁男女.png

◎译  名 道德感 / Moral Sense / Love and Leashes
◎片  名 모럴 센스
◎年  代 2022
◎产  地 韩国
◎类  别 喜剧 / 爱情
◎语  言 韩语
◎上映日期 2022-02-11(韩国网络)
◎IMDb评分 6.3/10 from 4805 users 更新 : 2022-11-25
◎IMDb链接 https://www.imdb.com/title/tt15553956/
◎豆瓣评分 6.6/10 from 33689 users 更新 : 2022-11-28
◎豆瓣链接 https://movie.douban.com/subject/35241052/
◎片  长 118分钟
◎导  演 朴贤真 Hyeon-jin Park
◎编  剧 朴贤真 Hyeon-jin Park
◎演  员 徐贤 Seohyun
       李濬荣 Joon-young Lee
       李艾 Elle Lee
       徐贤宇 Seo Hyeon-woo
       白贤珠 Hyunjoo Baek
       金汉娜 Han-na Kim
       安承钧 Seung-gyun An
       金宝罗 Bora Kim
       李世亨 Lee Suk Hyeong
       冯翠杏 Nicole Fong
       达伦·凯兰 Darren Keilan
       哈里森·徐 Harrison Xu


◎简  介


  郑智厚(李浚荣 饰)是刚刚专职到公关部的代理,巧合的是,在公关部有一个名叫郑智宥(徐珠贤 饰)的职员,两人的名字竟然意外的相似。因为名字相似,某日,郑智宥误收了寄给郑智厚的包裹,打开之后震惊的发现里面竟然是一条情趣狗链,不过,这两人的关系因为这场社死而意外的变得亲密起来,郑智宥对于郑智厚开始有了别样的感觉。
一天,郑智厚向郑智宥提出了请求,希望她能够成为自己的主人,出于对对方的感情,郑智宥答应了这个请求,并且开始了对于BDSM领域的探索,两人定下了为期三个月的契约,在这三个月里,郑智宥将每周对郑智厚进行一次调教活动。

Video
ID : 1
Format : HEVC
Format/Info : High Efficiency Video Coding
Format profile : Main 10@L5@Main
HDR format : Dolby Vision, Version 1.0, dvhe.08.06, BL+RPU, HDR10 compatible / SMPTE ST 2086, HDR10 compatible
Codec ID : V_MPEGH/ISO/HEVC
Duration : 1 h 57 min
Bit rate : 18.1 Mb/s
Width : 3 840 pixels
Height : 2 160 pixels
Display aspect ratio : 16:9
Frame rate mode : Constant
Frame rate : 23.976 (24000/1001) FPS
Color space : YUV
Chroma subsampling : 4:2:0 (Type 2)
Bit depth : 10 bits
Bits/(Pixel*Frame) : 0.091
Stream size : 14.8 GiB (96%)
Default : Yes
Forced : No
Color range : Limited
Color primaries : BT.2020
Transfer characteristics : PQ
Matrix coefficients : BT.2020 non-constant
Mastering display color primaries : Display P3
Mastering display luminance : min: 0.0001 cd/m2, max: 1000 cd/m2
Maximum Content Light Level : 850 cd/m2
Maximum Frame-Average Light Level : 169 cd/m2

Audio
ID : 2
Format : E-AC-3 JOC
Format/Info : Enhanced AC-3 with Joint Object Coding
Commercial name : Dolby Digital Plus with Dolby Atmos
Codec ID : A_EAC3
Duration : 1 h 58 min
Bit rate mode : Constant
Bit rate : 768 kb/s
Channel(s) : 6 channels
Channel layout : L R C LFE Ls Rs
Sampling rate : 48.0 kHz
Frame rate : 31.250 FPS (1536 SPF)
Compression mode : Lossy
Stream size : 652 MiB (4%)
Language : Korean
Service kind : Complete Main
Default : Yes
Forced : No
Complexity index : 16
Number of dynamic objects : 15
Bed channel count : 1 channel
Bed channel configuration : LFE

Text #1
ID : 3
Format : UTF-8
Codec ID : S_TEXT/UTF8
Codec ID/Info : UTF-8 Plain Text
Duration : 43 min 36 s
Bit rate : 0 b/s
Frame rate : 0.002 FPS
Count of elements : 6
Stream size : 153 Bytes (0%)
Title : Forced
Language : Korean
Default : Yes
Forced : Yes

Text #2
ID : 4
Format : UTF-8
Codec ID : S_TEXT/UTF8
Codec ID/Info : UTF-8 Plain Text
Duration : 1 h 56 min
Bit rate : 68 b/s
Frame rate : 0.263 FPS
Count of elements : 1842
Stream size : 58.7 KiB (0%)
Language : Korean
Default : No
Forced : No

Text #3
ID : 5
Format : UTF-8
Codec ID : S_TEXT/UTF8
Codec ID/Info : UTF-8 Plain Text
Duration : 1 h 56 min
Bit rate : 83 b/s
Frame rate : 0.263 FPS
Count of elements : 1842
Stream size : 71.2 KiB (0%)
Title : SDH
Language : Korean
Default : No
Forced : No

Text #4
ID : 6
Format : UTF-8
Codec ID : S_TEXT/UTF8
Codec ID/Info : UTF-8 Plain Text
Duration : 1 h 56 min
Bit rate : 82 b/s
Frame rate : 0.194 FPS
Count of elements : 1357
Stream size : 70.8 KiB (0%)
Language : Arabic
Default : No
Forced : No

Text #5
ID : 7
Format : UTF-8
Codec ID : S_TEXT/UTF8
Codec ID/Info : UTF-8 Plain Text
Duration : 1 h 56 min
Bit rate : 46 b/s
Frame rate : 0.193 FPS
Count of elements : 1349
Stream size : 39.5 KiB (0%)
Language : Czech
Default : No
Forced : No

Text #6
ID : 8
Format : UTF-8
Codec ID : S_TEXT/UTF8
Codec ID/Info : UTF-8 Plain Text
Duration : 1 h 56 min
Bit rate : 42 b/s
Frame rate : 0.187 FPS
Count of elements : 1311
Stream size : 36.3 KiB (0%)
Language : Danish
Default : No
Forced : No

Text #7
ID : 9
Format : UTF-8
Codec ID : S_TEXT/UTF8
Codec ID/Info : UTF-8 Plain Text
Duration : 1 h 56 min
Bit rate : 47 b/s
Frame rate : 0.197 FPS
Count of elements : 1378
Stream size : 41.0 KiB (0%)
Language : German
Default : No
Forced : No

Text #8
ID : 10
Format : UTF-8
Codec ID : S_TEXT/UTF8
Codec ID/Info : UTF-8 Plain Text
Duration : 1 h 56 min
Bit rate : 81 b/s
Frame rate : 0.192 FPS
Count of elements : 1342
Stream size : 69.5 KiB (0%)
Language : Greek
Default : No
Forced : No

Text #9
ID : 11
Format : UTF-8
Codec ID : S_TEXT/UTF8
Codec ID/Info : UTF-8 Plain Text
Duration : 1 h 53 min
Bit rate : 56 b/s
Frame rate : 0.224 FPS
Count of elements : 1531
Stream size : 46.8 KiB (0%)
Language : English
Default : No
Forced : No

Text #10
ID : 12
Format : UTF-8
Codec ID : S_TEXT/UTF8
Codec ID/Info : UTF-8 Plain Text
Duration : 1 h 56 min
Bit rate : 64 b/s
Frame rate : 0.276 FPS
Count of elements : 1933
Stream size : 55.5 KiB (0%)
Title : SDH
Language : English
Default : No
Forced : No

Text #11
ID : 13
Format : UTF-8
Codec ID : S_TEXT/UTF8
Codec ID/Info : UTF-8 Plain Text
Duration : 1 h 53 min
Bit rate : 56 b/s
Frame rate : 0.224 FPS
Count of elements : 1530
Stream size : 46.7 KiB (0%)
Language : English
Default : No
Forced : No

Text #12
ID : 14
Format : UTF-8
Codec ID : S_TEXT/UTF8
Codec ID/Info : UTF-8 Plain Text
Duration : 1 h 53 min
Bit rate : 48 b/s
Frame rate : 0.199 FPS
Count of elements : 1354
Stream size : 40.4 KiB (0%)
Language : English
Default : No
Forced : No

Text #13
ID : 15
Format : UTF-8
Codec ID : S_TEXT/UTF8
Codec ID/Info : UTF-8 Plain Text
Duration : 1 h 56 min
Bit rate : 45 b/s
Frame rate : 0.195 FPS
Count of elements : 1363
Stream size : 39.0 KiB (0%)
Language : Spanish
Default : No
Forced : No

Text #14
ID : 16
Format : UTF-8
Codec ID : S_TEXT/UTF8
Codec ID/Info : UTF-8 Plain Text
Duration : 1 h 56 min
Bit rate : 48 b/s
Frame rate : 0.195 FPS
Count of elements : 1363
Stream size : 41.4 KiB (0%)
Title : European
Language : Spanish
Default : No
Forced : No

Text #15
ID : 17
Format : UTF-8
Codec ID : S_TEXT/UTF8
Codec ID/Info : UTF-8 Plain Text
Duration : 1 h 56 min
Bit rate : 43 b/s
Frame rate : 0.163 FPS
Count of elements : 1140
Stream size : 37.0 KiB (0%)
Language : Finnish
Default : No
Forced : No

Text #16
ID : 18
Format : UTF-8
Codec ID : S_TEXT/UTF8
Codec ID/Info : UTF-8 Plain Text
Duration : 1 h 56 min
Bit rate : 46 b/s
Frame rate : 0.188 FPS
Count of elements : 1315
Stream size : 39.5 KiB (0%)
Language : fil
Default : No
Forced : No

Text #17
ID : 19
Format : UTF-8
Codec ID : S_TEXT/UTF8
Codec ID/Info : UTF-8 Plain Text
Duration : 1 h 56 min
Bit rate : 47 b/s
Frame rate : 0.195 FPS
Count of elements : 1366
Stream size : 41.0 KiB (0%)
Language : French
Default : No
Forced : No

Text #18
ID : 20
Format : UTF-8
Codec ID : S_TEXT/UTF8
Codec ID/Info : UTF-8 Plain Text
Duration : 1 h 56 min
Bit rate : 79 b/s
Frame rate : 0.192 FPS
Count of elements : 1344
Stream size : 68.1 KiB (0%)
Language : Hebrew
Default : No
Forced : No

Text #19
ID : 21
Format : UTF-8
Codec ID : S_TEXT/UTF8
Codec ID/Info : UTF-8 Plain Text
Duration : 1 h 56 min
Bit rate : 41 b/s
Frame rate : 0.194 FPS
Count of elements : 1356
Stream size : 35.7 KiB (0%)
Language : Croatian
Default : No
Forced : No

Text #20
ID : 22
Format : UTF-8
Codec ID : S_TEXT/UTF8
Codec ID/Info : UTF-8 Plain Text
Duration : 1 h 56 min
Bit rate : 44 b/s
Frame rate : 0.195 FPS
Count of elements : 1363
Stream size : 37.9 KiB (0%)
Language : Hungarian
Default : No
Forced : No

Text #21
ID : 23
Format : UTF-8
Codec ID : S_TEXT/UTF8
Codec ID/Info : UTF-8 Plain Text
Duration : 1 h 56 min
Bit rate : 42 b/s
Frame rate : 0.220 FPS
Count of elements : 1543
Stream size : 36.3 KiB (0%)
Language : Indonesian
Default : No
Forced : No

Text #22
ID : 24
Format : UTF-8
Codec ID : S_TEXT/UTF8
Codec ID/Info : UTF-8 Plain Text
Duration : 1 h 56 min
Bit rate : 52 b/s
Frame rate : 0.196 FPS
Count of elements : 1371
Stream size : 45.2 KiB (0%)
Language : Italian
Default : No
Forced : No

Text #23
ID : 25
Format : UTF-8
Codec ID : S_TEXT/UTF8
Codec ID/Info : UTF-8 Plain Text
Duration : 1 h 56 min
Bit rate : 43 b/s
Frame rate : 0.198 FPS
Count of elements : 1386
Stream size : 37.3 KiB (0%)
Language : Japanese
Default : No
Forced : No

Text #24
ID : 26
Format : UTF-8
Codec ID : S_TEXT/UTF8
Codec ID/Info : UTF-8 Plain Text
Duration : 1 h 56 min
Bit rate : 41 b/s
Frame rate : 0.200 FPS
Count of elements : 1398
Stream size : 35.5 KiB (0%)
Language : Malay
Default : No
Forced : No

Text #25
ID : 27
Format : UTF-8
Codec ID : S_TEXT/UTF8
Codec ID/Info : UTF-8 Plain Text
Duration : 1 h 56 min
Bit rate : 44 b/s
Frame rate : 0.183 FPS
Count of elements : 1285
Stream size : 38.1 KiB (0%)
Language : Norwegian Bokmal
Default : No
Forced : No

Text #26
ID : 28
Format : UTF-8
Codec ID : S_TEXT/UTF8
Codec ID/Info : UTF-8 Plain Text
Duration : 1 h 56 min
Bit rate : 41 b/s
Frame rate : 0.173 FPS
Count of elements : 1215
Stream size : 35.9 KiB (0%)
Language : Dutch
Default : No
Forced : No

Text #27
ID : 29
Format : UTF-8
Codec ID : S_TEXT/UTF8
Codec ID/Info : UTF-8 Plain Text
Duration : 1 h 56 min
Bit rate : 44 b/s
Frame rate : 0.193 FPS
Count of elements : 1350
Stream size : 38.0 KiB (0%)
Language : Polish
Default : No
Forced : No

Text #28
ID : 30
Format : UTF-8
Codec ID : S_TEXT/UTF8
Codec ID/Info : UTF-8 Plain Text
Duration : 1 h 56 min
Bit rate : 44 b/s
Frame rate : 0.195 FPS
Count of elements : 1365
Stream size : 38.2 KiB (0%)
Language : Portuguese
Default : No
Forced : No

Text #29
ID : 31
Format : UTF-8
Codec ID : S_TEXT/UTF8
Codec ID/Info : UTF-8 Plain Text
Duration : 1 h 56 min
Bit rate : 48 b/s
Frame rate : 0.190 FPS
Count of elements : 1327
Stream size : 41.1 KiB (0%)
Title : Brazilian
Language : Portuguese
Default : No
Forced : No

Text #30
ID : 32
Format : UTF-8
Codec ID : S_TEXT/UTF8
Codec ID/Info : UTF-8 Plain Text
Duration : 1 h 56 min
Bit rate : 50 b/s
Frame rate : 0.193 FPS
Count of elements : 1352
Stream size : 43.2 KiB (0%)
Language : Romanian
Default : No
Forced : No

Text #31
ID : 33
Format : UTF-8
Codec ID : S_TEXT/UTF8
Codec ID/Info : UTF-8 Plain Text
Duration : 1 h 56 min
Bit rate : 82 b/s
Frame rate : 0.195 FPS
Count of elements : 1366
Stream size : 70.6 KiB (0%)
Language : Russian
Default : No
Forced : No

Text #32
ID : 34
Format : UTF-8
Codec ID : S_TEXT/UTF8
Codec ID/Info : UTF-8 Plain Text
Duration : 1 h 53 min
Bit rate : 49 b/s
Frame rate : 0.170 FPS
Count of elements : 1160
Stream size : 41.0 KiB (0%)
Language : Swedish
Default : No
Forced : No

Text #33
ID : 35
Format : UTF-8
Codec ID : S_TEXT/UTF8
Codec ID/Info : UTF-8 Plain Text
Duration : 1 h 56 min
Bit rate : 135 b/s
Frame rate : 0.219 FPS
Count of elements : 1533
Stream size : 116 KiB (0%)
Language : Thai
Default : No
Forced : No

Text #34
ID : 36
Format : UTF-8
Codec ID : S_TEXT/UTF8
Codec ID/Info : UTF-8 Plain Text
Duration : 1 h 56 min
Bit rate : 46 b/s
Frame rate : 0.184 FPS
Count of elements : 1293
Stream size : 39.9 KiB (0%)
Language : Turkish
Default : No
Forced : No

Text #35
ID : 37
Format : UTF-8
Codec ID : S_TEXT/UTF8
Codec ID/Info : UTF-8 Plain Text
Duration : 1 h 56 min
Bit rate : 81 b/s
Frame rate : 0.195 FPS
Count of elements : 1368
Stream size : 69.4 KiB (0%)
Language : Ukrainian
Default : No
Forced : No

Text #36
ID : 38
Format : UTF-8
Codec ID : S_TEXT/UTF8
Codec ID/Info : UTF-8 Plain Text
Duration : 1 h 56 min
Bit rate : 74 b/s
Frame rate : 0.193 FPS
Count of elements : 1353
Stream size : 63.4 KiB (0%)
Language : Vietnamese
Default : No
Forced : No

Text #37
ID : 39
Format : UTF-8
Codec ID : S_TEXT/UTF8
Codec ID/Info : UTF-8 Plain Text
Duration : 1 h 56 min
Bit rate : 52 b/s
Frame rate : 0.224 FPS
Count of elements : 1566
Stream size : 45.1 KiB (0%)
Title : 简体中字
Language : Chinese
Default : No
Forced : No

Text #38
ID : 40
Format : UTF-8
Codec ID : S_TEXT/UTF8
Codec ID/Info : UTF-8 Plain Text
Duration : 1 h 56 min
Bit rate : 51 b/s
Frame rate : 0.212 FPS
Count of elements : 1483
Stream size : 44.4 KiB (0%)
Title : 繁体中字
Language : Chinese
Default : No
Forced : No

Menu
01:54:09.000 : en:End Credits

推荐使用qBittorrent、uTorrent、BitComet等下载软件,有条件的推荐115或会员软件下载!

下载地址:

游客,如果您要查看本帖隐藏内容请回复

游客,如果您要查看本帖隐藏内容请回复





上一篇:梦乡[简繁中字] / Slumberland (2022) 4K高清版本下载
下一篇:圣诞日记[简繁中字] / The Noel Diary (2022) 4K高清版本下载
回复

使用道具 举报

0

主题

1

帖子

9

积分

新手上路

Rank: 1

积分
9
发表于 2022-11-28 12:33:57 | 显示全部楼层
这个怎么下载
回复 支持 反对

使用道具 举报

主题

帖子

0

积分

新手上路

Rank: 1

积分
0
发表于 2022-11-28 19:22:45 | 显示全部楼层
:o
回复

使用道具 举报

0

主题

3

帖子

12

积分

新手上路

Rank: 1

积分
12
发表于 2022-11-28 20:00:48 | 显示全部楼层
下载看看哈
回复 支持 反对

使用道具 举报

主题

帖子

0

积分

新手上路

Rank: 1

积分
0
发表于 2022-11-29 07:35:12 | 显示全部楼层
dddddddddddddddddddddddddddddddddd
回复 支持 反对

使用道具 举报

0

主题

1

帖子

6

积分

新手上路

Rank: 1

积分
6
发表于 2022-12-5 10:42:21 | 显示全部楼层
回复

使用道具 举报

0

主题

1

帖子

6

积分

新手上路

Rank: 1

积分
6
发表于 2022-12-5 17:16:06 来自手机 | 显示全部楼层
准备下载看看
回复 支持 反对

使用道具 举报

0

主题

4

帖子

21

积分

新手上路

Rank: 1

积分
21
发表于 2022-12-6 16:04:17 来自手机 | 显示全部楼层
11YY哦lz1lz啊way假牙
回复 支持 反对

使用道具 举报

0

主题

225

帖子

1010

积分

4K家园VIP

Rank: 9Rank: 9Rank: 9

积分
1010
发表于 2022-12-9 19:55:34 | 显示全部楼层
让 江小白 来看看帖子里藏了啥好东西~~~
回复 支持 反对

使用道具 举报

0

主题

1

帖子

6

积分

新手上路

Rank: 1

积分
6
发表于 2022-12-23 11:58:53 | 显示全部楼层
看看好不好看
回复 支持 反对

使用道具 举报

您需要登录后才可以回帖 登录 | 立即注册

本版积分规则

精彩图文
Archiver|手机版|TAG|Sitemap|新帖|专题|联系我们:邮箱: 4kjia.com@gmail.com   

4k家园   ©2019