[4K电影] 365天:明日之欲[简繁中字]/The Next 365 Days(2022)4K高清版本下载

[复制链接]

主题

帖子

0

积分

超级版主

Rank: 8Rank: 8

积分
0
 楼主| 发表于 2022-11-28 12:35:55 | 显示全部楼层 |阅读模式
本帖最后由 最爱4K哟 于 2023-1-12 12:13 编辑

365天:明日之欲.png

◎译  名 接下来的365天 / 黑帮大佬和我的365日3 / 再现之欲
◎片  名 The Next 365 Days
◎年  代 2022
◎产  地 波兰
◎类  别 剧情 / 爱情
◎语  言 波兰语
◎上映日期 2022-08-19(美国网络)
◎IMDb评分 2.7/10 from 6431 users 更新 : 2022-11-24
◎IMDb链接 https://www.imdb.com/title/tt21106646/
◎豆瓣评分 4.3/10 from 4241 users 更新 : 2022-11-28
◎豆瓣链接 https://movie.douban.com/subject/35952006/
◎片  长 112分钟
◎导  演 芭芭拉·比尔拉瓦斯 Barbara Bialowas / 托马斯·曼丁斯 Tomasz Mandes
◎编  剧 芭芭拉·比尔拉瓦斯 Barbara Bialowas / 布兰卡·利平斯卡 Blanka Lipinska / 托马斯·曼丁斯 Tomasz Mandes
◎演  员 米凯莱·莫罗尼 Michele Morrone
       安娜·玛丽亚·西克拉克 Anna Maria Sieklucka
       米歇尔·莫龙 Michele Morrone
                    西蒙娜·苏辛娜 Simone Susinna
                    马格达莱娜·兰帕尔斯卡 Magdalena Lamparska
                    奥塔尔·萨拉利泽 Otar Saralidze
                    Ewa Kasprzyk Ewa Kasprzyk
                    达柳斯·雅各布斯基 Dariusz Jakubowski
                    拉蒙·兰加 Ramón Langa
                    托马斯·曼德斯 Tomasz Mandes
                    娜塔莉·西维茨 Natalia Siwiec
                    卡罗琳娜·皮萨雷克 Karolina Pisarek
                    拉法·伊瓦尼克 Rafal Iwaniuk
                    罗伯特·兹德布斯基 Robert Zdebski
                    宝琳娜·马比拉 Paulina Mabiala
                    Max Umer Max Umer
                    丹尼洛·苏辛纳 Danilo Susinna
                    彼得·曼德斯 Piotr Mandes
                    安德烈·巴科夫斯基 Andrzej Bakowski



◎简  介


  劳拉和马西莫的关系岌岌可危,二人试图克服信任问题,而执着的纳乔想方设法拆散二人。

Video
ID : 1
Format : HEVC
Format/Info : High Efficiency Video Coding
Format profile : Main 10@L5@Main
HDR format : Dolby Vision, Version 1.0, dvhe.08.07, BL+RPU, HDR10 compatible / SMPTE ST 2086, HDR10 compatible
Codec ID : V_MPEGH/ISO/HEVC
Duration : 1 h 52 min
Bit rate : 15.5 Mb/s
Width : 3 840 pixels
Height : 2 160 pixels
Display aspect ratio : 16:9
Frame rate mode : Constant
Frame rate : 25.000 FPS
Color space : YUV
Chroma subsampling : 4:2:0 (Type 2)
Bit depth : 10 bits
Bits/(Pixel*Frame) : 0.075
Stream size : 12.2 GiB (92%)
Default : Yes
Forced : No
Color range : Limited
Color primaries : BT.2020
Transfer characteristics : PQ
Matrix coefficients : BT.2020 non-constant
Mastering display color primaries : Display P3
Mastering display luminance : min: 0.0001 cd/m2, max: 1000 cd/m2
Maximum Content Light Level : 786 cd/m2
Maximum Frame-Average Light Level : 180 cd/m2

Audio #1
ID : 2
Format : E-AC-3
Format/Info : Enhanced AC-3
Commercial name : Dolby Digital Plus
Codec ID : A_EAC3
Duration : 1 h 53 min
Bit rate mode : Constant
Bit rate : 640 kb/s
Channel(s) : 6 channels
Channel layout : L R C LFE Ls Rs
Sampling rate : 48.0 kHz
Frame rate : 31.250 FPS (1536 SPF)
Compression mode : Lossy
Stream size : 521 MiB (4%)
Language : Polish
Service kind : Complete Main
Default : No
Forced : No

Audio #2
ID : 3
Format : E-AC-3
Format/Info : Enhanced AC-3
Commercial name : Dolby Digital Plus
Codec ID : A_EAC3
Duration : 1 h 53 min
Bit rate mode : Constant
Bit rate : 640 kb/s
Channel(s) : 6 channels
Channel layout : L R C LFE Ls Rs
Sampling rate : 48.0 kHz
Frame rate : 31.250 FPS (1536 SPF)
Compression mode : Lossy
Stream size : 521 MiB (4%)
Language : English
Service kind : Complete Main
Default : No
Forced : No

Text #1
ID : 4
Format : UTF-8
Codec ID : S_TEXT/UTF8
Codec ID/Info : UTF-8 Plain Text
Duration : 1 h 52 min
Bit rate : 14 b/s
Frame rate : 0.056 FPS
Count of elements : 377
Stream size : 11.6 KiB (0%)
Title : Forced
Language : English
Default : Yes
Forced : Yes

Text #2
ID : 5
Format : UTF-8
Codec ID : S_TEXT/UTF8
Codec ID/Info : UTF-8 Plain Text
Duration : 1 h 46 min
Bit rate : 12 b/s
Frame rate : 0.057 FPS
Count of elements : 367
Stream size : 9.44 KiB (0%)
Language : Polish
Default : No
Forced : No

Text #3
ID : 6
Format : UTF-8
Codec ID : S_TEXT/UTF8
Codec ID/Info : UTF-8 Plain Text
Duration : 1 h 50 min
Bit rate : 26 b/s
Frame rate : 0.115 FPS
Count of elements : 761
Stream size : 21.8 KiB (0%)
Language : English
Default : No
Forced : No

Text #4
ID : 7
Format : UTF-8
Codec ID : S_TEXT/UTF8
Codec ID/Info : UTF-8 Plain Text
Duration : 1 h 46 min
Bit rate : 12 b/s
Frame rate : 0.058 FPS
Count of elements : 368
Stream size : 9.46 KiB (0%)
Title : SDH
Language : Polish
Default : No
Forced : No

Text #5
ID : 8
Format : UTF-8
Codec ID : S_TEXT/UTF8
Codec ID/Info : UTF-8 Plain Text
Duration : 1 h 52 min
Bit rate : 67 b/s
Frame rate : 0.253 FPS
Count of elements : 1702
Stream size : 55.2 KiB (0%)
Title : SDH
Language : English
Default : No
Forced : No

Text #6
ID : 9
Format : UTF-8
Codec ID : S_TEXT/UTF8
Codec ID/Info : UTF-8 Plain Text
Duration : 1 h 50 min
Bit rate : 25 b/s
Frame rate : 0.107 FPS
Count of elements : 709
Stream size : 21.1 KiB (0%)
Language : German
Default : No
Forced : No

Text #7
ID : 10
Format : UTF-8
Codec ID : S_TEXT/UTF8
Codec ID/Info : UTF-8 Plain Text
Duration : 1 h 50 min
Bit rate : 25 b/s
Frame rate : 0.109 FPS
Count of elements : 722
Stream size : 20.5 KiB (0%)
Language : Malay
Default : No
Forced : No

Text #8
ID : 11
Format : UTF-8
Codec ID : S_TEXT/UTF8
Codec ID/Info : UTF-8 Plain Text
Duration : 1 h 45 min
Bit rate : 29 b/s
Frame rate : 0.121 FPS
Count of elements : 765
Stream size : 22.8 KiB (0%)
Language : Spanish
Default : No
Forced : No

Text #9
ID : 12
Format : UTF-8
Codec ID : S_TEXT/UTF8
Codec ID/Info : UTF-8 Plain Text
Duration : 1 h 50 min
Bit rate : 25 b/s
Frame rate : 0.097 FPS
Count of elements : 647
Stream size : 21.0 KiB (0%)
Language : Danish
Default : No
Forced : No

Text #10
ID : 13
Format : UTF-8
Codec ID : S_TEXT/UTF8
Codec ID/Info : UTF-8 Plain Text
Duration : 1 h 50 min
Bit rate : 21 b/s
Frame rate : 0.115 FPS
Count of elements : 763
Stream size : 17.6 KiB (0%)
Language : Japanese
Default : No
Forced : No

Text #11
ID : 14
Format : UTF-8
Codec ID : S_TEXT/UTF8
Codec ID/Info : UTF-8 Plain Text
Duration : 1 h 45 min
Bit rate : 24 b/s
Frame rate : 0.118 FPS
Count of elements : 743
Stream size : 19.1 KiB (0%)
Title : European
Language : Spanish
Default : No
Forced : No

Text #12
ID : 15
Format : UTF-8
Codec ID : S_TEXT/UTF8
Codec ID/Info : UTF-8 Plain Text
Duration : 1 h 50 min
Bit rate : 23 b/s
Frame rate : 0.109 FPS
Count of elements : 722
Stream size : 19.0 KiB (0%)
Language : Italian
Default : No
Forced : No

Text #13
ID : 16
Format : UTF-8
Codec ID : S_TEXT/UTF8
Codec ID/Info : UTF-8 Plain Text
Duration : 1 h 50 min
Bit rate : 42 b/s
Frame rate : 0.108 FPS
Count of elements : 714
Stream size : 34.1 KiB (0%)
Language : Ukrainian
Default : No
Forced : No

Text #14
ID : 17
Format : UTF-8
Codec ID : S_TEXT/UTF8
Codec ID/Info : UTF-8 Plain Text
Duration : 1 h 50 min
Bit rate : 28 b/s
Frame rate : 0.109 FPS
Count of elements : 726
Stream size : 23.4 KiB (0%)
Language : Korean
Default : No
Forced : No

Text #15
ID : 18
Format : UTF-8
Codec ID : S_TEXT/UTF8
Codec ID/Info : UTF-8 Plain Text
Duration : 1 h 50 min
Bit rate : 24 b/s
Frame rate : 0.108 FPS
Count of elements : 719
Stream size : 19.7 KiB (0%)
Title : Brazilian
Language : Portuguese
Default : No
Forced : No

Text #16
ID : 19
Format : UTF-8
Codec ID : S_TEXT/UTF8
Codec ID/Info : UTF-8 Plain Text
Duration : 1 h 50 min
Bit rate : 24 b/s
Frame rate : 0.110 FPS
Count of elements : 727
Stream size : 19.6 KiB (0%)
Language : Czech
Default : No
Forced : No

Text #17
ID : 20
Format : UTF-8
Codec ID : S_TEXT/UTF8
Codec ID/Info : UTF-8 Plain Text
Duration : 1 h 50 min
Bit rate : 25 b/s
Frame rate : 0.108 FPS
Count of elements : 718
Stream size : 20.9 KiB (0%)
Title : 简体中字
Language : Chinese
Default : No
Forced : No


Text #18
ID : 21
Format : UTF-8
Codec ID : S_TEXT/UTF8
Codec ID/Info : UTF-8 Plain Text
Duration : 1 h 45 min
Bit rate : 27 b/s
Frame rate : 0.106 FPS
Count of elements : 672
Stream size : 21.1 KiB (0%)
Language : Swedish
Default : No
Forced : No

Text #19
ID : 22
Format : UTF-8
Codec ID : S_TEXT/UTF8
Codec ID/Info : UTF-8 Plain Text
Duration : 1 h 50 min
Bit rate : 22 b/s
Frame rate : 0.107 FPS
Count of elements : 710
Stream size : 18.4 KiB (0%)
Language : Croatian
Default : No
Forced : No

Text #20
ID : 23
Format : UTF-8
Codec ID : S_TEXT/UTF8
Codec ID/Info : UTF-8 Plain Text
Duration : 1 h 50 min
Bit rate : 24 b/s
Frame rate : 0.107 FPS
Count of elements : 707
Stream size : 19.7 KiB (0%)
Language : Hungarian
Default : No
Forced : No

Text #21
ID : 24
Format : UTF-8
Codec ID : S_TEXT/UTF8
Codec ID/Info : UTF-8 Plain Text
Duration : 1 h 50 min
Bit rate : 25 b/s
Frame rate : 0.107 FPS
Count of elements : 710
Stream size : 20.3 KiB (0%)
Language : Basque
Default : No
Forced : No

Text #22
ID : 25
Format : UTF-8
Codec ID : S_TEXT/UTF8
Codec ID/Info : UTF-8 Plain Text
Duration : 1 h 50 min
Bit rate : 29 b/s
Frame rate : 0.105 FPS
Count of elements : 697
Stream size : 23.6 KiB (0%)
Language : fil
Default : No
Forced : No

Text #23
ID : 26
Format : UTF-8
Codec ID : S_TEXT/UTF8
Codec ID/Info : UTF-8 Plain Text
Duration : 1 h 50 min
Bit rate : 40 b/s
Frame rate : 0.109 FPS
Count of elements : 725
Stream size : 32.4 KiB (0%)
Language : Russian
Default : No
Forced : No

Text #24
ID : 27
Format : UTF-8
Codec ID : S_TEXT/UTF8
Codec ID/Info : UTF-8 Plain Text
Duration : 1 h 50 min
Bit rate : 25 b/s
Frame rate : 0.101 FPS
Count of elements : 667
Stream size : 20.7 KiB (0%)
Language : Turkish
Default : No
Forced : No

Text #25
ID : 28
Format : UTF-8
Codec ID : S_TEXT/UTF8
Codec ID/Info : UTF-8 Plain Text
Duration : 1 h 50 min
Bit rate : 24 b/s
Frame rate : 0.109 FPS
Count of elements : 723
Stream size : 20.0 KiB (0%)
Language : French
Default : No
Forced : No

Text #26
ID : 29
Format : UTF-8
Codec ID : S_TEXT/UTF8
Codec ID/Info : UTF-8 Plain Text
Duration : 1 h 50 min
Bit rate : 24 b/s
Frame rate : 0.106 FPS
Count of elements : 705
Stream size : 20.0 KiB (0%)
Language : Romanian
Default : No
Forced : No

Text #27
ID : 30
Format : UTF-8
Codec ID : S_TEXT/UTF8
Codec ID/Info : UTF-8 Plain Text
Duration : 1 h 50 min
Bit rate : 23 b/s
Frame rate : 0.106 FPS
Count of elements : 704
Stream size : 19.1 KiB (0%)
Language : Indonesian
Default : No
Forced : No

Text #28
ID : 31
Format : UTF-8
Codec ID : S_TEXT/UTF8
Codec ID/Info : UTF-8 Plain Text
Duration : 1 h 45 min
Bit rate : 66 b/s
Frame rate : 0.114 FPS
Count of elements : 720
Stream size : 51.5 KiB (0%)
Language : Thai
Default : No
Forced : No

Text #29
ID : 32
Format : UTF-8
Codec ID : S_TEXT/UTF8
Codec ID/Info : UTF-8 Plain Text
Duration : 1 h 50 min
Bit rate : 37 b/s
Frame rate : 0.108 FPS
Count of elements : 715
Stream size : 30.1 KiB (0%)
Language : Vietnamese
Default : No
Forced : No

Text #30
ID : 33
Format : UTF-8
Codec ID : S_TEXT/UTF8
Codec ID/Info : UTF-8 Plain Text
Duration : 1 h 50 min
Bit rate : 23 b/s
Frame rate : 0.113 FPS
Count of elements : 747
Stream size : 19.3 KiB (0%)
Language : Catalan
Default : No
Forced : No

Text #31
ID : 34
Format : UTF-8
Codec ID : S_TEXT/UTF8
Codec ID/Info : UTF-8 Plain Text
Duration : 1 h 50 min
Bit rate : 38 b/s
Frame rate : 0.110 FPS
Count of elements : 732
Stream size : 31.6 KiB (0%)
Language : Arabic
Default : No
Forced : No

Text #32
ID : 35
Format : UTF-8
Codec ID : S_TEXT/UTF8
Codec ID/Info : UTF-8 Plain Text
Duration : 1 h 50 min
Bit rate : 23 b/s
Frame rate : 0.103 FPS
Count of elements : 686
Stream size : 19.0 KiB (0%)
Language : Dutch
Default : No
Forced : No

Text #33
ID : 36
Format : UTF-8
Codec ID : S_TEXT/UTF8
Codec ID/Info : UTF-8 Plain Text
Duration : 1 h 50 min
Bit rate : 24 b/s
Frame rate : 0.108 FPS
Count of elements : 716
Stream size : 19.5 KiB (0%)
Title : 繁体中字
Language : Chinese
Default : No
Forced : No


Text #34
ID : 37
Format : UTF-8
Codec ID : S_TEXT/UTF8
Codec ID/Info : UTF-8 Plain Text
Duration : 1 h 46 min
Bit rate : 27 b/s
Frame rate : 0.104 FPS
Count of elements : 668
Stream size : 21.3 KiB (0%)
Language : Norwegian Bokmal
Default : No
Forced : No

Text #35
ID : 38
Format : UTF-8
Codec ID : S_TEXT/UTF8
Codec ID/Info : UTF-8 Plain Text
Duration : 1 h 50 min
Bit rate : 23 b/s
Frame rate : 0.106 FPS
Count of elements : 705
Stream size : 19.3 KiB (0%)
Language : Finnish
Default : No
Forced : No

Text #36
ID : 39
Format : UTF-8
Codec ID : S_TEXT/UTF8
Codec ID/Info : UTF-8 Plain Text
Duration : 1 h 50 min
Bit rate : 41 b/s
Frame rate : 0.109 FPS
Count of elements : 724
Stream size : 33.9 KiB (0%)
Language : Greek
Default : No
Forced : No

Text #37
ID : 40
Format : UTF-8
Codec ID : S_TEXT/UTF8
Codec ID/Info : UTF-8 Plain Text
Duration : 1 h 50 min
Bit rate : 25 b/s
Frame rate : 0.108 FPS
Count of elements : 716
Stream size : 20.5 KiB (0%)
Language : Portuguese
Default : No
Forced : No

Text #38
ID : 41
Format : UTF-8
Codec ID : S_TEXT/UTF8
Codec ID/Info : UTF-8 Plain Text
Duration : 1 h 50 min
Bit rate : 35 b/s
Frame rate : 0.107 FPS
Count of elements : 708
Stream size : 29.0 KiB (0%)
Language : Hebrew
Default : No
Forced : No

Text #39
ID : 42
Format : UTF-8
Codec ID : S_TEXT/UTF8
Codec ID/Info : UTF-8 Plain Text
Duration : 1 h 50 min
Bit rate : 22 b/s
Frame rate : 0.108 FPS
Count of elements : 718
Stream size : 18.2 KiB (0%)
Language : Galician
Default : No
Forced : No

推荐使用qBittorrent、uTorrent、BitComet等下载软件,有条件的推荐115或会员软件下载!

下载地址:

游客,如果您要查看本帖隐藏内容请回复

游客,如果您要查看本帖隐藏内容请回复






上一篇:圣诞日记[简繁中字] / The Noel Diary (2022) 4K高清版本下载
下一篇:365天:今时之欲 [简繁中字] / 365 Days (2022) 4K高清版本下载
回复

使用道具 举报

0

主题

225

帖子

1010

积分

4K家园VIP

Rank: 9Rank: 9Rank: 9

积分
1010
发表于 2022-12-9 20:00:58 | 显示全部楼层
楼主辛苦了,谢谢楼主,感谢楼主分享,楼主好人一生平安!!!
回复 支持 反对

使用道具 举报

0

主题

5

帖子

27

积分

新手上路

Rank: 1

积分
27
发表于 2022-12-20 14:32:06 | 显示全部楼层
感谢楼主分享
回复 支持 反对

使用道具 举报

0

主题

3

帖子

15

积分

新手上路

Rank: 1

积分
15
发表于 2022-12-25 10:07:49 | 显示全部楼层
辛苦辛苦
回复

使用道具 举报

1

主题

233

帖子

5937

积分

高级会员

Rank: 3Rank: 3

积分
5937
发表于 2022-12-27 07:31:26 | 显示全部楼层
感谢楼主分享
回复 支持 反对

使用道具 举报

您需要登录后才可以回帖 登录 | 立即注册

本版积分规则

精彩图文
Archiver|手机版|TAG|Sitemap|新帖|专题|联系我们:邮箱: 4kjia.com@gmail.com   

4k家园   ©2019