[4K UHD 蓝光原盘] 敦刻尔克[简繁粤中字]/ Dunkirk (2017) 4K蓝光[原盘+REMUX]版本下载

[复制链接]

主题

帖子

0

积分

超级版主

Rank: 8Rank: 8

积分
0
 楼主| 发表于 2022-11-29 14:29:18 | 显示全部楼层 |阅读模式
本帖最后由 没完没了 于 2022-12-4 11:23 编辑

敦刻尔克.png

◎标  题 敦刻尔克
◎译  名 邓寇克大行动(港) / 敦克尔克大行动(台) / 敦刻尔克大撤退
◎片  名 Dunkirk
◎年  代 2017
◎产  地 英国 / 法国 / 美国 / 荷兰
◎类  别 剧情 / 历史 / 战争
◎语  言 英语 / 法语 / 德语
◎上映日期 2017-09-01(中国大陆) / 2017-07-13(伦敦首映) / 2017-07-21(美国)
◎IMDb评分 7.8/10 from 656207 users 更新 : 2022-11-28
◎IMDb链接 https://www.imdb.com/title/tt5013056/
◎豆瓣评分 8.4/10 from 677422 users 更新 : 2022-11-29
◎豆瓣链接 https://movie.douban.com/subject/26607693/
◎片  长 107分钟
◎导  演 克里斯托弗·诺兰 Christopher Nolan
◎编  剧 克里斯托弗·诺兰 Christopher Nolan
◎演  员 菲恩·怀特海德 Fionn Whitehead
       汤姆·格林-卡尼 Tom Glynn-Carney
       杰克·劳登 Jack Lowden
       哈里·斯泰尔斯 Harry Styles
       阿奈林·巴纳德 Aneurin Barnard
       汤姆·哈迪 Tom Hardy
       马克·里朗斯 Mark Rylance
       巴里·基奥恩 Barry Keoghan
       基里安·墨菲 Cillian Murphy
       詹姆斯·达西 James D'Arcy
       肯尼思·布拉纳 Kenneth Branagh
       李·阿姆斯特朗 Lee Armstrong
       詹姆斯·布鲁尔 James Bloor
       达米安·勃纳尔 Damien Bonnard
       布莱恩·威纳尔 Brian Vernel
       哈利·理查森 Harry Richardson
       艾略特·提特恩索 Elliott Tittensor
       凯文·格思里 Kevin Guthrie
       巴比·洛克伍德 Bobby Lockwood
       米歇尔·贝尔 Michel Biel
       比利·豪尔 Billy Howle
       迈克尔·凯恩 Michael Caine
       约翰·诺兰 John Nolan
       米兰达·诺兰 Miranda Nolan
       马修·马什 Matthew Marsh
       布莱德利·豪尔 Bradley Hall
       杰克·卡特莫尔-斯科特 Jack Cutmore-Scott
       威尔·阿滕伯勒 Will Attenborough
       理查德·桑德森 Richard Sanderson
       金·哈特曼 Kim Hartman
       查理·帕尔默·罗斯韦尔 Charley Palmer Rothwell
       卡勒姆·布雷克 Callum Blake
       卢克·汤普森 Luke Thompson
       哈利·柯勒特 Harry Collett
       迈克尔·福克斯 Michael Fox
       卡拉姆·林奇 Calam Lynch
       比尔·米尔纳 Bill Milner
       克里斯托弗·诺兰 Christopher Nolan
       艾玛·托马斯 Emma Thomas
       汉斯·季默 Hans Zimmer
       霍伊特·范·霍特玛 Hoyte Van Hoytema
       李·史密斯 Lee Smith
       杰弗里·库兰 Jeffrey Kurland
       理查德·金 Richard King


◎简  介


  故事改编自著名的二战军事事件“敦刻尔克大撤退”。二战初期,40万英法盟军被敌军围困于敦刻尔克的海滩之上,面对敌军步步逼近的绝境,形势万分危急。英国政府和海军发动大批船员,动员人民起来营救军队。
英国士兵汤米(菲昂·怀特海德 Fionn Whitehead 饰)在逃离海滩的过程中相继结识吉布森与亚历克斯,同时民用船主道森先生(马克·里朗斯 Mark Rylance 饰)与儿子彼得、17岁少年乔治也离开英国,去往敦刻尔克拯救士兵。三人陆续搭救了海军(基里安·墨菲 Cillian Murphy 饰)、飞行员柯林斯及汤米一行人,而战斗机飞行员法瑞尔(汤姆·哈迪 Tom Hardy 饰)则在被敌人双面夹击的艰难情形下顽强战斗。
影片的故事从陆、海、空三个角度讲述,在德国军队的包围下,每个人不得不为自己的命运背水一战,才有可能活着回家。
Video
ID : 1
ID in the original source medium : 4113 (0x1011)
Format : HEVC
Format/Info : High Efficiency Video Coding
Format profile : Main 10@L5.1@High
HDR format : SMPTE ST 2086, HDR10 compatible
Codec ID : V_MPEGH/ISO/HEVC
Duration : 1 h 46 min
Bit rate : 58.2 Mb/s
Width : 3 840 pixels
Height : 2 160 pixels
Display aspect ratio : 16:9
Frame rate mode : Constant
Frame rate : 23.976 (24000/1001) FPS
Color space : YUV
Chroma subsampling : 4:2:0 (Type 2)
Bit depth : 10 bits
Bits/(Pixel*Frame) : 0.293
Stream size : 43.4 GiB (83%)
Language : English
Default : No
Forced : No
Color range : Limited
Color primaries : BT.2020
Transfer characteristics : PQ
Matrix coefficients : BT.2020 non-constant
Mastering display color primaries : Display P3
Mastering display luminance : min: 0.0050 cd/m2, max: 4000 cd/m2
Maximum Content Light Level : 323 cd/m2
Maximum Frame-Average Light Level : 144 cd/m2
Original source medium : Blu-ray

Audio #1
ID : 2
ID in the original source medium : 4352 (0x1100)
Format : DTS XLL
Format/Info : Digital Theater Systems
Commercial name : DTS-HD Master Audio
Codec ID : A_DTS
Duration : 1 h 46 min
Bit rate mode : Variable
Bit rate : 2 411 kb/s
Channel(s) : 6 channels
Channel layout : C L R Ls Rs LFE
Sampling rate : 48.0 kHz
Frame rate : 93.750 FPS (512 SPF)
Bit depth : 16 bits
Compression mode : Lossless
Stream size : 1.80 GiB (3%)
Title : DTS-HD MA 5.1
Language : English
Default : Yes
Forced : No
Original source medium : Blu-ray

Audio #2
ID : 3
Format : AC-3
Format/Info : Audio Coding 3
Commercial name : Dolby Digital
Codec ID : A_AC3
Duration : 1 h 46 min
Bit rate mode : Constant
Bit rate : 640 kb/s
Channel(s) : 6 channels
Channel layout : L R C LFE Ls Rs
Sampling rate : 48.0 kHz
Frame rate : 31.250 FPS (1536 SPF)
Compression mode : Lossy
Stream size : 488 MiB (1%)
Title : DD 5.1
Language : English
Service kind : Complete Main
Default : No
Forced : No

Audio #3
ID : 4
ID in the original source medium : 4353 (0x1101)
Format : AC-3
Format/Info : Audio Coding 3
Commercial name : Dolby Digital
Codec ID : A_AC3
Duration : 1 h 46 min
Bit rate mode : Constant
Bit rate : 448 kb/s
Channel(s) : 6 channels
Channel layout : L R C LFE Ls Rs
Sampling rate : 48.0 kHz
Frame rate : 31.250 FPS (1536 SPF)
Compression mode : Lossy
Stream size : 342 MiB (1%)
Title : DD 5.1
Language : English
Service kind : Complete Main
Default : No
Forced : No
Original source medium : Blu-ray

Audio #4
ID : 5
ID in the original source medium : 4354 (0x1102)
Format : DTS XLL
Format/Info : Digital Theater Systems
Commercial name : DTS-HD Master Audio
Codec ID : A_DTS
Duration : 1 h 46 min
Bit rate mode : Variable
Bit rate : 2 412 kb/s
Channel(s) : 6 channels
Channel layout : C L R Ls Rs LFE
Sampling rate : 48.0 kHz
Frame rate : 93.750 FPS (512 SPF)
Bit depth : 16 bits
Compression mode : Lossless
Stream size : 1.80 GiB (3%)
Title : DTS-HD MA 5.1
Language : French
Default : No
Forced : No
Original source medium : Blu-ray

Audio #5
ID : 6
ID in the original source medium : 4355 (0x1103)
Format : DTS XLL
Format/Info : Digital Theater Systems
Commercial name : DTS-HD Master Audio
Codec ID : A_DTS
Duration : 1 h 46 min
Bit rate mode : Variable
Bit rate : 2 440 kb/s
Channel(s) : 6 channels
Channel layout : C L R Ls Rs LFE
Sampling rate : 48.0 kHz
Frame rate : 93.750 FPS (512 SPF)
Bit depth : 16 bits
Compression mode : Lossless
Stream size : 1.82 GiB (3%)
Title : DTS-HD MA 5.1
Language : Italian
Default : No
Forced : No
Original source medium : Blu-ray

Audio #6
ID : 7
ID in the original source medium : 4356 (0x1104)
Format : AC-3
Format/Info : Audio Coding 3
Commercial name : Dolby Digital
Codec ID : A_AC3
Duration : 1 h 46 min
Bit rate mode : Constant
Bit rate : 448 kb/s
Channel(s) : 6 channels
Channel layout : L R C LFE Ls Rs
Sampling rate : 48.0 kHz
Frame rate : 31.250 FPS (1536 SPF)
Compression mode : Lossy
Stream size : 342 MiB (1%)
Title : DD 5.1
Language : Chinese
Service kind : Complete Main
Default : No
Forced : No
Original source medium : Blu-ray


Audio #7
ID : 8
ID in the original source medium : 4357 (0x1105)
Format : AC-3
Format/Info : Audio Coding 3
Commercial name : Dolby Digital
Codec ID : A_AC3
Duration : 1 h 46 min
Bit rate mode : Constant
Bit rate : 448 kb/s
Channel(s) : 6 channels
Channel layout : L R C LFE Ls Rs
Sampling rate : 48.0 kHz
Frame rate : 31.250 FPS (1536 SPF)
Compression mode : Lossy
Stream size : 342 MiB (1%)
Title : DD 5.1
Language : Czech
Service kind : Complete Main
Default : No
Forced : No
Original source medium : Blu-ray

Audio #8
ID : 9
ID in the original source medium : 4358 (0x1106)
Format : AC-3
Format/Info : Audio Coding 3
Commercial name : Dolby Digital
Codec ID : A_AC3
Duration : 1 h 46 min
Bit rate mode : Constant
Bit rate : 448 kb/s
Channel(s) : 6 channels
Channel layout : L R C LFE Ls Rs
Sampling rate : 48.0 kHz
Frame rate : 31.250 FPS (1536 SPF)
Compression mode : Lossy
Stream size : 342 MiB (1%)
Title : DD 5.1
Language : Hungarian
Service kind : Complete Main
Default : No
Forced : No
Original source medium : Blu-ray

Audio #9
ID : 10
ID in the original source medium : 4359 (0x1107)
Format : AC-3
Format/Info : Audio Coding 3
Commercial name : Dolby Digital
Codec ID : A_AC3
Duration : 1 h 46 min
Bit rate mode : Constant
Bit rate : 448 kb/s
Channel(s) : 6 channels
Channel layout : L R C LFE Ls Rs
Sampling rate : 48.0 kHz
Frame rate : 31.250 FPS (1536 SPF)
Compression mode : Lossy
Stream size : 342 MiB (1%)
Title : DD 5.1
Language : Polish
Service kind : Complete Main
Default : No
Forced : No
Original source medium : Blu-ray

Audio #10
ID : 11
ID in the original source medium : 4360 (0x1108)
Format : AC-3
Format/Info : Audio Coding 3
Commercial name : Dolby Digital
Codec ID : A_AC3
Duration : 1 h 46 min
Bit rate mode : Constant
Bit rate : 448 kb/s
Channel(s) : 6 channels
Channel layout : L R C LFE Ls Rs
Sampling rate : 48.0 kHz
Frame rate : 31.250 FPS (1536 SPF)
Compression mode : Lossy
Stream size : 342 MiB (1%)
Title : DD 5.1
Language : Russian
Service kind : Complete Main
Default : No
Forced : No
Original source medium : Blu-ray

Audio #11
ID : 12
ID in the original source medium : 4361 (0x1109)
Format : AC-3
Format/Info : Audio Coding 3
Commercial name : Dolby Digital
Codec ID : A_AC3
Duration : 1 h 46 min
Bit rate mode : Constant
Bit rate : 448 kb/s
Channel(s) : 6 channels
Channel layout : L R C LFE Ls Rs
Sampling rate : 48.0 kHz
Frame rate : 31.250 FPS (1536 SPF)
Compression mode : Lossy
Stream size : 342 MiB (1%)
Title : DD 5.1
Language : Thai
Service kind : Complete Main
Default : No
Forced : No
Original source medium : Blu-ray

Audio #12
ID : 13
ID in the original source medium : 4362 (0x110A)
Format : AC-3
Format/Info : Audio Coding 3
Commercial name : Dolby Digital
Codec ID : A_AC3
Duration : 1 h 46 min
Bit rate mode : Constant
Bit rate : 448 kb/s
Channel(s) : 6 channels
Channel layout : L R C LFE Ls Rs
Sampling rate : 48.0 kHz
Frame rate : 31.250 FPS (1536 SPF)
Compression mode : Lossy
Stream size : 342 MiB (1%)
Title : DD 5.1
Language : Turkish
Service kind : Complete Main
Default : No
Forced : No
Original source medium : Blu-ray

Text #1
ID : 14
Format : UTF-8
Codec ID : S_TEXT/UTF8
Codec ID/Info : UTF-8 Plain Text
Duration : 1 h 43 min
Bit rate : 24 b/s
Frame rate : 0.110 FPS
Count of elements : 688
Stream size : 18.7 KiB (0%)
Language : English
Default : Yes
Forced : No

Text #2
ID : 15
Format : UTF-8
Codec ID : S_TEXT/UTF8
Codec ID/Info : UTF-8 Plain Text
Duration : 1 h 45 min
Bit rate : 28 b/s
Frame rate : 0.135 FPS
Count of elements : 852
Stream size : 21.7 KiB (0%)
Title : SDH
Language : English
Default : No
Forced : No

Text #3
ID : 16
ID in the original source medium : 4768 (0x12A0)
Format : PGS
Muxing mode : zlib
Codec ID : S_HDMV/PGS
Codec ID/Info : Picture based subtitle format used on BDs/HD-DVDs
Duration : 1 h 45 min
Bit rate : 18.9 kb/s
Frame rate : 0.272 FPS
Count of elements : 1718
Stream size : 14.3 MiB (0%)
Language : English
Default : No
Forced : No
Original source medium : Blu-ray

Text #4
ID : 17
ID in the original source medium : 4769 (0x12A1)
Format : PGS
Muxing mode : zlib
Codec ID : S_HDMV/PGS
Codec ID/Info : Picture based subtitle format used on BDs/HD-DVDs
Duration : 1 h 46 min
Bit rate : 10.9 kb/s
Frame rate : 0.204 FPS
Count of elements : 1296
Stream size : 8.30 MiB (0%)
Language : French
Default : No
Forced : No
Original source medium : Blu-ray

Text #5
ID : 18
ID in the original source medium : 4770 (0x12A2)
Format : PGS
Muxing mode : zlib
Codec ID : S_HDMV/PGS
Codec ID/Info : Picture based subtitle format used on BDs/HD-DVDs
Duration : 1 h 45 min
Bit rate : 16.9 kb/s
Frame rate : 0.277 FPS
Count of elements : 1754
Stream size : 12.8 MiB (0%)
Language : Italian
Default : No
Forced : No
Original source medium : Blu-ray

Text #6
ID : 19
ID in the original source medium : 4771 (0x12A3)
Format : PGS
Muxing mode : zlib
Codec ID : S_HDMV/PGS
Codec ID/Info : Picture based subtitle format used on BDs/HD-DVDs
Duration : 1 h 45 min
Bit rate : 12.0 kb/s
Frame rate : 0.202 FPS
Count of elements : 1282
Stream size : 9.07 MiB (0%)
Language : Dutch
Default : No
Forced : No
Original source medium : Blu-ray

Text #7
ID : 20
ID in the original source medium : 4772 (0x12A4)
Format : PGS
Muxing mode : zlib
Codec ID : S_HDMV/PGS
Codec ID/Info : Picture based subtitle format used on BDs/HD-DVDs
Duration : 1 h 45 min
Bit rate : 10.9 kb/s
Frame rate : 0.215 FPS
Count of elements : 1366
Stream size : 8.26 MiB (0%)
Language : Chinese
Default : No
Forced : No
Original source medium : Blu-ray

Text #8
ID : 21
ID in the original source medium : 4773 (0x12A5)
Format : PGS
Muxing mode : zlib
Codec ID : S_HDMV/PGS
Codec ID/Info : Picture based subtitle format used on BDs/HD-DVDs
Duration : 1 h 46 min
Bit rate : 16.1 kb/s
Frame rate : 0.206 FPS
Count of elements : 1310
Stream size : 12.2 MiB (0%)
Language : Chinese
Default : No
Forced : No
Original source medium : Blu-ray

Text #9
ID : 22
ID in the original source medium : 4774 (0x12A6)
Format : PGS
Muxing mode : zlib
Codec ID : S_HDMV/PGS
Codec ID/Info : Picture based subtitle format used on BDs/HD-DVDs
Duration : 1 h 46 min
Bit rate : 11.8 kb/s
Frame rate : 0.224 FPS
Count of elements : 1424
Stream size : 8.92 MiB (0%)
Language : Chinese
Default : No
Forced : No
Original source medium : Blu-ray

Text #10
ID : 23
ID in the original source medium : 4775 (0x12A7)
Format : PGS
Muxing mode : zlib
Codec ID : S_HDMV/PGS
Codec ID/Info : Picture based subtitle format used on BDs/HD-DVDs
Duration : 1 h 46 min
Bit rate : 7 996 b/s
Frame rate : 0.220 FPS
Count of elements : 1402
Stream size : 6.07 MiB (0%)
Language : Korean
Default : No
Forced : No
Original source medium : Blu-ray

Text #11
ID : 24
ID in the original source medium : 4776 (0x12A8)
Format : PGS
Muxing mode : zlib
Codec ID : S_HDMV/PGS
Codec ID/Info : Picture based subtitle format used on BDs/HD-DVDs
Duration : 1 h 46 min
Bit rate : 7 968 b/s
Frame rate : 0.225 FPS
Count of elements : 1432
Stream size : 6.05 MiB (0%)
Language : Arabic
Default : No
Forced : No
Original source medium : Blu-ray

Text #12
ID : 25
ID in the original source medium : 4777 (0x12A9)
Format : PGS
Muxing mode : zlib
Codec ID : S_HDMV/PGS
Codec ID/Info : Picture based subtitle format used on BDs/HD-DVDs
Duration : 1 h 45 min
Bit rate : 14.3 kb/s
Frame rate : 0.223 FPS
Count of elements : 1416
Stream size : 10.8 MiB (0%)
Language : Croatian
Default : No
Forced : No
Original source medium : Blu-ray

Text #13
ID : 26
ID in the original source medium : 4778 (0x12AA)
Format : PGS
Muxing mode : zlib
Codec ID : S_HDMV/PGS
Codec ID/Info : Picture based subtitle format used on BDs/HD-DVDs
Duration : 1 h 46 min
Bit rate : 12.4 kb/s
Frame rate : 0.224 FPS
Count of elements : 1424
Stream size : 9.45 MiB (0%)
Language : Czech
Default : No
Forced : No
Original source medium : Blu-ray

Text #14
ID : 27
ID in the original source medium : 4779 (0x12AB)
Format : PGS
Muxing mode : zlib
Codec ID : S_HDMV/PGS
Codec ID/Info : Picture based subtitle format used on BDs/HD-DVDs
Duration : 1 h 45 min
Bit rate : 12.8 kb/s
Frame rate : 0.170 FPS
Count of elements : 1078
Stream size : 9.70 MiB (0%)
Language : Danish
Default : No
Forced : No
Original source medium : Blu-ray

Text #15
ID : 28
ID in the original source medium : 4780 (0x12AC)
Format : PGS
Muxing mode : zlib
Codec ID : S_HDMV/PGS
Codec ID/Info : Picture based subtitle format used on BDs/HD-DVDs
Duration : 1 h 45 min
Bit rate : 14.9 kb/s
Frame rate : 0.224 FPS
Count of elements : 1420
Stream size : 11.3 MiB (0%)
Language : Finnish
Default : No
Forced : No
Original source medium : Blu-ray

Text #16
ID : 29
ID in the original source medium : 4781 (0x12AD)
Format : PGS
Muxing mode : zlib
Codec ID : S_HDMV/PGS
Codec ID/Info : Picture based subtitle format used on BDs/HD-DVDs
Duration : 1 h 46 min
Bit rate : 16.5 kb/s
Frame rate : 0.223 FPS
Count of elements : 1420
Stream size : 12.5 MiB (0%)
Language : Greek
Default : No
Forced : No
Original source medium : Blu-ray

Text #17
ID : 30
ID in the original source medium : 4782 (0x12AE)
Format : PGS
Muxing mode : zlib
Codec ID : S_HDMV/PGS
Codec ID/Info : Picture based subtitle format used on BDs/HD-DVDs
Duration : 1 h 46 min
Bit rate : 9 729 b/s
Frame rate : 0.224 FPS
Count of elements : 1424
Stream size : 7.38 MiB (0%)
Language : Hebrew
Default : No
Forced : No
Original source medium : Blu-ray

Text #18
ID : 31
ID in the original source medium : 4783 (0x12AF)
Format : PGS
Muxing mode : zlib
Codec ID : S_HDMV/PGS
Codec ID/Info : Picture based subtitle format used on BDs/HD-DVDs
Duration : 1 h 45 min
Bit rate : 14.0 kb/s
Frame rate : 0.220 FPS
Count of elements : 1394
Stream size : 10.6 MiB (0%)
Language : Hungarian
Default : No
Forced : No
Original source medium : Blu-ray

Text #19
ID : 32
ID in the original source medium : 4784 (0x12B0)
Format : PGS
Muxing mode : zlib
Codec ID : S_HDMV/PGS
Codec ID/Info : Picture based subtitle format used on BDs/HD-DVDs
Duration : 1 h 45 min
Bit rate : 12.1 kb/s
Frame rate : 0.171 FPS
Count of elements : 1088
Stream size : 9.14 MiB (0%)
Language : Norwegian
Default : No
Forced : No
Original source medium : Blu-ray

Text #20
ID : 33
ID in the original source medium : 4785 (0x12B1)
Format : PGS
Muxing mode : zlib
Codec ID : S_HDMV/PGS
Codec ID/Info : Picture based subtitle format used on BDs/HD-DVDs
Duration : 1 h 46 min
Bit rate : 12.2 kb/s
Frame rate : 0.218 FPS
Count of elements : 1390
Stream size : 9.24 MiB (0%)
Language : Polish
Default : No
Forced : No
Original source medium : Blu-ray

Text #21
ID : 34
ID in the original source medium : 4786 (0x12B2)
Format : PGS
Muxing mode : zlib
Codec ID : S_HDMV/PGS
Codec ID/Info : Picture based subtitle format used on BDs/HD-DVDs
Duration : 1 h 45 min
Bit rate : 15.0 kb/s
Frame rate : 0.225 FPS
Count of elements : 1424
Stream size : 11.3 MiB (0%)
Language : Portuguese
Default : No
Forced : No
Original source medium : Blu-ray

Text #22
ID : 35
ID in the original source medium : 4787 (0x12B3)
Format : PGS
Muxing mode : zlib
Codec ID : S_HDMV/PGS
Codec ID/Info : Picture based subtitle format used on BDs/HD-DVDs
Duration : 1 h 45 min
Bit rate : 13.6 kb/s
Frame rate : 0.219 FPS
Count of elements : 1386
Stream size : 10.3 MiB (0%)
Language : Romanian
Default : No
Forced : No
Original source medium : Blu-ray

Text #23
ID : 36
ID in the original source medium : 4788 (0x12B4)
Format : PGS
Muxing mode : zlib
Codec ID : S_HDMV/PGS
Codec ID/Info : Picture based subtitle format used on BDs/HD-DVDs
Duration : 1 h 46 min
Bit rate : 14.1 kb/s
Frame rate : 0.203 FPS
Count of elements : 1292
Stream size : 10.7 MiB (0%)
Language : Russian
Default : No
Forced : No
Original source medium : Blu-ray

Text #24
ID : 37
ID in the original source medium : 4789 (0x12B5)
Format : PGS
Muxing mode : zlib
Codec ID : S_HDMV/PGS
Codec ID/Info : Picture based subtitle format used on BDs/HD-DVDs
Duration : 1 h 45 min
Bit rate : 13.9 kb/s
Frame rate : 0.220 FPS
Count of elements : 1394
Stream size : 10.5 MiB (0%)
Language : Swedish
Default : No
Forced : No
Original source medium : Blu-ray

Text #25
ID : 38
ID in the original source medium : 4790 (0x12B6)
Format : PGS
Muxing mode : zlib
Codec ID : S_HDMV/PGS
Codec ID/Info : Picture based subtitle format used on BDs/HD-DVDs
Duration : 1 h 46 min
Bit rate : 11.7 kb/s
Frame rate : 0.224 FPS
Count of elements : 1426
Stream size : 8.86 MiB (0%)
Language : Thai
Default : No
Forced : No
Original source medium : Blu-ray

Text #26
ID : 39
ID in the original source medium : 4791 (0x12B7)
Format : PGS
Muxing mode : zlib
Codec ID : S_HDMV/PGS
Codec ID/Info : Picture based subtitle format used on BDs/HD-DVDs
Duration : 1 h 45 min
Bit rate : 14.3 kb/s
Frame rate : 0.222 FPS
Count of elements : 1406
Stream size : 10.8 MiB (0%)
Language : Turkish
Default : No
Forced : No
Original source medium : Blu-ray

Text #27
ID : 40
ID in the original source medium : 4792 (0x12B8)
Format : PGS
Muxing mode : zlib
Codec ID : S_HDMV/PGS
Codec ID/Info : Picture based subtitle format used on BDs/HD-DVDs
Duration : 1 h 45 min
Bit rate : 376 b/s
Frame rate : 0.005 FPS
Count of elements : 34
Stream size : 291 KiB (0%)
Language : French
Default : No
Forced : No
Original source medium : Blu-ray

Text #28
ID : 41
ID in the original source medium : 4793 (0x12B9)
Format : PGS
Muxing mode : zlib
Codec ID : S_HDMV/PGS
Codec ID/Info : Picture based subtitle format used on BDs/HD-DVDs
Duration : 1 h 45 min
Bit rate : 515 b/s
Frame rate : 0.006 FPS
Count of elements : 38
Stream size : 399 KiB (0%)
Language : Italian
Default : No
Forced : No
Original source medium : Blu-ray

Text #29
ID : 42
ID in the original source medium : 4794 (0x12BA)
Format : PGS
Muxing mode : zlib
Codec ID : S_HDMV/PGS
Codec ID/Info : Picture based subtitle format used on BDs/HD-DVDs
Duration : 1 h 45 min
Bit rate : 620 b/s
Frame rate : 0.008 FPS
Count of elements : 48
Stream size : 480 KiB (0%)
Language : Chinese
Default : No
Forced : No
Original source medium : Blu-ray

Text #30
ID : 43
ID in the original source medium : 4795 (0x12BB)
Format : PGS
Muxing mode : zlib
Codec ID : S_HDMV/PGS
Codec ID/Info : Picture based subtitle format used on BDs/HD-DVDs
Duration : 1 h 40 min
Bit rate : 91 b/s
Frame rate : 0.003 FPS
Count of elements : 18
Stream size : 67.3 KiB (0%)
Language : Czech
Default : No
Forced : No
Original source medium : Blu-ray

Text #31
ID : 44
ID in the original source medium : 4796 (0x12BC)
Format : PGS
Muxing mode : zlib
Codec ID : S_HDMV/PGS
Codec ID/Info : Picture based subtitle format used on BDs/HD-DVDs
Duration : 1 h 45 min
Bit rate : 538 b/s
Frame rate : 0.006 FPS
Count of elements : 38
Stream size : 417 KiB (0%)
Language : Hungarian
Default : No
Forced : No
Original source medium : Blu-ray

Text #32
ID : 45
ID in the original source medium : 4797 (0x12BD)
Format : PGS
Muxing mode : zlib
Codec ID : S_HDMV/PGS
Codec ID/Info : Picture based subtitle format used on BDs/HD-DVDs
Duration : 1 h 45 min
Bit rate : 895 b/s
Frame rate : 0.009 FPS
Count of elements : 60
Stream size : 694 KiB (0%)
Language : Russian
Default : No
Forced : No
Original source medium : Blu-ray

Text #33
ID : 46
ID in the original source medium : 4798 (0x12BE)
Format : PGS
Muxing mode : zlib
Codec ID : S_HDMV/PGS
Codec ID/Info : Picture based subtitle format used on BDs/HD-DVDs
Duration : 1 h 45 min
Bit rate : 522 b/s
Frame rate : 0.006 FPS
Count of elements : 40
Stream size : 404 KiB (0%)
Language : Turkish
Default : No
Forced : No
Original source medium : Blu-ray

Menu
00:00:00.000 : en:Chapter 01
00:08:51.364 : en:Chapter 02
00:20:13.629 : en:Chapter 03
00:29:07.620 : en:Chapter 04
00:42:35.261 : en:Chapter 05
00:52:48.206 : en:Chapter 06
01:04:32.827 : en:Chapter 07
01:12:50.699 : en:Chapter 08
01:25:54.941 : en:Chapter 09
01:33:23.347 : en:Chapter 10
01:39:13.906 : en:Chapter 11

新种推荐使用qBittorrent、uTorrent等下载软件,有条件的推荐115更好的下载软件!

敦刻尔克(52.02GB)Dunkirk.2017.PROPER.2160p.BluRay.REMUX.HEVC.DTS-HD.MA.5.1-FGT-【2160P蓝光REMUX】
游客,如果您要查看本帖隐藏内容请回复

以下为2018年更新4K蓝光原盘版本链接
敦刻尔克(55.96GB)Dunkirk.2017.2160p.BluRay.HEVC.DTS-HD.MA.5.1-CYBER-【2160P蓝光原盘】
游客,如果您要查看本帖隐藏内容请回复

敦刻尔克(51.54GB)Dunkirk.2017.2160p.BluRay.REMUX.HEVC.DTS-HD.MA.5.1-FGT-【2160P蓝光REMUX】
游客,如果您要查看本帖隐藏内容请回复

敦刻尔克(40.55GB)Dunkirk.2017.2160p.BluRay.x264.8bit.SDR.DTS-HD.MA.5.1-SWTYBLZ
游客,如果您要查看本帖隐藏内容请回复

敦刻尔克(37.44GB)Dunkirk.2017.2160p.BluRay.x265.10bit.SDR.DTS-HD.MA.5.1-SWTYBLZ
游客,如果您要查看本帖隐藏内容请回复

敦刻尔克(16.80GB)Dunkirk.2017.2160p.UHD.BluRay.x265.10bit.HDR.DTS-HD.MA.5.1-TERMiNAL
游客,如果您要查看本帖隐藏内容请回复

敦刻尔克(8.06GB)Dunkirk.2017.2160p.UHD.BluRay.x265.10bit.HDR.DTS-HD.MA.5.1
游客,如果您要查看本帖隐藏内容请回复

敦刻尔克(6.45GB)Dunkirk.2017.2160p.UHD.BluRay.x265.10bit.HDR.DDP5.1
游客,如果您要查看本帖隐藏内容请回复



相关其他4K高清版本链接:敦刻尔克(内封简繁中字) / Dunkirk (2017) 4K高清版本下载




4KQQ海报.gif

上一篇:虎胆龙威[简繁中字] / Die Hard (1988) 4K蓝光[原盘+REMUX]版本下载
下一篇:小鬼当家 / Home Alone (1990) 4K蓝光[原盘+REMUX]版本下载
回复

使用道具 举报

0

主题

3

帖子

12

积分

新手上路

Rank: 1

积分
12
发表于 2022-11-29 16:39:48 | 显示全部楼层
123456
回复

使用道具 举报

主题

帖子

0

积分

新手上路

Rank: 1

积分
0
发表于 2022-11-30 14:19:57 | 显示全部楼层
谢谢
回复

使用道具 举报

0

主题

2

帖子

9

积分

新手上路

Rank: 1

积分
9
发表于 2022-12-1 17:43:26 来自手机 | 显示全部楼层
谢谢
回复

使用道具 举报

您需要登录后才可以回帖 登录 | 立即注册

本版积分规则

精彩图文
Archiver|手机版|TAG|Sitemap|新帖|专题|联系我们:邮箱: 4kjia.com@gmail.com   

4k家园   ©2019