[4K UHD 蓝光原盘] 小鬼当家 / Home Alone (1990) 4K蓝光[原盘+REMUX]版本下载

[复制链接]

主题

帖子

0

积分

超级版主

Rank: 8Rank: 8

积分
0
 楼主| 发表于 2022-11-29 15:24:11 | 显示全部楼层 |阅读模式

小鬼当家.png

◎译  名 小鬼当家/宝贝智多星/独自在家
◎片  名 Home Alone
◎年  代 1990
◎产  地 美国
◎类  别 喜剧 / 家庭 / 犯罪
◎语  言 英语
◎上映日期 1990-11-16
◎IMDb评分 7.7/10 from 566817 users 更新 : 2022-11-25
◎IMDb链接 https://www.imdb.com/title/tt0099785/
◎豆瓣评分 8.4/10 from 366837 users 更新 : 2022-11-25
◎豆瓣链接 https://movie.douban.com/subject/1293088/
◎片  长 103分钟
◎导  演 克里斯·哥伦布 Chris Columbus
◎编  剧 约翰·休斯 John Hughes
◎主  演 麦考利·卡尔金 Macaulay Culkin
      乔·佩西 Joe Pesci
      丹尼尔·斯特恩 Daniel Stern
      约翰·赫德 John Heard
      罗伯茨·布洛瑟姆 Roberts Blossom
      凯瑟琳·欧哈拉 Catherine O'Hara
      安吉拉·戈塔尔斯 Angela Goethals
      戴文·雷特瑞 Devin Ratray
      杰瑞·巴曼 Gerry Bamman
      希拉里·沃尔夫 Hillary Wolf
      约翰·坎迪 John Candy
      拉里·哈金 Larry Hankin
      迈克尔·C·莫罗纳 Michael C. Maronna
      克里斯汀·敏特尔 Kristin Minter
      戴阿娜·坎佩露 Daiana Campeanu
      杰迪代亚·科恩 Jedidiah Cohen
      基南·卡尔金 Kieran Culkin
      森塔·摩西 Senta Moses
      泰利·斯内尔 Terrie Snell
      马特·多赫蒂 Matt Doherty
      拉尔夫·富迪 Ralph Foody
      迈克尔·吉多 Michael Guido
      雷·托勒 Ray Toler
      比莉·伯德 Billie Bird
      比尔·厄尔文 Bill Erwin
      格里·贝克尔 Gerry Becker
      克拉克·德弗洛 Clarke Devereux
      丹尼·沃霍尔 Dan Charles Zukoski
      霍普·戴维斯 Hope Davis
      詹姆斯·雷恩 James Ryan
      肯·哈德森·坎贝尔 Ken Hudson Campbell
      吉姆·奥特莱比 Jim Ortlieb
      莱昂纳尔·巴里摩尔 Lionel Barrymore
      奎因.卡尔金 Quinn Culkin
      拉加·高斯内尔 Raja Gosnell
      詹姆斯·M·赫夫曼 James M. Huffman
      宝拉·纽瑟姆 Paula Newsome
      尤里·鲁特曼 Yuri Rutman
      卢西亚诺·萨贝 Luciano Saber
      阿兰·维尔德 Alan Wilder


◎简  介


  一年一度的圣诞节又到了。全家忙着外出欢度圣诞假期,不料忙中出错,将家里最小的成员——8岁的凯文(麦考利?卡尔金 Macaulay Culkin 饰)留在了家里。爸爸妈妈急坏了,可此时他们已经身在外地,一时亦无可奈何。倒是凯文乐坏了,难得一个人在家,凯文将家里布置成了“游乐场”。

  两个刚出狱的窃贼将目光瞄向了凯文家。当他们鬼鬼祟祟的踏入凯文家时,凯文凭借自己的醒目和家里的“游乐场机关”,和两个笨贼玩起了“游戏”,笑料百出。凯文最后能否这场“游戏”的胜利?

◎获奖情况

  第63届奥斯卡金像奖 ?(1991)
  最佳原创配乐(提名) 约翰·威廉姆斯
  最佳原创歌曲(提名) 莱斯利·布里克斯?/?约翰·威廉姆斯

Video
ID : 1
ID in the original source medium : 4113 (0x1011)
Format : HEVC
Format/Info : High Efficiency Video Coding
Format profile : Main 10@L5.1@High
HDR format : SMPTE ST 2086, HDR10 compatible
Codec ID : V_MPEGH/ISO/HEVC
Duration : 1 h 42 min
Bit rate : 67.7 Mb/s
Width : 3 840 pixels
Height : 2 160 pixels
Display aspect ratio : 16:9
Frame rate mode : Constant
Frame rate : 23.976 (24000/1001) FPS
Color space : YUV
Chroma subsampling : 4:2:0 (Type 2)
Bit depth : 10 bits
Bits/(Pixel*Frame) : 0.341
Stream size : 48.7 GiB (88%)
Language : English
Default : No
Forced : No
Color range : Limited
Color primaries : BT.2020
Transfer characteristics : PQ
Matrix coefficients : BT.2020 non-constant
Mastering display color primaries : Display P3
Mastering display luminance : min: 0.0001 cd/m2, max: 1000 cd/m2
Original source medium : Blu-ray

Audio #1
ID : 2
ID in the original source medium : 4352 (0x1100)
Format : DTS XLL
Format/Info : Digital Theater Systems
Commercial name : DTS-HD Master Audio
Codec ID : A_DTS
Duration : 1 h 42 min
Bit rate mode : Variable
Bit rate : 3 569 kb/s
Channel(s) : 6 channels
Channel layout : C L R Ls Rs LFE
Sampling rate : 48.0 kHz
Frame rate : 93.750 FPS (512 SPF)
Bit depth : 24 bits
Compression mode : Lossless
Stream size : 2.56 GiB (5%)
Title : DTS-HD MA 5.1
Language : English
Default : Yes
Forced : No
Original source medium : Blu-ray

Audio #2
ID : 3
Format : AC-3
Format/Info : Audio Coding 3
Commercial name : Dolby Digital
Codec ID : A_AC3
Duration : 1 h 42 min
Bit rate mode : Constant
Bit rate : 640 kb/s
Channel(s) : 6 channels
Channel layout : L R C LFE Ls Rs
Sampling rate : 48.0 kHz
Frame rate : 31.250 FPS (1536 SPF)
Compression mode : Lossy
Stream size : 471 MiB (1%)
Title : DD 5.1
Language : English
Service kind : Complete Main
Default : No
Forced : No

Audio #3
ID : 4
ID in the original source medium : 4353 (0x1101)
Format : AC-3
Format/Info : Audio Coding 3
Commercial name : Dolby Digital
Codec ID : A_AC3
Duration : 1 h 42 min
Bit rate mode : Constant
Bit rate : 640 kb/s
Channel(s) : 6 channels
Channel layout : L R C LFE Ls Rs
Sampling rate : 48.0 kHz
Frame rate : 31.250 FPS (1536 SPF)
Compression mode : Lossy
Stream size : 471 MiB (1%)
Title : DD 5.1
Language : French
Service kind : Complete Main
Default : No
Forced : No
Original source medium : Blu-ray

Audio #4
ID : 5
ID in the original source medium : 4354 (0x1102)
Format : AC-3
Format/Info : Audio Coding 3
Commercial name : Dolby Digital
Codec ID : A_AC3
Duration : 1 h 42 min
Bit rate mode : Constant
Bit rate : 640 kb/s
Channel(s) : 6 channels
Channel layout : L R C LFE Ls Rs
Sampling rate : 48.0 kHz
Frame rate : 31.250 FPS (1536 SPF)
Compression mode : Lossy
Stream size : 471 MiB (1%)
Title : DD 5.1
Language : Spanish
Service kind : Complete Main
Default : No
Forced : No
Original source medium : Blu-ray

Audio #5
ID : 6
ID in the original source medium : 4355 (0x1103)
Format : DTS XLL
Format/Info : Digital Theater Systems
Commercial name : DTS-HD Master Audio
Codec ID : A_DTS
Duration : 1 h 42 min
Bit rate mode : Variable
Bit rate : 4 067 kb/s
Channel(s) : 6 channels
Channel layout : C L R Ls Rs LFE
Sampling rate : 48.0 kHz
Frame rate : 93.750 FPS (512 SPF)
Bit depth : 24 bits
Compression mode : Lossless
Stream size : 2.92 GiB (5%)
Title : DTS-HD MA 5.1
Language : Japanese
Default : No
Forced : No
Original source medium : Blu-ray

Text #1
ID : 7
Format : UTF-8
Codec ID : S_TEXT/UTF8
Codec ID/Info : UTF-8 Plain Text
Duration : 1 h 40 min
Bit rate : 57 b/s
Frame rate : 0.190 FPS
Count of elements : 1147
Stream size : 42.3 KiB (0%)
Language : English
Default : Yes
Forced : No

Text #2
ID : 8
Format : UTF-8
Codec ID : S_TEXT/UTF8
Codec ID/Info : UTF-8 Plain Text
Duration : 1 h 40 min
Bit rate : 62 b/s
Frame rate : 0.214 FPS
Count of elements : 1288
Stream size : 46.3 KiB (0%)
Title : SDH
Language : English
Default : No
Forced : No

Text #3
ID : 9
ID in the original source medium : 4768 (0x12A0)
Format : PGS
Muxing mode : zlib
Codec ID : S_HDMV/PGS
Codec ID/Info : Picture based subtitle format used on BDs/HD-DVDs
Duration : 1 h 40 min
Bit rate : 43.1 kb/s
Frame rate : 0.429 FPS
Count of elements : 2582
Stream size : 31.0 MiB (0%)
Language : English
Default : No
Forced : No
Original source medium : Blu-ray

Text #4
ID : 10
ID in the original source medium : 4769 (0x12A1)
Format : PGS
Muxing mode : zlib
Codec ID : S_HDMV/PGS
Codec ID/Info : Picture based subtitle format used on BDs/HD-DVDs
Duration : 1 h 41 min
Bit rate : 27.3 kb/s
Frame rate : 0.327 FPS
Count of elements : 1992
Stream size : 19.9 MiB (0%)
Language : French
Default : No
Forced : No
Original source medium : Blu-ray

Text #5
ID : 11
ID in the original source medium : 4770 (0x12A2)
Format : PGS
Muxing mode : zlib
Codec ID : S_HDMV/PGS
Codec ID/Info : Picture based subtitle format used on BDs/HD-DVDs
Duration : 1 h 41 min
Bit rate : 26.2 kb/s
Frame rate : 0.332 FPS
Count of elements : 2024
Stream size : 19.0 MiB (0%)
Language : Spanish
Default : No
Forced : No
Original source medium : Blu-ray

Text #6
ID : 12
ID in the original source medium : 4771 (0x12A3)
Format : PGS
Muxing mode : zlib
Codec ID : S_HDMV/PGS
Codec ID/Info : Picture based subtitle format used on BDs/HD-DVDs
Duration : 1 h 37 min
Bit rate : 17.0 kb/s
Frame rate : 0.326 FPS
Count of elements : 1900
Stream size : 11.8 MiB (0%)
Language : Japanese
Default : No
Forced : No
Original source medium : Blu-ray

Text #7
ID : 13
ID in the original source medium : 4772 (0x12A4)
Format : PGS
Muxing mode : zlib
Codec ID : S_HDMV/PGS
Codec ID/Info : Picture based subtitle format used on BDs/HD-DVDs
Duration : 1 h 7 min
Bit rate : 268 b/s
Frame rate : 0.003 FPS
Count of elements : 14
Stream size : 132 KiB (0%)
Language : French
Default : No
Forced : No
Original source medium : Blu-ray

Text #8
ID : 14
ID in the original source medium : 4773 (0x12A5)
Format : PGS
Muxing mode : zlib
Codec ID : S_HDMV/PGS
Codec ID/Info : Picture based subtitle format used on BDs/HD-DVDs
Duration : 1 h 7 min
Bit rate : 295 b/s
Frame rate : 0.004 FPS
Count of elements : 18
Stream size : 146 KiB (0%)
Language : Spanish
Default : No
Forced : No
Original source medium : Blu-ray

Text #9
ID : 15
ID in the original source medium : 4774 (0x12A6)
Format : PGS
Muxing mode : zlib
Codec ID : S_HDMV/PGS
Codec ID/Info : Picture based subtitle format used on BDs/HD-DVDs
Duration : 45 min 18 s
Bit rate : 613 b/s
Frame rate : 0.011 FPS
Count of elements : 30
Stream size : 204 KiB (0%)
Language : Japanese
Default : No
Forced : No
Original source medium : Blu-ray
新种推荐使用qBittorrent、uTorrent等下载软件,有条件的推荐115更好的下载软件!

小鬼当家(55.56GB)Home.Alone.1990.PROPER.2160p.BluRay.REMUX.HEVC.DTS-HD.MA.5.1-FGT-【2160P蓝光REMUX】
游客,如果您要查看本帖隐藏内容请回复



以下为2020年更新4K蓝光原盘版本链接
小鬼当家(58.58GBHome.Alone.1990.2160p.BluRay.HEVC.DTS-HD.MA.5.1-LsNM-【2160P蓝光原盘】
游客,如果您要查看本帖隐藏内容请回复

小鬼当家(56.19GBHome.Alone.1990.2160p.BluRay.REMUX.HEVC.DTS-HD.MA.5.1-FGT-【2160P蓝光REMUX】
游客,如果您要查看本帖隐藏内容请回复

小鬼当家(64.62GBHome.Alone.1990.2160p.BluRay.x264.8bit.SDR.DTS-HD.MA.5.1-SWTYBLZ
游客,如果您要查看本帖隐藏内容请回复

小鬼当家(56.59GBHome.Alone.1990.2160p.BluRay.x265.10bit.SDR.DTS-HD.MA.5.1-SWTYBLZ
游客,如果您要查看本帖隐藏内容请回复

小鬼当家(35.80GBHome.Alone.1990.2160p.UHD.BluRay.x265.10bit.HDR.DTS-HD.MA.5.1-B0MBARDiERS
游客,如果您要查看本帖隐藏内容请回复

小鬼当家(30.43GBHome.Alone.1990.2160p.UHD.BluRay.x265.10bit.HDR.DTS-HD.MA.5.1-SWTYBLZ
游客,如果您要查看本帖隐藏内容请回复




4KQQ海报.gif

上一篇:敦刻尔克[简繁粤中字]/ Dunkirk (2017) 4K蓝光[原盘+REMUX]版本下载
下一篇:圣诞怪杰[内嵌中字] (1990) 4K蓝光[原盘+REMUX]版本下载
回复

使用道具 举报

主题

帖子

0

积分

4K家园VIP

Rank: 9Rank: 9Rank: 9

积分
0
发表于 2022-11-29 18:07:58 | 显示全部楼层
太好啦&萬分感謝版主的無私發佈分享%
回复 支持 反对

使用道具 举报

0

主题

8

帖子

21

积分

新手上路

Rank: 1

积分
21
发表于 2022-12-1 22:23:09 来自手机 | 显示全部楼层
感谢复习 万分感谢
回复 支持 反对

使用道具 举报

0

主题

3

帖子

18

积分

新手上路

Rank: 1

积分
18
发表于 2022-12-31 18:49:25 | 显示全部楼层
支持支持支持支持支持
回复 支持 反对

使用道具 举报

0

主题

1

帖子

6

积分

新手上路

Rank: 1

积分
6
发表于 2023-1-4 16:41:56 | 显示全部楼层
6666666666666666666666666666666666
回复 支持 反对

使用道具 举报

您需要登录后才可以回帖 登录 | 立即注册

本版积分规则

精彩图文
Archiver|手机版|TAG|Sitemap|新帖|专题|联系我们:邮箱: 4kjia.com@gmail.com   

4k家园   ©2019