[4K UHD 蓝光原盘] 蝙蝠侠 [简繁中字]/Batman (1989) 4K蓝光[原盘+REMUX]版本下载

[复制链接]

主题

帖子

0

积分

超级版主

Rank: 8Rank: 8

积分
0
 楼主| 发表于 2022-11-29 19:12:12 | 显示全部楼层 |阅读模式
185846cn6z8ttp9e3jelnb.png

◎译  名 蝙蝠侠
◎片  名 Batman
◎年  代 1989
◎产  地 美国 / 英国
◎类  别 动作 / 科幻
◎语  言 英语 / 法语
◎上映日期 1989-06-23
◎IMDb评分 7.5/10 from 378533 users 更新 : 2022-11-28
◎IMDb链接 http://www.imdb.com/title/tt0096895
◎豆瓣评分 7.5/10 from 56329 users 更新 : 2022-11-29
◎豆瓣链接 https://movie.douban.com/subject/1297970/
◎片  长 126 分钟
◎导  演 Tim Burton
◎编  剧 Sam Hamm / Warren Skaaren / Bob Kane
◎主  演 迈克尔·基顿 Michael Keaton
      杰克·尼科尔森 Jack Nicholson
      金·贝辛格 Kim Basinger
      罗伯特·乌尔 Robert Wuhl
      帕特·亨格尔 Pat Hingle
      比利·迪·威廉姆斯 Billy Dee Williams
      迈克尔·高夫 Michael Gough
      杰克·帕兰斯 Jack Palance
      杰瑞·霍尔 Jerry Hall
      崔西·沃特 Tracey Walter
      李·华莱士 Lee Wallace
      威廉姆·霍金斯 William Hootkins
      理查德·斯特兰奇 Richard Strange
      卡尔·蔡斯 Carl Chase
      麦克·麦克唐纳德 Mac McDonald



◎简  介

  在罪恶横行的高汉市,有一个令罪犯们心惊胆颤的名字:蝙蝠侠。蝙蝠侠(迈克尔?基顿 Michael Keaton 饰)穿梭于最黑暗的角落,四处打击罪恶。在一次打击罪恶的行动中,蝙蝠侠令匪徒尼巴(杰克?尼科尔森 Jack Nicholson 饰)落入了化学池。尼巴因此面部神经受损,成了永远咧嘴笑的笑面人,人称“小丑”。
“小丑”杀死了团伙的首领,控制了整个高汉市的黑道。“小丑”利用化学药品让人发笑而死,他用这种方法袭击了博物馆,幸得蝙蝠侠及时赶到,挫败了“小丑”的阴谋。在女友碧姬(金?贝辛格 Kim Basinger 饰)家里时,“小丑”突然袭击,蝙蝠侠巧妙躲过了袭击,意外发现“小丑”就是杀死自己的父母的仇人。
“小丑”这次虏走了蝙蝠侠的女友碧姬,约定蝙蝠在教堂楼顶决一死战!

◎获奖情况

  第62届奥斯卡金像奖(1990)
  最佳艺术指导 安东·福斯特 / Peter Young
Video
ID : 1
ID in the original source medium : 4113 (0x1011)
Format : HEVC
Format/Info : High Efficiency Video Coding
Format profile : Main 10@L5.1@High
HDR format : SMPTE ST 2086, HDR10 compatible
Codec ID : V_MPEGH/ISO/HEVC
Duration : 2 h 6 min
Bit rate : 70.0 Mb/s
Width : 3 840 pixels
Height : 2 160 pixels
Display aspect ratio : 16:9
Frame rate mode : Constant
Frame rate : 23.976 (24000/1001) FPS
Color space : YUV
Chroma subsampling : 4:2:0 (Type 2)
Bit depth : 10 bits
Bits/(Pixel*Frame) : 0.352
Stream size : 61.8 GiB (85%)
Writing library : ATEME Titan File 3.9.0 (4.9.0.0)
Language : English
Default : No
Forced : No
Color range : Limited
Color primaries : BT.2020
Transfer characteristics : PQ
Matrix coefficients : BT.2020 non-constant
Mastering display color primaries : Display P3
Mastering display luminance : min: 0.0050 cd/m2, max: 4000 cd/m2
Maximum Content Light Level : 1284 cd/m2
Maximum Frame-Average Light Level : 113 cd/m2
Original source medium : Blu-ray

Audio #1
ID : 2
ID in the original source medium : 4352 (0x1100)
Format : MLP FBA 16-ch
Format/Info : Meridian Lossless Packing FBA with 16-channel presentation
Commercial name : Dolby TrueHD with Dolby Atmos
Codec ID : A_TRUEHD
Duration : 2 h 6 min
Bit rate mode : Variable
Bit rate : 3 772 kb/s
Maximum bit rate : 6 912 kb/s
Channel(s) : 8 channels
Channel layout : L R C LFE Ls Rs Lb Rb
Sampling rate : 48.0 kHz
Frame rate : 1 200.000 FPS (40 SPF)
Bit depth : 24 bits
Compression mode : Lossless
Stream size : 3.33 GiB (5%)
Title : TrueHD 7.1 Atmos
Language : English
Default : Yes
Forced : No
Original source medium : Blu-ray
Number of dynamic objects : 15
Bed channel count : 1 channel
Bed channel configuration : LFE

Audio #2
ID : 3
Format : DTS XLL
Format/Info : Digital Theater Systems
Commercial name : DTS-HD Master Audio
Codec ID : A_DTS
Duration : 2 h 6 min
Bit rate mode : Variable
Bit rate : 4 301 kb/s
Channel(s) : 8 channels
Channel layout : C L R LFE Lb Rb Lss Rss
Sampling rate : 48.0 kHz
Frame rate : 93.750 FPS (512 SPF)
Bit depth : 24 bits
Compression mode : Lossless
Stream size : 3.79 GiB (5%)
Title : DTS-HD MA 7.1
Language : English
Default : No
Forced : No

Audio #3
ID : 4
ID in the original source medium : 4352 (0x1100)
Format : AC-3
Format/Info : Audio Coding 3
Commercial name : Dolby Digital
Format settings : Dolby Surround EX
Codec ID : A_AC3
Duration : 2 h 6 min
Bit rate mode : Constant
Bit rate : 640 kb/s
Channel(s) : 6 channels
Channel layout : L R C LFE Ls Rs
Sampling rate : 48.0 kHz
Frame rate : 31.250 FPS (1536 SPF)
Compression mode : Lossy
Stream size : 578 MiB (1%)
Title : DD 5.1
Language : English
Service kind : Complete Main
Default : No
Forced : No
Original source medium : Blu-ray

Audio #4
ID : 5
ID in the original source medium : 4353 (0x1101)
Format : AC-3
Format/Info : Audio Coding 3
Commercial name : Dolby Digital
Codec ID : A_AC3
Duration : 2 h 6 min
Bit rate mode : Constant
Bit rate : 448 kb/s
Channel(s) : 6 channels
Channel layout : L R C LFE Ls Rs
Sampling rate : 48.0 kHz
Frame rate : 31.250 FPS (1536 SPF)
Compression mode : Lossy
Stream size : 405 MiB (0%)
Title : DD 5.1
Language : English
Service kind : Complete Main
Default : No
Forced : No
Original source medium : Blu-ray

Audio #5
ID : 6
ID in the original source medium : 4354 (0x1102)
Format : AC-3
Format/Info : Audio Coding 3
Commercial name : Dolby Digital
Format settings : Dolby Surround
Codec ID : A_AC3
Duration : 2 h 6 min
Bit rate mode : Constant
Bit rate : 192 kb/s
Channel(s) : 2 channels
Channel layout : L R
Sampling rate : 48.0 kHz
Frame rate : 31.250 FPS (1536 SPF)
Compression mode : Lossy
Stream size : 174 MiB (0%)
Title : DD 2.0
Language : French
Service kind : Complete Main
Default : No
Forced : No
Original source medium : Blu-ray

Audio #6
ID : 7
ID in the original source medium : 4355 (0x1103)
Format : AC-3
Format/Info : Audio Coding 3
Commercial name : Dolby Digital
Format settings : Dolby Surround
Codec ID : A_AC3
Duration : 2 h 6 min
Bit rate mode : Constant
Bit rate : 192 kb/s
Channel(s) : 2 channels
Channel layout : L R
Sampling rate : 48.0 kHz
Frame rate : 31.250 FPS (1536 SPF)
Compression mode : Lossy
Stream size : 173 MiB (0%)
Title : DD 2.0
Language : German
Service kind : Complete Main
Default : No
Forced : No
Original source medium : Blu-ray

Audio #7
ID : 8
ID in the original source medium : 4356 (0x1104)
Format : AC-3
Format/Info : Audio Coding 3
Commercial name : Dolby Digital
Format settings : Dolby Surround
Codec ID : A_AC3
Duration : 2 h 6 min
Bit rate mode : Constant
Bit rate : 192 kb/s
Channel(s) : 2 channels
Channel layout : L R
Sampling rate : 48.0 kHz
Frame rate : 31.250 FPS (1536 SPF)
Compression mode : Lossy
Stream size : 173 MiB (0%)
Title : DD 2.0
Language : Italian
Service kind : Complete Main
Default : No
Forced : No
Original source medium : Blu-ray

Audio #8
ID : 9
ID in the original source medium : 4357 (0x1105)
Format : AC-3
Format/Info : Audio Coding 3
Commercial name : Dolby Digital
Format settings : Dolby Surround
Codec ID : A_AC3
Duration : 2 h 6 min
Bit rate mode : Constant
Bit rate : 192 kb/s
Channel(s) : 2 channels
Channel layout : L R
Sampling rate : 48.0 kHz
Frame rate : 31.250 FPS (1536 SPF)
Compression mode : Lossy
Stream size : 173 MiB (0%)
Title : DD 2.0
Language : Spanish
Service kind : Complete Main
Default : No
Forced : No
Original source medium : Blu-ray

Audio #9
ID : 10
ID in the original source medium : 4358 (0x1106)
Format : AC-3
Format/Info : Audio Coding 3
Commercial name : Dolby Digital
Format settings : Dolby Surround
Codec ID : A_AC3
Duration : 2 h 6 min
Bit rate mode : Constant
Bit rate : 192 kb/s
Channel(s) : 2 channels
Channel layout : L R
Sampling rate : 48.0 kHz
Frame rate : 31.250 FPS (1536 SPF)
Compression mode : Lossy
Stream size : 174 MiB (0%)
Title : DD 2.0
Language : Chinese
Service kind : Complete Main
Default : No
Forced : No
Original source medium : Blu-ray

Audio #10
ID : 11
ID in the original source medium : 4359 (0x1107)
Format : AC-3
Format/Info : Audio Coding 3
Commercial name : Dolby Digital
Codec ID : A_AC3
Duration : 2 h 6 min
Bit rate mode : Constant
Bit rate : 192 kb/s
Channel(s) : 2 channels
Channel layout : L R
Sampling rate : 48.0 kHz
Frame rate : 31.250 FPS (1536 SPF)
Compression mode : Lossy
Stream size : 174 MiB (0%)
Title : DD 2.0
Language : Spanish
Service kind : Complete Main
Default : No
Forced : No
Original source medium : Blu-ray

Audio #11
ID : 12
ID in the original source medium : 4360 (0x1108)
Format : AC-3
Format/Info : Audio Coding 3
Commercial name : Dolby Digital
Format settings : Dolby Surround
Codec ID : A_AC3
Duration : 2 h 6 min
Bit rate mode : Constant
Bit rate : 192 kb/s
Channel(s) : 2 channels
Channel layout : L R
Sampling rate : 48.0 kHz
Frame rate : 31.250 FPS (1536 SPF)
Compression mode : Lossy
Stream size : 173 MiB (0%)
Title : DD 2.0
Language : Czech
Service kind : Complete Main
Default : No
Forced : No
Original source medium : Blu-ray

Audio #12
ID : 13
ID in the original source medium : 4361 (0x1109)
Format : AC-3
Format/Info : Audio Coding 3
Commercial name : Dolby Digital
Codec ID : A_AC3
Duration : 2 h 6 min
Bit rate mode : Constant
Bit rate : 448 kb/s
Channel(s) : 6 channels
Channel layout : L R C LFE Ls Rs
Sampling rate : 48.0 kHz
Frame rate : 31.250 FPS (1536 SPF)
Compression mode : Lossy
Stream size : 405 MiB (0%)
Title : DD 5.1
Language : Hungarian
Service kind : Complete Main
Default : No
Forced : No
Original source medium : Blu-ray

Audio #13
ID : 14
ID in the original source medium : 4362 (0x110A)
Format : AC-3
Format/Info : Audio Coding 3
Commercial name : Dolby Digital
Codec ID : A_AC3
Duration : 2 h 6 min
Bit rate mode : Constant
Bit rate : 448 kb/s
Channel(s) : 6 channels
Channel layout : L R C LFE Ls Rs
Sampling rate : 48.0 kHz
Frame rate : 31.250 FPS (1536 SPF)
Compression mode : Lossy
Stream size : 405 MiB (0%)
Title : DD 5.1
Language : Polish
Service kind : Complete Main
Default : No
Forced : No
Original source medium : Blu-ray

Audio #14
ID : 15
ID in the original source medium : 4363 (0x110B)
Format : AC-3
Format/Info : Audio Coding 3
Commercial name : Dolby Digital
Codec ID : A_AC3
Duration : 2 h 6 min
Bit rate mode : Constant
Bit rate : 448 kb/s
Channel(s) : 6 channels
Channel layout : L R C LFE Ls Rs
Sampling rate : 48.0 kHz
Frame rate : 31.250 FPS (1536 SPF)
Compression mode : Lossy
Stream size : 405 MiB (0%)
Title : DD 5.1
Language : Russian
Service kind : Complete Main
Default : No
Forced : No
Original source medium : Blu-ray

Audio #15
ID : 16
ID in the original source medium : 4364 (0x110C)
Format : AC-3
Format/Info : Audio Coding 3
Commercial name : Dolby Digital
Format settings : Dolby Surround
Codec ID : A_AC3
Duration : 2 h 6 min
Bit rate mode : Constant
Bit rate : 192 kb/s
Channel(s) : 2 channels
Channel layout : L R
Sampling rate : 48.0 kHz
Frame rate : 31.250 FPS (1536 SPF)
Compression mode : Lossy
Stream size : 173 MiB (0%)
Title : DD 2.0
Language : Thai
Service kind : Complete Main
Default : No
Forced : No
Original source medium : Blu-ray

Audio #16
ID : 17
ID in the original source medium : 4366 (0x110E)
Format : AC-3
Format/Info : Audio Coding 3
Commercial name : Dolby Digital
Format settings : Dolby Surround
Codec ID : A_AC3
Duration : 2 h 6 min
Bit rate mode : Constant
Bit rate : 192 kb/s
Channel(s) : 2 channels
Channel layout : L R
Sampling rate : 48.0 kHz
Frame rate : 31.250 FPS (1536 SPF)
Compression mode : Lossy
Stream size : 173 MiB (0%)
Title : DD 2.0
Language : English
Service kind : Complete Main
Default : No
Forced : No
Original source medium : Blu-ray

Text #1
ID : 18
Format : UTF-8
Codec ID : S_TEXT/UTF8
Codec ID/Info : UTF-8 Plain Text
Duration : 1 h 58 min
Bit rate : 38 b/s
Frame rate : 0.137 FPS
Count of elements : 976
Stream size : 33.8 KiB (0%)
Language : English
Default : Yes
Forced : No

Text #2
ID : 19
Format : UTF-8
Codec ID : S_TEXT/UTF8
Codec ID/Info : UTF-8 Plain Text
Duration : 1 h 59 min
Bit rate : 40 b/s
Frame rate : 0.150 FPS
Count of elements : 1069
Stream size : 35.3 KiB (0%)
Title : SDH
Language : English
Default : No
Forced : No

Text #3
ID : 20
ID in the original source medium : 4769 (0x12A1)
Format : PGS
Muxing mode : zlib
Codec ID : S_HDMV/PGS
Codec ID/Info : Picture based subtitle format used on BDs/HD-DVDs
Duration : 1 h 59 min
Bit rate : 22.4 kb/s
Frame rate : 0.310 FPS
Count of elements : 2216
Stream size : 19.1 MiB (0%)
Language : English
Default : No
Forced : No
Original source medium : Blu-ray

Text #4
ID : 21
ID in the original source medium : 4772 (0x12A4)
Format : PGS
Muxing mode : zlib
Codec ID : S_HDMV/PGS
Codec ID/Info : Picture based subtitle format used on BDs/HD-DVDs
Duration : 1 h 58 min
Bit rate : 18.9 kb/s
Frame rate : 0.288 FPS
Count of elements : 2056
Stream size : 16.1 MiB (0%)
Language : French
Default : No
Forced : No
Original source medium : Blu-ray

Text #5
ID : 22
ID in the original source medium : 4773 (0x12A5)
Format : PGS
Muxing mode : zlib
Codec ID : S_HDMV/PGS
Codec ID/Info : Picture based subtitle format used on BDs/HD-DVDs
Duration : 2 h 3 min
Bit rate : 19.4 kb/s
Frame rate : 0.279 FPS
Count of elements : 2074
Stream size : 17.1 MiB (0%)
Language : German
Default : No
Forced : No
Original source medium : Blu-ray

Text #6
ID : 23
ID in the original source medium : 4774 (0x12A6)
Format : PGS
Muxing mode : zlib
Codec ID : S_HDMV/PGS
Codec ID/Info : Picture based subtitle format used on BDs/HD-DVDs
Duration : 2 h 3 min
Bit rate : 18.5 kb/s
Frame rate : 0.293 FPS
Count of elements : 2174
Stream size : 16.4 MiB (0%)
Language : Italian
Default : No
Forced : No
Original source medium : Blu-ray

Text #7
ID : 24
ID in the original source medium : 4775 (0x12A7)
Format : PGS
Muxing mode : zlib
Codec ID : S_HDMV/PGS
Codec ID/Info : Picture based subtitle format used on BDs/HD-DVDs
Duration : 2 h 3 min
Bit rate : 19.1 kb/s
Frame rate : 0.282 FPS
Count of elements : 2086
Stream size : 16.9 MiB (0%)
Language : Spanish
Default : No
Forced : No
Original source medium : Blu-ray

Text #8
ID : 25
ID in the original source medium : 4775 (0x12A7)
Format : PGS
Muxing mode : zlib
Codec ID : S_HDMV/PGS
Codec ID/Info : Picture based subtitle format used on BDs/HD-DVDs
Duration : 1 h 36 min
Bit rate : 459 b/s
Frame rate : 0.006 FPS
Count of elements : 32
Stream size : 323 KiB (0%)
Language : Spanish
Default : No
Forced : No
Original source medium : Blu-ray

Text #9
ID : 26
ID in the original source medium : 4776 (0x12A8)
Format : PGS
Muxing mode : zlib
Codec ID : S_HDMV/PGS
Codec ID/Info : Picture based subtitle format used on BDs/HD-DVDs
Duration : 1 h 58 min
Bit rate : 19.1 kb/s
Frame rate : 0.289 FPS
Count of elements : 2060
Stream size : 16.2 MiB (0%)
Language : Dutch
Default : No
Forced : No
Original source medium : Blu-ray

Text #10
ID : 27
ID in the original source medium : 4777 (0x12A9)
Format : PGS
Muxing mode : zlib
Codec ID : S_HDMV/PGS
Codec ID/Info : Picture based subtitle format used on BDs/HD-DVDs
Duration : 2 h 1 min
Bit rate : 15.9 kb/s
Frame rate : 0.290 FPS
Count of elements : 2116
Stream size : 13.8 MiB (0%)
Language : 简体
Default : No
Forced : No
Original source medium : Blu-ray

Text #11
ID : 28
ID in the original source medium : 4778 (0x12AA)
Format : PGS
Muxing mode : zlib
Codec ID : S_HDMV/PGS
Codec ID/Info : Picture based subtitle format used on BDs/HD-DVDs
Duration : 1 h 58 min
Bit rate : 17.5 kb/s
Frame rate : 0.270 FPS
Count of elements : 1928
Stream size : 14.9 MiB (0%)
Language : 繁体
Default : No
Forced : No
Original source medium : Blu-ray


Text #12
ID : 29
ID in the original source medium : 4779 (0x12AB)
Format : PGS
Muxing mode : zlib
Codec ID : S_HDMV/PGS
Codec ID/Info : Picture based subtitle format used on BDs/HD-DVDs
Duration : 1 h 58 min
Bit rate : 17.2 kb/s
Frame rate : 0.270 FPS
Count of elements : 1928
Stream size : 14.6 MiB (0%)
Language : Chinese
Default : No
Forced : No
Original source medium : Blu-ray

Text #13
ID : 30
ID in the original source medium : 4780 (0x12AC)
Format : PGS
Muxing mode : zlib
Codec ID : S_HDMV/PGS
Codec ID/Info : Picture based subtitle format used on BDs/HD-DVDs
Duration : 2 h 1 min
Bit rate : 14.2 kb/s
Frame rate : 0.287 FPS
Count of elements : 2084
Stream size : 12.3 MiB (0%)
Language : Korean
Default : No
Forced : No
Original source medium : Blu-ray

Text #14
ID : 31
ID in the original source medium : 4781 (0x12AD)
Format : PGS
Muxing mode : zlib
Codec ID : S_HDMV/PGS
Codec ID/Info : Picture based subtitle format used on BDs/HD-DVDs
Duration : 2 h 0 min
Bit rate : 19.6 kb/s
Frame rate : 0.290 FPS
Count of elements : 2108
Stream size : 17.0 MiB (0%)
Language : Spanish
Default : No
Forced : No
Original source medium : Blu-ray

Text #15
ID : 32
ID in the original source medium : 4782 (0x12AE)
Format : PGS
Muxing mode : zlib
Codec ID : S_HDMV/PGS
Codec ID/Info : Picture based subtitle format used on BDs/HD-DVDs
Duration : 2 h 1 min
Bit rate : 11.5 kb/s
Frame rate : 0.288 FPS
Count of elements : 2096
Stream size : 9.99 MiB (0%)
Language : Arabic
Default : No
Forced : No
Original source medium : Blu-ray

Text #16
ID : 33
ID in the original source medium : 4783 (0x12AF)
Format : PGS
Muxing mode : zlib
Codec ID : S_HDMV/PGS
Codec ID/Info : Picture based subtitle format used on BDs/HD-DVDs
Duration : 1 h 59 min
Bit rate : 17.3 kb/s
Frame rate : 0.292 FPS
Count of elements : 2086
Stream size : 14.7 MiB (0%)
Language : Czech
Default : No
Forced : No
Original source medium : Blu-ray

Text #17
ID : 34
ID in the original source medium : 4783 (0x12AF)
Format : PGS
Muxing mode : zlib
Codec ID : S_HDMV/PGS
Codec ID/Info : Picture based subtitle format used on BDs/HD-DVDs
Duration : 1 h 27 min
Bit rate : 243 b/s
Frame rate : 0.004 FPS
Count of elements : 20
Stream size : 155 KiB (0%)
Language : Czech
Default : No
Forced : No
Original source medium : Blu-ray

Text #18
ID : 35
ID in the original source medium : 4784 (0x12B0)
Format : PGS
Muxing mode : zlib
Codec ID : S_HDMV/PGS
Codec ID/Info : Picture based subtitle format used on BDs/HD-DVDs
Duration : 1 h 58 min
Bit rate : 17.2 kb/s
Frame rate : 0.292 FPS
Count of elements : 2080
Stream size : 14.6 MiB (0%)
Language : Danish
Default : No
Forced : No
Original source medium : Blu-ray

Text #19
ID : 36
ID in the original source medium : 4785 (0x12B1)
Format : PGS
Muxing mode : zlib
Codec ID : S_HDMV/PGS
Codec ID/Info : Picture based subtitle format used on BDs/HD-DVDs
Duration : 1 h 58 min
Bit rate : 18.2 kb/s
Frame rate : 0.292 FPS
Count of elements : 2084
Stream size : 15.5 MiB (0%)
Language : Finnish
Default : No
Forced : No
Original source medium : Blu-ray

Text #20
ID : 37
ID in the original source medium : 4786 (0x12B2)
Format : PGS
Muxing mode : zlib
Codec ID : S_HDMV/PGS
Codec ID/Info : Picture based subtitle format used on BDs/HD-DVDs
Duration : 1 h 59 min
Bit rate : 20.6 kb/s
Frame rate : 0.291 FPS
Count of elements : 2084
Stream size : 17.6 MiB (0%)
Language : Hungarian
Default : No
Forced : No
Original source medium : Blu-ray

Text #21
ID : 38
ID in the original source medium : 4786 (0x12B2)
Format : PGS
Muxing mode : zlib
Codec ID : S_HDMV/PGS
Codec ID/Info : Picture based subtitle format used on BDs/HD-DVDs
Duration : 1 h 40 min
Bit rate : 276 b/s
Frame rate : 0.005 FPS
Count of elements : 28
Stream size : 204 KiB (0%)
Language : Hungarian
Default : No
Forced : No
Original source medium : Blu-ray

Text #22
ID : 39
ID in the original source medium : 4787 (0x12B3)
Format : PGS
Muxing mode : zlib
Codec ID : S_HDMV/PGS
Codec ID/Info : Picture based subtitle format used on BDs/HD-DVDs
Duration : 1 h 58 min
Bit rate : 18.6 kb/s
Frame rate : 0.292 FPS
Count of elements : 2082
Stream size : 15.8 MiB (0%)
Language : Norwegian
Default : No
Forced : No
Original source medium : Blu-ray

Text #23
ID : 40
ID in the original source medium : 4788 (0x12B4)
Format : PGS
Muxing mode : zlib
Codec ID : S_HDMV/PGS
Codec ID/Info : Picture based subtitle format used on BDs/HD-DVDs
Duration : 1 h 59 min
Bit rate : 19.4 kb/s
Frame rate : 0.276 FPS
Count of elements : 1972
Stream size : 16.5 MiB (0%)
Language : Polish
Default : No
Forced : No
Original source medium : Blu-ray

Text #24
ID : 41
ID in the original source medium : 4788 (0x12B4)
Format : PGS
Muxing mode : zlib
Codec ID : S_HDMV/PGS
Codec ID/Info : Picture based subtitle format used on BDs/HD-DVDs
Duration : 1 h 22 min
Bit rate : 381 b/s
Frame rate : 0.004 FPS
Count of elements : 22
Stream size : 230 KiB (0%)
Language : Polish
Default : No
Forced : No
Original source medium : Blu-ray

Text #25
ID : 42
ID in the original source medium : 4789 (0x12B5)
Format : PGS
Muxing mode : zlib
Codec ID : S_HDMV/PGS
Codec ID/Info : Picture based subtitle format used on BDs/HD-DVDs
Duration : 1 h 59 min
Bit rate : 17.7 kb/s
Frame rate : 0.282 FPS
Count of elements : 2014
Stream size : 15.1 MiB (0%)
Language : Russian
Default : No
Forced : No
Original source medium : Blu-ray

Text #26
ID : 43
ID in the original source medium : 4789 (0x12B5)
Format : PGS
Muxing mode : zlib
Codec ID : S_HDMV/PGS
Codec ID/Info : Picture based subtitle format used on BDs/HD-DVDs
Duration : 1 h 34 min
Bit rate : 30 b/s
Frame rate : 0.001 FPS
Count of elements : 6
Stream size : 21.0 KiB (0%)
Language : Russian
Default : No
Forced : No
Original source medium : Blu-ray

Text #27
ID : 44
ID in the original source medium : 4790 (0x12B6)
Format : PGS
Muxing mode : zlib
Codec ID : S_HDMV/PGS
Codec ID/Info : Picture based subtitle format used on BDs/HD-DVDs
Duration : 1 h 58 min
Bit rate : 17.0 kb/s
Frame rate : 0.291 FPS
Count of elements : 2074
Stream size : 14.4 MiB (0%)
Language : Swedish
Default : No
Forced : No
Original source medium : Blu-ray

Text #28
ID : 45
ID in the original source medium : 4791 (0x12B7)
Format : PGS
Muxing mode : zlib
Codec ID : S_HDMV/PGS
Codec ID/Info : Picture based subtitle format used on BDs/HD-DVDs
Duration : 2 h 1 min
Bit rate : 19.6 kb/s
Frame rate : 0.294 FPS
Count of elements : 2148
Stream size : 17.0 MiB (0%)
Language : Thai
Default : No
Forced : No
Original source medium : Blu-ray

Text #29
ID : 46
ID in the original source medium : 4792 (0x12B8)
Format : PGS
Muxing mode : zlib
Codec ID : S_HDMV/PGS
Codec ID/Info : Picture based subtitle format used on BDs/HD-DVDs
Duration : 1 h 17 min
Bit rate : 493 b/s
Frame rate : 0.007 FPS
Count of elements : 32
Stream size : 280 KiB (0%)
Language : French
Default : No
Forced : No
Original source medium : Blu-ray

Text #30
ID : 47
ID in the original source medium : 4792 (0x12B8)
Format : PGS
Muxing mode : zlib
Codec ID : S_HDMV/PGS
Codec ID/Info : Picture based subtitle format used on BDs/HD-DVDs
Duration : 1 h 17 min
Bit rate : 493 b/s
Frame rate : 0.007 FPS
Count of elements : 32
Stream size : 280 KiB (0%)
Language : French
Default : No
Forced : No
Original source medium : Blu-ray

Text #31
ID : 48
ID in the original source medium : 4793 (0x12B9)
Format : PGS
Muxing mode : zlib
Codec ID : S_HDMV/PGS
Codec ID/Info : Picture based subtitle format used on BDs/HD-DVDs
Duration : 1 h 22 min
Bit rate : 355 b/s
Frame rate : 0.006 FPS
Count of elements : 32
Stream size : 215 KiB (0%)
Language : German
Default : No
Forced : No
Original source medium : Blu-ray

Text #32
ID : 49
ID in the original source medium : 4793 (0x12B9)
Format : PGS
Muxing mode : zlib
Codec ID : S_HDMV/PGS
Codec ID/Info : Picture based subtitle format used on BDs/HD-DVDs
Duration : 1 h 22 min
Bit rate : 355 b/s
Frame rate : 0.006 FPS
Count of elements : 32
Stream size : 215 KiB (0%)
Language : German
Default : No
Forced : No
Original source medium : Blu-ray

Text #33
ID : 50
ID in the original source medium : 4794 (0x12BA)
Format : PGS
Muxing mode : zlib
Codec ID : S_HDMV/PGS
Codec ID/Info : Picture based subtitle format used on BDs/HD-DVDs
Duration : 1 h 17 min
Bit rate : 649 b/s
Frame rate : 0.008 FPS
Count of elements : 38
Stream size : 368 KiB (0%)
Language : Italian
Default : No
Forced : No
Original source medium : Blu-ray

Text #34
ID : 51
ID in the original source medium : 4795 (0x12BB)
Format : PGS
Muxing mode : zlib
Codec ID : S_HDMV/PGS
Codec ID/Info : Picture based subtitle format used on BDs/HD-DVDs
Duration : 1 h 42 min
Bit rate : 264 b/s
Frame rate : 0.005 FPS
Count of elements : 28
Stream size : 198 KiB (0%)
Language : Spanish
Default : No
Forced : No
Original source medium : Blu-ray

新种推荐使用qBittorrent、uTorrent等下载软件,有条件的推荐115更好的下载软件!

蝙蝠侠(72.77GB)Batman.1989.PROPER.2160p.BluRay.REMUX.HEVC.DTS-HD.MA.TrueHD.7.1.Atmos-FGT-【2160P蓝光REMUX】
游客,如果您要查看本帖隐藏内容请回复



以下为2018年更新4K蓝光原盘版本链接(简繁粤中字)
蝙蝠侠(75.09GB)Batman.1989.2160p.BluRay.HEVC.TrueHD.7.1.Atmos-BHD-【2160P蓝光原盘】
游客,如果您要查看本帖隐藏内容请回复

蝙蝠侠(72.77GB)Batman.1989.2160p.BluRay.REMUX.HEVC.DTS-HD.MA.TrueHD.7.1.Atmos-FGT-【2160P蓝光REMUX】
游客,如果您要查看本帖隐藏内容请回复

蝙蝠侠(59.35GB)Batman.1989.2160p.BluRay.x264.8bit.SDR.DTS-HD.MA.TrueHD.7.1.Atmos-SWTYBLZ
游客,如果您要查看本帖隐藏内容请回复

蝙蝠侠(51.49GB)Batman.1989.2160p.BluRay.x265.10bit.SDR.DTS-HD.MA.TrueHD.7.1.Atmos-SWTYBLZ
游客,如果您要查看本帖隐藏内容请回复

蝙蝠侠(26.46GB)Batman.1989.2160p.UHD.BluRay.X265.10bit.HDR.TrueHD.7.1.Atmos-IAMABLE
游客,如果您要查看本帖隐藏内容请回复


以下为2021年更新4K蓝光版本链接
蝙蝠侠(19.00GB)Batman.1989.MULTi.UHD.BluRay.2160p.HEVC.HDR.Atmos.7.1-DDR
游客,如果您要查看本帖隐藏内容请回复






4KQQ海报.gif

上一篇:圣诞怪杰[内嵌中字] (1990) 4K蓝光[原盘+REMUX]版本下载
下一篇:西部世界 第四季(内嵌中字)4K-[蓝光原盘+REMUX]版本下载
回复

使用道具 举报

0

主题

87

帖子

9203

积分

4K家园VIP

Rank: 9Rank: 9Rank: 9

积分
9203
发表于 2022-11-29 20:40:38 | 显示全部楼层
为何不加入国配
回复 支持 反对

使用道具 举报

0

主题

1

帖子

6

积分

新手上路

Rank: 1

积分
6
发表于 2022-12-4 02:16:18 来自手机 | 显示全部楼层
hhhh哈哈哈哈
回复 支持 反对

使用道具 举报

0

主题

1

帖子

6

积分

新手上路

Rank: 1

积分
6
发表于 2022-12-8 03:15:03 | 显示全部楼层
hello helloFriday the 10 th of February 1969Batman vs. Two-Face : From Friday the 10 th of February 1969Batman vs. Two-Face : From Friday the 10 th of February 1969Batman vs. Two-Face : From  Friday the 10 th of February 1969Batman vs. Two-Face : From  Friday the 10 th of February 1969Batman vs. Two-Face : From  Friday the 10 th of February 1969Batman vs. Two-Face : From  Friday the 10 th of February 1969Batman vs. Two-Face : From  Friday the 10th of February 1969 Batman vs. Two-Face : From Friday the 10 th of February 1969 Batman vs. Two-Face : From Friday the 10 th of February 1969 Batman vs. Two-Face : From Friday the 10 th of February 1969 Batman vs. Two-Face : From Friday the 10 th of February 1969 Batman vs. Two-Face : From Friday the 10 th of February 1969 Batman vs. Two-Face : From Friday the 10 thof February 1969Batman vs. Two-Face : From  Friday the 10 th of February 1969Batman vs. Two-Face : From  Friday the 10 th of February 1969Batman vs. Two-Face : From  Friday the 10 th of February 1969Batman vs. Two-Face : From  Friday the 10 th of February 1969Batman vs. Two-Face : From  Friday the 10 th of February 1969Batman vs. Two-Face : From  
回复 支持 反对

使用道具 举报

您需要登录后才可以回帖 登录 | 立即注册

本版积分规则

精彩图文
Archiver|手机版|TAG|Sitemap|新帖|专题|联系我们:邮箱: 4kjia.com@gmail.com   

4k家园   ©2019