[4K电影] 日班猎人 [简繁中字] / Day Shift (2022) 4K高清版本下载

[复制链接]

主题

帖子

0

积分

超级版主

Rank: 8Rank: 8

积分
0
 楼主| 发表于 2022-11-29 19:25:18 | 显示全部楼层 |阅读模式
日班猎人.png

◎译  名 日班猎人/扮工猎人(港)/打卡猎人/日班/吸血鬼猎人也要上日班/捍卫任务
◎片  名 Day Shift
◎年  代 2022
◎产  地 美国
◎类  别 喜剧/动作/惊悚/奇幻
◎语  言 英语
◎上映日期 2022-08-12(美国网络)
◎IMDb评分 6.1/10 from 73738 users 更新 : 2022-11-26
◎IMDb链接 https://www.imdb.com/title/tt13314558/
◎豆瓣评分 6.5/10 from 24237 users 更新 : 2022-11-29
◎豆瓣链接 https://movie.douban.com/subject/35229644/
◎导  演 J·J·佩里 J.J. Perry
◎编  剧 谢伊·哈顿 Shay Hatten
◎主  演 杰米·福克斯 Jamie Foxx
      戴夫·弗兰科 Dave Franco
      史努比狗狗 Snoop Dogg
      刘承羽 Natasha Liu Bordizzo
      史蒂夫·豪威 Steve Howey
      斯科特·阿金斯 Scott Adkins
      梅根·古德 Meagan Good
      卡拉·索萨 Karla Souza
      埃里克·兰格 Eric Lange
      奥利弗·马苏奇 Oliver Masucci
      李升熙 C.S. Lee
      马西·弗伦 Massi Furlan
      西安·布罗德纳克斯 Zion Broadnax
◎简  介
  杰米·福克斯在《打卡猎人》饰演一位蓝领父亲,他努力工作,只为让聪明的女儿过上更好的生活。表面看来,他只不过是圣费尔南多谷的一名泳池清洁工,但他的真正身分其实是吸血鬼猎人国际协会的成员,猎杀吸血鬼才是他的本业。

Video
ID : 1
Format : HEVC
Format/Info : High Efficiency Video Coding
Format profile : Main 10@L5@Main
HDR format : Dolby Vision, Version 1.0, dvhe.08.06, BL+RPU, HDR10 compatible / SMPTE ST 2086, HDR10 compatible
Codec ID : V_MPEGH/ISO/HEVC
Duration : 1 h 51 min
Bit rate : 19.1 Mb/s
Width : 3 840 pixels
Height : 2 160 pixels
Display aspect ratio : 16:9
Frame rate mode : Constant
Frame rate : 24.000 FPS
Color space : YUV
Chroma subsampling : 4:2:0 (Type 2)
Bit depth : 10 bits
Bits/(Pixel*Frame) : 0.096
Stream size : 14.9 GiB (96%)
Default : Yes
Forced : No
Color range : Limited
Color primaries : BT.2020
Transfer characteristics : PQ
Matrix coefficients : BT.2020 non-constant
Mastering display color primaries : Display P3
Mastering display luminance : min: 0.0001 cd/m2, max: 1000 cd/m2
Maximum Content Light Level : 10000 cd/m2
Maximum Frame-Average Light Level : 578 cd/m2

Audio
ID : 2
Format : E-AC-3 JOC
Format/Info : Enhanced AC-3 with Joint Object Coding
Commercial name : Dolby Digital Plus with Dolby Atmos
Codec ID : A_EAC3
Duration : 1 h 53 min
Bit rate mode : Constant
Bit rate : 768 kb/s
Channel(s) : 6 channels
Channel layout : L R C LFE Ls Rs
Sampling rate : 48.0 kHz
Frame rate : 31.250 FPS (1536 SPF)
Compression mode : Lossy
Stream size : 623 MiB (4%)
Language : English
Service kind : Complete Main
Default : Yes
Forced : No
Complexity index : 16
Number of dynamic objects : 15
Bed channel count : 1 channel
Bed channel configuration : LFE

Text #1
ID : 3
Format : UTF-8
Codec ID : S_TEXT/UTF8
Codec ID/Info : UTF-8 Plain Text
Duration : 1 h 45 min
Bit rate : 62 b/s
Frame rate : 0.228 FPS
Count of elements : 1438
Stream size : 48.0 KiB (0%)
Language : English
Default : No
Forced : No

Text #2
ID : 4
Format : UTF-8
Codec ID : S_TEXT/UTF8
Codec ID/Info : UTF-8 Plain Text
Duration : 1 h 48 min
Bit rate : 78 b/s
Frame rate : 0.301 FPS
Count of elements : 1958
Stream size : 62.4 KiB (0%)
Title : SDH
Language : English
Default : No
Forced : No

Text #3
ID : 5
Format : UTF-8
Codec ID : S_TEXT/UTF8
Codec ID/Info : UTF-8 Plain Text
Duration : 1 h 50 min
Bit rate : 101 b/s
Frame rate : 0.211 FPS
Count of elements : 1408
Stream size : 82.2 KiB (0%)
Language : Arabic
Default : No
Forced : No

Text #4
ID : 6
Format : UTF-8
Codec ID : S_TEXT/UTF8
Codec ID/Info : UTF-8 Plain Text
Duration : 1 h 50 min
Bit rate : 49 b/s
Frame rate : 0.216 FPS
Count of elements : 1440
Stream size : 40.1 KiB (0%)
Language : Catalan
Default : No
Forced : No

Text #5
ID : 7
Format : UTF-8
Codec ID : S_TEXT/UTF8
Codec ID/Info : UTF-8 Plain Text
Duration : 1 h 50 min
Bit rate : 47 b/s
Frame rate : 0.197 FPS
Count of elements : 1312
Stream size : 38.4 KiB (0%)
Language : Czech
Default : No
Forced : No

Text #6
ID : 8
Format : UTF-8
Codec ID : S_TEXT/UTF8
Codec ID/Info : UTF-8 Plain Text
Duration : 1 h 49 min
Bit rate : 50 b/s
Frame rate : 0.212 FPS
Count of elements : 1386
Stream size : 40.7 KiB (0%)
Language : Danish
Default : No
Forced : No

Text #7
ID : 9
Format : UTF-8
Codec ID : S_TEXT/UTF8
Codec ID/Info : UTF-8 Plain Text
Duration : 1 h 50 min
Bit rate : 52 b/s
Frame rate : 0.207 FPS
Count of elements : 1381
Stream size : 42.4 KiB (0%)
Language : German
Default : No
Forced : No

Text #8
ID : 10
Format : UTF-8
Codec ID : S_TEXT/UTF8
Codec ID/Info : UTF-8 Plain Text
Duration : 1 h 43 min
Bit rate : 63 b/s
Frame rate : 0.228 FPS
Count of elements : 1421
Stream size : 48.6 KiB (0%)
Language : German
Default : No
Forced : No

Text #9
ID : 11
Format : UTF-8
Codec ID : S_TEXT/UTF8
Codec ID/Info : UTF-8 Plain Text
Duration : 1 h 47 min
Bit rate : 74 b/s
Frame rate : 0.293 FPS
Count of elements : 1894
Stream size : 59.0 KiB (0%)
Title : SDH
Language : German
Default : No
Forced : No

Text #10
ID : 12
Format : UTF-8
Codec ID : S_TEXT/UTF8
Codec ID/Info : UTF-8 Plain Text
Duration : 1 h 50 min
Bit rate : 86 b/s
Frame rate : 0.212 FPS
Count of elements : 1413
Stream size : 70.6 KiB (0%)
Language : Greek
Default : No
Forced : No

Text #11
ID : 13
Format : UTF-8
Codec ID : S_TEXT/UTF8
Codec ID/Info : UTF-8 Plain Text
Duration : 1 h 43 min
Bit rate : 60 b/s
Frame rate : 0.225 FPS
Count of elements : 1398
Stream size : 45.7 KiB (0%)
Title : Latin American
Language : Spanish
Default : No
Forced : No

Text #12
ID : 14
Format : UTF-8
Codec ID : S_TEXT/UTF8
Codec ID/Info : UTF-8 Plain Text
Duration : 1 h 50 min
Bit rate : 50 b/s
Frame rate : 0.207 FPS
Count of elements : 1375
Stream size : 41.2 KiB (0%)
Title : Latin American
Language : Spanish
Default : No
Forced : No

Text #13
ID : 15
Format : UTF-8
Codec ID : S_TEXT/UTF8
Codec ID/Info : UTF-8 Plain Text
Duration : 1 h 51 min
Bit rate : 64 b/s
Frame rate : 0.265 FPS
Count of elements : 1770
Stream size : 52.9 KiB (0%)
Title : Latin American (SDH)
Language : Spanish
Default : No
Forced : No

Text #14
ID : 16
Format : UTF-8
Codec ID : S_TEXT/UTF8
Codec ID/Info : UTF-8 Plain Text
Duration : 1 h 50 min
Bit rate : 49 b/s
Frame rate : 0.207 FPS
Count of elements : 1377
Stream size : 40.4 KiB (0%)
Language : Spanish
Default : No
Forced : No

Text #15
ID : 17
Format : UTF-8
Codec ID : S_TEXT/UTF8
Codec ID/Info : UTF-8 Plain Text
Duration : 1 h 50 min
Bit rate : 53 b/s
Frame rate : 0.220 FPS
Count of elements : 1466
Stream size : 43.8 KiB (0%)
Language : Spanish
Default : No
Forced : No

Text #16
ID : 18
Format : UTF-8
Codec ID : S_TEXT/UTF8
Codec ID/Info : UTF-8 Plain Text
Duration : 1 h 45 min
Bit rate : 69 b/s
Frame rate : 0.283 FPS
Count of elements : 1795
Stream size : 53.9 KiB (0%)
Title : SDH
Language : Spanish
Default : No
Forced : No

Text #17
ID : 19
Format : UTF-8
Codec ID : S_TEXT/UTF8
Codec ID/Info : UTF-8 Plain Text
Duration : 1 h 50 min
Bit rate : 52 b/s
Frame rate : 0.210 FPS
Count of elements : 1400
Stream size : 42.6 KiB (0%)
Language : Basque
Default : No
Forced : No

Text #18
ID : 20
Format : UTF-8
Codec ID : S_TEXT/UTF8
Codec ID/Info : UTF-8 Plain Text
Duration : 1 h 50 min
Bit rate : 44 b/s
Frame rate : 0.208 FPS
Count of elements : 1384
Stream size : 36.1 KiB (0%)
Language : Finnish
Default : No
Forced : No

Text #19
ID : 21
Format : UTF-8
Codec ID : S_TEXT/UTF8
Codec ID/Info : UTF-8 Plain Text
Duration : 1 h 49 min
Bit rate : 55 b/s
Frame rate : 0.208 FPS
Count of elements : 1360
Stream size : 44.3 KiB (0%)
Language : fil
Default : No
Forced : No

Text #20
ID : 22
Format : UTF-8
Codec ID : S_TEXT/UTF8
Codec ID/Info : UTF-8 Plain Text
Duration : 1 h 50 min
Bit rate : 48 b/s
Frame rate : 0.205 FPS
Count of elements : 1365
Stream size : 39.3 KiB (0%)
Language : French
Default : No
Forced : No

Text #21
ID : 23
Format : UTF-8
Codec ID : S_TEXT/UTF8
Codec ID/Info : UTF-8 Plain Text
Duration : 1 h 43 min
Bit rate : 66 b/s
Frame rate : 0.230 FPS
Count of elements : 1424
Stream size : 50.5 KiB (0%)
Language : French
Default : No
Forced : No

Text #22
ID : 24
Format : UTF-8
Codec ID : S_TEXT/UTF8
Codec ID/Info : UTF-8 Plain Text
Duration : 1 h 51 min
Bit rate : 74 b/s
Frame rate : 0.280 FPS
Count of elements : 1869
Stream size : 61.1 KiB (0%)
Title : SDH
Language : French
Default : No
Forced : No

Text #23
ID : 25
Format : UTF-8
Codec ID : S_TEXT/UTF8
Codec ID/Info : UTF-8 Plain Text
Duration : 1 h 50 min
Bit rate : 49 b/s
Frame rate : 0.212 FPS
Count of elements : 1410
Stream size : 40.4 KiB (0%)
Language : Galician
Default : No
Forced : No

Text #24
ID : 26
Format : UTF-8
Codec ID : S_TEXT/UTF8
Codec ID/Info : UTF-8 Plain Text
Duration : 1 h 50 min
Bit rate : 81 b/s
Frame rate : 0.209 FPS
Count of elements : 1389
Stream size : 66.6 KiB (0%)
Language : Hebrew
Default : No
Forced : No

Text #25
ID : 27
Format : UTF-8
Codec ID : S_TEXT/UTF8
Codec ID/Info : UTF-8 Plain Text
Duration : 1 h 50 min
Bit rate : 48 b/s
Frame rate : 0.208 FPS
Count of elements : 1384
Stream size : 39.6 KiB (0%)
Language : Croatian
Default : No
Forced : No

Text #26
ID : 28
Format : UTF-8
Codec ID : S_TEXT/UTF8
Codec ID/Info : UTF-8 Plain Text
Duration : 1 h 50 min
Bit rate : 50 b/s
Frame rate : 0.203 FPS
Count of elements : 1352
Stream size : 40.7 KiB (0%)
Language : Hungarian
Default : No
Forced : No

Text #27
ID : 29
Format : UTF-8
Codec ID : S_TEXT/UTF8
Codec ID/Info : UTF-8 Plain Text
Duration : 1 h 50 min
Bit rate : 48 b/s
Frame rate : 0.209 FPS
Count of elements : 1389
Stream size : 39.2 KiB (0%)
Language : Indonesian
Default : No
Forced : No

Text #28
ID : 30
Format : UTF-8
Codec ID : S_TEXT/UTF8
Codec ID/Info : UTF-8 Plain Text
Duration : 1 h 50 min
Bit rate : 51 b/s
Frame rate : 0.209 FPS
Count of elements : 1385
Stream size : 41.4 KiB (0%)
Language : Italian
Default : No
Forced : No

Text #29
ID : 31
Format : UTF-8
Codec ID : S_TEXT/UTF8
Codec ID/Info : UTF-8 Plain Text
Duration : 1 h 43 min
Bit rate : 61 b/s
Frame rate : 0.230 FPS
Count of elements : 1431
Stream size : 46.6 KiB (0%)
Language : Italian
Default : No
Forced : No

Text #30
ID : 32
Format : UTF-8
Codec ID : S_TEXT/UTF8
Codec ID/Info : UTF-8 Plain Text
Duration : 1 h 51 min
Bit rate : 69 b/s
Frame rate : 0.282 FPS
Count of elements : 1884
Stream size : 57.0 KiB (0%)
Title : SDH
Language : Italian
Default : No
Forced : No

Text #31
ID : 33
Format : UTF-8
Codec ID : S_TEXT/UTF8
Codec ID/Info : UTF-8 Plain Text
Duration : 1 h 50 min
Bit rate : 53 b/s
Frame rate : 0.221 FPS
Count of elements : 1470
Stream size : 43.6 KiB (0%)
Language : Japanese
Default : No
Forced : No

Text #32
ID : 34
Format : UTF-8
Codec ID : S_TEXT/UTF8
Codec ID/Info : UTF-8 Plain Text
Duration : 1 h 50 min
Bit rate : 66 b/s
Frame rate : 0.211 FPS
Count of elements : 1402
Stream size : 54.3 KiB (0%)
Language : Korean
Default : No
Forced : No

Text #33
ID : 35
Format : UTF-8
Codec ID : S_TEXT/UTF8
Codec ID/Info : UTF-8 Plain Text
Duration : 1 h 50 min
Bit rate : 50 b/s
Frame rate : 0.208 FPS
Count of elements : 1386
Stream size : 41.2 KiB (0%)
Language : Malay
Default : No
Forced : No

Text #34
ID : 36
Format : UTF-8
Codec ID : S_TEXT/UTF8
Codec ID/Info : UTF-8 Plain Text
Duration : 1 h 50 min
Bit rate : 48 b/s
Frame rate : 0.200 FPS
Count of elements : 1334
Stream size : 39.7 KiB (0%)
Language : Norwegian Bokmal
Default : No
Forced : No

Text #35
ID : 37
Format : UTF-8
Codec ID : S_TEXT/UTF8
Codec ID/Info : UTF-8 Plain Text
Duration : 1 h 50 min
Bit rate : 47 b/s
Frame rate : 0.197 FPS
Count of elements : 1305
Stream size : 38.5 KiB (0%)
Language : Dutch
Default : No
Forced : No

Text #36
ID : 38
Format : UTF-8
Codec ID : S_TEXT/UTF8
Codec ID/Info : UTF-8 Plain Text
Duration : 1 h 50 min
Bit rate : 47 b/s
Frame rate : 0.208 FPS
Count of elements : 1378
Stream size : 38.4 KiB (0%)
Language : Polish
Default : No
Forced : No

Text #37
ID : 39
Format : UTF-8
Codec ID : S_TEXT/UTF8
Codec ID/Info : UTF-8 Plain Text
Duration : 1 h 43 min
Bit rate : 63 b/s
Frame rate : 0.226 FPS
Count of elements : 1408
Stream size : 47.9 KiB (0%)
Title : Brazilian
Language : Portuguese
Default : No
Forced : No

Text #38
ID : 40
Format : UTF-8
Codec ID : S_TEXT/UTF8
Codec ID/Info : UTF-8 Plain Text
Duration : 1 h 50 min
Bit rate : 50 b/s
Frame rate : 0.207 FPS
Count of elements : 1381
Stream size : 41.3 KiB (0%)
Title : Brazilian
Language : Portuguese
Default : No
Forced : No

Text #39
ID : 41
Format : UTF-8
Codec ID : S_TEXT/UTF8
Codec ID/Info : UTF-8 Plain Text
Duration : 1 h 51 min
Bit rate : 69 b/s
Frame rate : 0.271 FPS
Count of elements : 1808
Stream size : 56.8 KiB (0%)
Title : Brazilian (SDH)
Language : Portuguese
Default : No
Forced : No

Text #40
ID : 42
Format : UTF-8
Codec ID : S_TEXT/UTF8
Codec ID/Info : UTF-8 Plain Text
Duration : 1 h 50 min
Bit rate : 53 b/s
Frame rate : 0.212 FPS
Count of elements : 1408
Stream size : 43.2 KiB (0%)
Language : Portuguese
Default : No
Forced : No

Text #41
ID : 43
Format : UTF-8
Codec ID : S_TEXT/UTF8
Codec ID/Info : UTF-8 Plain Text
Duration : 1 h 50 min
Bit rate : 58 b/s
Frame rate : 0.209 FPS
Count of elements : 1385
Stream size : 47.3 KiB (0%)
Language : Romanian
Default : No
Forced : No

Text #42
ID : 44
Format : UTF-8
Codec ID : S_TEXT/UTF8
Codec ID/Info : UTF-8 Plain Text
Duration : 1 h 50 min
Bit rate : 82 b/s
Frame rate : 0.211 FPS
Count of elements : 1404
Stream size : 66.7 KiB (0%)
Language : Russian
Default : No
Forced : No

Text #43
ID : 45
Format : UTF-8
Codec ID : S_TEXT/UTF8
Codec ID/Info : UTF-8 Plain Text
Duration : 1 h 50 min
Bit rate : 52 b/s
Frame rate : 0.196 FPS
Count of elements : 1305
Stream size : 42.3 KiB (0%)
Language : Swedish
Default : No
Forced : No

Text #44
ID : 46
Format : UTF-8
Codec ID : S_TEXT/UTF8
Codec ID/Info : UTF-8 Plain Text
Duration : 1 h 50 min
Bit rate : 141 b/s
Frame rate : 0.213 FPS
Count of elements : 1420
Stream size : 115 KiB (0%)
Language : Thai
Default : No
Forced : No

Text #45
ID : 47
Format : UTF-8
Codec ID : S_TEXT/UTF8
Codec ID/Info : UTF-8 Plain Text
Duration : 1 h 50 min
Bit rate : 51 b/s
Frame rate : 0.202 FPS
Count of elements : 1346
Stream size : 41.7 KiB (0%)
Language : Turkish
Default : No
Forced : No

Text #46
ID : 48
Format : UTF-8
Codec ID : S_TEXT/UTF8
Codec ID/Info : UTF-8 Plain Text
Duration : 1 h 50 min
Bit rate : 86 b/s
Frame rate : 0.211 FPS
Count of elements : 1402
Stream size : 70.4 KiB (0%)
Language : Ukrainian
Default : No
Forced : No

Text #47
ID : 49
Format : UTF-8
Codec ID : S_TEXT/UTF8
Codec ID/Info : UTF-8 Plain Text
Duration : 1 h 50 min
Bit rate : 73 b/s
Frame rate : 0.208 FPS
Count of elements : 1388
Stream size : 59.6 KiB (0%)
Language : Vietnamese
Default : No
Forced : No

Text #48
ID : 50
Format : UTF-8
Codec ID : S_TEXT/UTF8
Codec ID/Info : UTF-8 Plain Text
Duration : 1 h 50 min
Bit rate : 61 b/s
Frame rate : 0.209 FPS
Count of elements : 1392
Stream size : 50.4 KiB (0%)
Title : 简体中字
Language : Chinese
Default : No
Forced : No

Text #49
ID : 51
Format : UTF-8
Codec ID : S_TEXT/UTF8
Codec ID/Info : UTF-8 Plain Text
Duration : 1 h 50 min
Bit rate : 60 b/s
Frame rate : 0.209 FPS
Count of elements : 1391
Stream size : 48.9 KiB (0%)
Title : 繁体中字
Language : Chinese
Default : No
Forced : No

Menu
01:44:31.000 : en:End Credits


推荐使用qBittorrent、uTorrent、BitComet等下载软件,有条件的推荐115或会员软件下载!

下载地址:


游客,如果您要查看本帖隐藏内容请回复

游客,如果您要查看本帖隐藏内容请回复

游客,如果您要查看本帖隐藏内容请回复







上一篇:神迹 [简繁中字] / The Wonder (2022) 4K高清版本下载
下一篇:女巫[繁粤中字] / The Witches (2020) 4K高清版本下载
回复

使用道具 举报

您需要登录后才可以回帖 登录 | 立即注册

本版积分规则

精彩图文
Archiver|手机版|TAG|Sitemap|新帖|专题|联系我们:邮箱: 4kjia.com@gmail.com   

4k家园   ©2019