[4K电影] 女巫[繁粤中字] / The Witches (2020) 4K高清版本下载

[复制链接]

主题

帖子

0

积分

超级版主

Rank: 8Rank: 8

积分
0
 楼主| 发表于 2022-11-29 19:43:41 | 显示全部楼层 |阅读模式

QQ图片20221129194440_副本.png

◎译  名 女巫/怪诞黑巫后(港)/女巫们(台)/女巫再现
◎片  名 The Witches
◎年  代 2020
◎产  地 墨西哥/美国
◎类  别 喜剧/奇幻/冒险
◎语  言 英语
◎上映日期 2020-10-22(美国)
◎IMDb评分  5.3/10 from 41748 users 更新 : 2022-11-29
◎IMDb链接  https://www.imdb.com/title/tt0805647/
◎豆瓣评分 5.9/10 from 25813 users 更新 : 2022-11-29
◎豆瓣链接 https://douban.com/subject/3346423/
◎片  长 106分钟
◎导  演 罗伯特·泽米吉斯 Robert Zemeckis
◎编  剧 罗伯特·泽米吉斯 Robert Zemeckis / 肯尼亚·巴里斯 Kenya Barris / 吉尔莫·德尔·托罗 Guillermo del Toro / 罗尔德·达尔 Roald Dahl
◎主  演 安妮·海瑟薇 Anne Hathaway
       奥克塔维亚·斯宾瑟 Octavia Spencer
       斯坦利·图齐 Stanley Tucci
       克里斯汀·肯诺恩斯 Kristin Chenoweth
       克里斯·洛克 Chris Rock
       查尔斯·爱德华兹 Charles Edwards
       尤吉尼亚·克鲁索 Eugenia Caruso
       西蒙·曼永达 Simon Manyonda
       菲利普·斯波 Philippe Spall
       安格斯·瑞特 Angus Wright
       奥尔拉·欧鲁尔克 Orla O'Rourke
       吉米·斯达 Jimmy Star
       杰齐尔·布鲁诺 Jahzir Bruno


◎简  介

  该片基于罗尔德·达尔(《查理和巧克力工厂》原著作者)所著同名儿童小说,部分设定在挪威,部分设定在英国,讲述一个7岁小男孩和祖母住在一起,这个世界中存在着邪恶女巫,某次他偶遇女巫,被变成了老鼠,他必须尽力阻止她们破坏世界。

Video
ID : 1
Format : HEVC
Format/Info : High Efficiency Video Coding
Format profile : Main 10@L5@High
HDR format : Dolby Vision, Version 1.0, dvhe.05.06, BL+RPU
Codec ID : V_MPEGH/ISO/HEVC
Duration : 1 h 44 min
Bit rate : 24.4 Mb/s
Width : 3 840 pixels
Height : 1 606 pixels
Display aspect ratio : 2.40:1
Frame rate mode : Constant
Frame rate : 23.976 (24000/1001) FPS
Color space : YUV
Chroma subsampling : 4:2:0
Bit depth : 10 bits
Bits/(Pixel*Frame) : 0.165
Stream size : 17.8 GiB (85%)
Default : No
Forced : No

Audio #1
ID : 2
Format : DTS XLL
Format/Info : Digital Theater Systems
Commercial name : DTS-HD Master Audio
Codec ID : A_DTS
Duration : 1 h 44 min
Bit rate mode : Variable
Bit rate : 3 626 kb/s
Channel(s) : 6 channels
Channel layout : C L R Ls Rs LFE
Sampling rate : 48.0 kHz
Frame rate : 93.750 FPS (512 SPF)
Bit depth : 24 bits
Compression mode : Lossless
Delay relative to video : 8 ms
Stream size : 2.64 GiB (13%)
Title : DTS-HD MA 5.1
Language : English
Default : Yes
Forced : No

Audio #2
ID : 3
Format : AC-3
Format/Info : Audio Coding 3
Commercial name : Dolby Digital
Codec ID : A_AC3
Duration : 1 h 44 min
Bit rate mode : Constant
Bit rate : 640 kb/s
Channel(s) : 6 channels
Channel layout : L R C LFE Ls Rs
Sampling rate : 48.0 kHz
Frame rate : 31.250 FPS (1536 SPF)
Compression mode : Lossy
Stream size : 477 MiB (2%)
Title : DD 5.1
Language : English
Service kind : Complete Main
Default : No
Forced : No

Text #1
ID : 4
Format : UTF-8
Codec ID : S_TEXT/UTF8
Codec ID/Info : UTF-8 Plain Text
Duration : 1 h 36 min
Bit rate : 59 b/s
Frame rate : 0.262 FPS
Count of elements : 1514
Stream size : 42.1 KiB (0%)
Language : English
Default : Yes
Forced : No

Text #2
ID : 5
Format : UTF-8
Codec ID : S_TEXT/UTF8
Codec ID/Info : UTF-8 Plain Text
Duration : 1 h 36 min
Bit rate : 71 b/s
Frame rate : 0.309 FPS
Count of elements : 1788
Stream size : 50.4 KiB (0%)
Title : SDH
Language : English
Default : No
Forced : No

Text #3
ID : 6
Format : UTF-8
Codec ID : S_TEXT/UTF8
Codec ID/Info : UTF-8 Plain Text
Duration : 1 h 36 min
Bit rate : 61 b/s
Frame rate : 0.236 FPS
Count of elements : 1364
Stream size : 43.3 KiB (0%)
Language : English
Default : No
Forced : No

Text #4
ID : 7
Format : UTF-8
Codec ID : S_TEXT/UTF8
Codec ID/Info : UTF-8 Plain Text
Duration : 1 h 36 min
Bit rate : 70 b/s
Frame rate : 0.274 FPS
Count of elements : 1587
Stream size : 49.5 KiB (0%)
Title : SDH
Language : English
Default : No
Forced : No

Text #5
ID : 8
Format : UTF-8
Codec ID : S_TEXT/UTF8
Codec ID/Info : UTF-8 Plain Text
Duration : 1 h 43 min
Bit rate : 88 b/s
Frame rate : 0.226 FPS
Count of elements : 1405
Stream size : 67.5 KiB (0%)
Language : Arabic
Default : No
Forced : No

Text #6
ID : 9
Format : UTF-8
Codec ID : S_TEXT/UTF8
Codec ID/Info : UTF-8 Plain Text
Duration : 1 h 43 min
Bit rate : 82 b/s
Frame rate : 0.225 FPS
Count of elements : 1399
Stream size : 62.4 KiB (0%)
Language : Bulgarian
Default : No
Forced : No

Text #7
ID : 10
Format : UTF-8
Codec ID : S_TEXT/UTF8
Codec ID/Info : UTF-8 Plain Text
Duration : 1 h 36 min
Bit rate : 45 b/s
Frame rate : 0.219 FPS
Count of elements : 1267
Stream size : 31.8 KiB (0%)
Title : 繁体中字
Language : Chinese
Default : No
Forced : No


Text #8
ID : 11
Format : UTF-8
Codec ID : S_TEXT/UTF8
Codec ID/Info : UTF-8 Plain Text
Duration : 1 h 43 min
Bit rate : 49 b/s
Frame rate : 0.226 FPS
Count of elements : 1407
Stream size : 37.8 KiB (0%)
Language : Czech
Default : No
Forced : No

Text #9
ID : 12
Format : UTF-8
Codec ID : S_TEXT/UTF8
Codec ID/Info : UTF-8 Plain Text
Duration : 1 h 43 min
Bit rate : 50 b/s
Frame rate : 0.177 FPS
Count of elements : 1099
Stream size : 38.6 KiB (0%)
Language : Danish
Default : No
Forced : No

Text #10
ID : 13
Format : UTF-8
Codec ID : S_TEXT/UTF8
Codec ID/Info : UTF-8 Plain Text
Duration : 1 h 43 min
Bit rate : 88 b/s
Frame rate : 0.225 FPS
Count of elements : 1401
Stream size : 66.9 KiB (0%)
Language : Greek
Default : No
Forced : No

Text #11
ID : 14
Format : UTF-8
Codec ID : S_TEXT/UTF8
Codec ID/Info : UTF-8 Plain Text
Duration : 1 h 43 min
Bit rate : 54 b/s
Frame rate : 0.222 FPS
Count of elements : 1384
Stream size : 41.4 KiB (0%)
Title : Latin American
Language : Spanish
Default : No
Forced : No

Text #12
ID : 15
Format : UTF-8
Codec ID : S_TEXT/UTF8
Codec ID/Info : UTF-8 Plain Text
Duration : 1 h 43 min
Bit rate : 50 b/s
Frame rate : 0.225 FPS
Count of elements : 1400
Stream size : 38.4 KiB (0%)
Title : European
Language : Spanish
Default : No
Forced : No

Text #13
ID : 16
Format : UTF-8
Codec ID : S_TEXT/UTF8
Codec ID/Info : UTF-8 Plain Text
Duration : 1 h 43 min
Bit rate : 55 b/s
Frame rate : 0.211 FPS
Count of elements : 1311
Stream size : 41.8 KiB (0%)
Language : Estonian
Default : No
Forced : No

Text #14
ID : 17
Format : UTF-8
Codec ID : S_TEXT/UTF8
Codec ID/Info : UTF-8 Plain Text
Duration : 1 h 43 min
Bit rate : 55 b/s
Frame rate : 0.209 FPS
Count of elements : 1303
Stream size : 41.9 KiB (0%)
Language : Finnish
Default : No
Forced : No

Text #15
ID : 18
Format : UTF-8
Codec ID : S_TEXT/UTF8
Codec ID/Info : UTF-8 Plain Text
Duration : 1 h 43 min
Bit rate : 51 b/s
Frame rate : 0.219 FPS
Count of elements : 1363
Stream size : 38.9 KiB (0%)
Language : French
Default : No
Forced : No

Text #16
ID : 19
Format : UTF-8
Codec ID : S_TEXT/UTF8
Codec ID/Info : UTF-8 Plain Text
Duration : 1 h 43 min
Bit rate : 54 b/s
Frame rate : 0.210 FPS
Count of elements : 1308
Stream size : 41.7 KiB (0%)
Language : Hungarian
Default : No
Forced : No

Text #17
ID : 20
Format : UTF-8
Codec ID : S_TEXT/UTF8
Codec ID/Info : UTF-8 Plain Text
Duration : 1 h 43 min
Bit rate : 50 b/s
Frame rate : 0.201 FPS
Count of elements : 1248
Stream size : 38.3 KiB (0%)
Language : Italian
Default : No
Forced : No

Text #18
ID : 21
Format : UTF-8
Codec ID : S_TEXT/UTF8
Codec ID/Info : UTF-8 Plain Text
Duration : 1 h 36 min
Bit rate : 46 b/s
Frame rate : 0.202 FPS
Count of elements : 1169
Stream size : 33.1 KiB (0%)
Language : Japanese
Default : No
Forced : No

Text #19
ID : 22
Format : UTF-8
Codec ID : S_TEXT/UTF8
Codec ID/Info : UTF-8 Plain Text
Duration : 1 h 43 min
Bit rate : 67 b/s
Frame rate : 0.212 FPS
Count of elements : 1318
Stream size : 51.3 KiB (0%)
Language : Korean
Default : No
Forced : No

Text #20
ID : 23
Format : UTF-8
Codec ID : S_TEXT/UTF8
Codec ID/Info : UTF-8 Plain Text
Duration : 1 h 43 min
Bit rate : 51 b/s
Frame rate : 0.226 FPS
Count of elements : 1404
Stream size : 39.0 KiB (0%)
Language : Lithuanian
Default : No
Forced : No

Text #21
ID : 24
Format : UTF-8
Codec ID : S_TEXT/UTF8
Codec ID/Info : UTF-8 Plain Text
Duration : 1 h 43 min
Bit rate : 54 b/s
Frame rate : 0.211 FPS
Count of elements : 1315
Stream size : 41.5 KiB (0%)
Language : Latvian
Default : No
Forced : No

Text #22
ID : 25
Format : UTF-8
Codec ID : S_TEXT/UTF8
Codec ID/Info : UTF-8 Plain Text
Duration : 1 h 43 min
Bit rate : 47 b/s
Frame rate : 0.155 FPS
Count of elements : 966
Stream size : 36.3 KiB (0%)
Language : Dutch
Default : No
Forced : No

Text #23
ID : 26
Format : UTF-8
Codec ID : S_TEXT/UTF8
Codec ID/Info : UTF-8 Plain Text
Duration : 1 h 43 min
Bit rate : 48 b/s
Frame rate : 0.163 FPS
Count of elements : 1015
Stream size : 36.8 KiB (0%)
Language : Norwegian
Default : No
Forced : No

Text #24
ID : 27
Format : UTF-8
Codec ID : S_TEXT/UTF8
Codec ID/Info : UTF-8 Plain Text
Duration : 1 h 43 min
Bit rate : 50 b/s
Frame rate : 0.204 FPS
Count of elements : 1267
Stream size : 38.0 KiB (0%)
Language : Polish
Default : No
Forced : No

Text #25
ID : 28
Format : UTF-8
Codec ID : S_TEXT/UTF8
Codec ID/Info : UTF-8 Plain Text
Duration : 1 h 43 min
Bit rate : 53 b/s
Frame rate : 0.227 FPS
Count of elements : 1410
Stream size : 40.3 KiB (0%)
Title : Brazilian
Language : Portuguese
Default : No
Forced : No

Text #26
ID : 29
Format : UTF-8
Codec ID : S_TEXT/UTF8
Codec ID/Info : UTF-8 Plain Text
Duration : 1 h 43 min
Bit rate : 51 b/s
Frame rate : 0.225 FPS
Count of elements : 1398
Stream size : 38.8 KiB (0%)
Language : Portuguese
Default : No
Forced : No

Text #27
ID : 30
Format : UTF-8
Codec ID : S_TEXT/UTF8
Codec ID/Info : UTF-8 Plain Text
Duration : 1 h 43 min
Bit rate : 48 b/s
Frame rate : 0.169 FPS
Count of elements : 1054
Stream size : 37.1 KiB (0%)
Language : Swedish
Default : No
Forced : No

Text #28
ID : 31
Format : UTF-8
Codec ID : S_TEXT/UTF8
Codec ID/Info : UTF-8 Plain Text
Duration : 1 h 43 min
Bit rate : 119 b/s
Frame rate : 0.226 FPS
Count of elements : 1405
Stream size : 91.1 KiB (0%)
Language : Thai
Default : No
Forced : No

Text #29
ID : 32
Format : UTF-8
Codec ID : S_TEXT/UTF8
Codec ID/Info : UTF-8 Plain Text
Duration : 1 h 43 min
Bit rate : 43 b/s
Frame rate : 0.227 FPS
Count of elements : 1415
Stream size : 32.9 KiB (0%)
Title : 粤语中字
Language : Chinese
Default : No
Forced : No


Text #30
ID : 33
Format : UTF-8
Codec ID : S_TEXT/UTF8
Codec ID/Info : UTF-8 Plain Text
Duration : 1 h 36 min
Bit rate : 59 b/s
Frame rate : 0.216 FPS
Count of elements : 1249
Stream size : 42.0 KiB (0%)
Language : German
Default : No
Forced : No
推荐使用qBittorrent、uTorrent、BitComet等下载软件,有条件的推荐115或会员软件下载!

下载地址:

游客,如果您要查看本帖隐藏内容请回复

游客,如果您要查看本帖隐藏内容请回复





上一篇:日班猎人 [简繁中字] / Day Shift (2022) 4K高清版本下载
下一篇:良心护士[简繁中字] / The Good Nurse (2022) 4K高清版本下载
回复

使用道具 举报

您需要登录后才可以回帖 登录 | 立即注册

本版积分规则

精彩图文
Archiver|手机版|TAG|Sitemap|新帖|专题|联系我们:邮箱: 4kjia.com@gmail.com   

4k家园   ©2019