[4K电影] 良心护士[简繁中字] / The Good Nurse (2022) 4K高清版本下载

[复制链接]

主题

帖子

0

积分

超级版主

Rank: 8Rank: 8

积分
0
 楼主| 发表于 2022-11-29 20:30:31 | 显示全部楼层 |阅读模式
本帖最后由 最爱4K哟 于 2022-11-29 20:34 编辑

良心护士.png

◎译  名 良心护士/好护士/死亡天使(台)
◎片  名 The Good Nurse
◎年  代 2022
◎产  地 美国
◎类  别 剧情/惊悚/传记/犯罪
◎语  言 英语
◎上映日期 2022-09-11(多伦多电影节)/2022-10-19(美国)/2022-10-26(美国网络)
◎IMDb评分 6.8/10 from 42525 users 更新 : 2022-11-28
◎IMDb链接 https://www.imdb.com/title/tt4273800/
◎豆瓣评分 7.0/10 from 10506 users 更新 : 2022-11-29
◎豆瓣链接 https://movie.douban.com/subject/26641055/
◎导  演 托比亚斯·林道赫姆 Tobias Lindholm
◎编  剧 克里斯蒂·威尔逊-凯恩斯 Krysty Wilson-Cairns
◎主  演 杰西卡·查斯坦 Jessica Chastain
       埃迪·雷德梅恩 Eddie Redmayne
       纳马迪·阿斯穆格哈 Nnamdi Asomugha
       金·迪肯斯 Kim Dickens
       马利克·约巴 Malik Yoba
       阿利克斯·韦斯特·莱弗勒 Alix West Lefler
       诺亚·艾默里奇 Noah Emmerich
       阿杰·奈杜 Ajay Naidu
       玛西娅·让·库尔茨 Marcia Jean Kurtz
       德温·麦克道维尔 Devyn McDowell
       布鲁克·斯泰茜·米尔斯 Brooke Stacy Mills
       维克多·克鲁兹 Victor Cruz
       克里斯·亨利·科菲 Chris Henry Coffey
       安吉莉卡·博斯博姆 Anjelica Bosboom
       肖恩·奥哈根 Shaun O'Hagan
       达特尔·麦克雷 Dartel McRae
       大卫·拉文 David Lavine
       埃文·巴斯 Evan Bass
       史蒂夫·安托努奇 Steve Antonucci



◎简  介


  艾米(杰西卡·查斯坦饰)是一名富有同情心的护士和单亲母亲,她正与危及生命的心脏病作斗争,她在重症监护病房上夜班,工作繁重,要求很高,身体和情绪都已达到极限。但当查理(埃迪·雷德梅恩饰),一位体贴而富有同情心的新护士来到她的病房时,帮助到来了。在医院度过漫长的夜晚时,两人建立了牢固 而忠诚的友谊,多年来,艾米第一次对自己和女儿的未来充满信心。但是,在一系列神秘的病人死亡事件引发了一项调查,指出查理是主要嫌疑人之后,艾米被迫冒着生命危险和孩子的安全来揭露真相。

Video
ID : 1
Format : HEVC
Format/Info : High Efficiency Video Coding
Format profile : Main 10@L5@Main
HDR format : Dolby Vision, Version 1.0, dvhe.05.06, BL+RPU
Codec ID : V_MPEGH/ISO/HEVC
Duration : 2 h 3 min
Bit rate : 18.8 Mb/s
Width : 3 840 pixels
Height : 2 160 pixels
Display aspect ratio : 16:9
Frame rate mode : Constant
Frame rate : 24.000 FPS
Color space : YUV
Chroma subsampling : 4:2:0
Bit depth : 10 bits
Bits/(Pixel*Frame) : 0.094
Stream size : 16.2 GiB (96%)
Language : English
Default : Yes
Forced : No
Color range : Full

Audio
ID : 2
Format : E-AC-3 JOC
Format/Info : Enhanced AC-3 with Joint Object Coding
Commercial name : Dolby Digital Plus with Dolby Atmos
Codec ID : A_EAC3
Duration : 2 h 3 min
Bit rate mode : Constant
Bit rate : 768 kb/s
Channel(s) : 6 channels
Channel layout : L R C LFE Ls Rs
Sampling rate : 48.0 kHz
Frame rate : 31.250 FPS (1536 SPF)
Compression mode : Lossy
Stream size : 678 MiB (4%)
Language : English
Service kind : Complete Main
Default : Yes
Forced : No
Complexity index : 16
Number of dynamic objects : 15
Bed channel count : 1 channel
Bed channel configuration : LFE

Text #1
ID : 3
Format : UTF-8
Codec ID : S_TEXT/UTF8
Codec ID/Info : UTF-8 Plain Text
Duration : 1 h 54 min
Bit rate : 55 b/s
Frame rate : 0.211 FPS
Count of elements : 1452
Stream size : 46.5 KiB (0%)
Language : English
Default : No
Forced : No

Text #2
ID : 4
Format : UTF-8
Codec ID : S_TEXT/UTF8
Codec ID/Info : UTF-8 Plain Text
Duration : 1 h 55 min
Bit rate : 65 b/s
Frame rate : 0.247 FPS
Count of elements : 1713
Stream size : 55.4 KiB (0%)
Title : SDH
Language : English
Default : No
Forced : No

Text #3
ID : 5
Format : UTF-8
Codec ID : S_TEXT/UTF8
Codec ID/Info : UTF-8 Plain Text
Duration : 1 h 55 min
Bit rate : 88 b/s
Frame rate : 0.200 FPS
Count of elements : 1394
Stream size : 75.2 KiB (0%)
Language : Arabic
Default : No
Forced : No

Text #4
ID : 6
Format : UTF-8
Codec ID : S_TEXT/UTF8
Codec ID/Info : UTF-8 Plain Text
Duration : 2 h 0 min
Bit rate : 47 b/s
Frame rate : 0.193 FPS
Count of elements : 1391
Stream size : 42.2 KiB (0%)
Language : Catalan
Default : No
Forced : No

Text #5
ID : 7
Format : UTF-8
Codec ID : S_TEXT/UTF8
Codec ID/Info : UTF-8 Plain Text
Duration : 1 h 55 min
Bit rate : 50 b/s
Frame rate : 0.209 FPS
Count of elements : 1455
Stream size : 43.2 KiB (0%)
Language : Czech
Default : No
Forced : No

Text #6
ID : 8
Format : UTF-8
Codec ID : S_TEXT/UTF8
Codec ID/Info : UTF-8 Plain Text
Duration : 2 h 0 min
Bit rate : 48 b/s
Frame rate : 0.194 FPS
Count of elements : 1402
Stream size : 42.6 KiB (0%)
Language : Czech
Default : No
Forced : No

Text #7
ID : 9
Format : UTF-8
Codec ID : S_TEXT/UTF8
Codec ID/Info : UTF-8 Plain Text
Duration : 1 h 56 min
Bit rate : 61 b/s
Frame rate : 0.254 FPS
Count of elements : 1770
Stream size : 52.5 KiB (0%)
Title : SDH
Language : Czech
Default : No
Forced : No

Text #8
ID : 10
Format : UTF-8
Codec ID : S_TEXT/UTF8
Codec ID/Info : UTF-8 Plain Text
Duration : 2 h 0 min
Bit rate : 45 b/s
Frame rate : 0.181 FPS
Count of elements : 1311
Stream size : 40.3 KiB (0%)
Language : Danish
Default : No
Forced : No

Text #9
ID : 11
Format : UTF-8
Codec ID : S_TEXT/UTF8
Codec ID/Info : UTF-8 Plain Text
Duration : 2 h 0 min
Bit rate : 48 b/s
Frame rate : 0.186 FPS
Count of elements : 1346
Stream size : 42.9 KiB (0%)
Language : German
Default : No
Forced : No

Text #10
ID : 12
Format : UTF-8
Codec ID : S_TEXT/UTF8
Codec ID/Info : UTF-8 Plain Text
Duration : 1 h 56 min
Bit rate : 71 b/s
Frame rate : 0.257 FPS
Count of elements : 1789
Stream size : 61.3 KiB (0%)
Language : German
Default : No
Forced : No

Text #11
ID : 13
Format : UTF-8
Codec ID : S_TEXT/UTF8
Codec ID/Info : UTF-8 Plain Text
Duration : 1 h 56 min
Bit rate : 71 b/s
Frame rate : 0.257 FPS
Count of elements : 1789
Stream size : 61.3 KiB (0%)
Title : SDH
Language : German
Default : No
Forced : No

Text #12
ID : 14
Format : UTF-8
Codec ID : S_TEXT/UTF8
Codec ID/Info : UTF-8 Plain Text
Duration : 2 h 0 min
Bit rate : 81 b/s
Frame rate : 0.189 FPS
Count of elements : 1367
Stream size : 72.0 KiB (0%)
Language : Greek
Default : No
Forced : No

Text #13
ID : 15
Format : UTF-8
Codec ID : S_TEXT/UTF8
Codec ID/Info : UTF-8 Plain Text
Duration : 1 h 55 min
Bit rate : 54 b/s
Frame rate : 0.208 FPS
Count of elements : 1444
Stream size : 46.7 KiB (0%)
Title : Latin American
Language : Spanish
Default : No
Forced : No

Text #14
ID : 16
Format : UTF-8
Codec ID : S_TEXT/UTF8
Codec ID/Info : UTF-8 Plain Text
Duration : 2 h 0 min
Bit rate : 47 b/s
Frame rate : 0.195 FPS
Count of elements : 1411
Stream size : 42.0 KiB (0%)
Title : Latin American
Language : Spanish
Default : No
Forced : No

Text #15
ID : 17
Format : UTF-8
Codec ID : S_TEXT/UTF8
Codec ID/Info : UTF-8 Plain Text
Duration : 1 h 56 min
Bit rate : 63 b/s
Frame rate : 0.234 FPS
Count of elements : 1633
Stream size : 54.3 KiB (0%)
Title : Latin American (SDH)
Language : Spanish
Default : No
Forced : No

Text #16
ID : 18
Format : UTF-8
Codec ID : S_TEXT/UTF8
Codec ID/Info : UTF-8 Plain Text
Duration : 1 h 55 min
Bit rate : 54 b/s
Frame rate : 0.208 FPS
Count of elements : 1444
Stream size : 46.5 KiB (0%)
Language : Spanish
Default : No
Forced : No

Text #17
ID : 19
Format : UTF-8
Codec ID : S_TEXT/UTF8
Codec ID/Info : UTF-8 Plain Text
Duration : 1 h 55 min
Bit rate : 54 b/s
Frame rate : 0.208 FPS
Count of elements : 1444
Stream size : 46.5 KiB (0%)
Language : Spanish
Default : No
Forced : No

Text #18
ID : 20
Format : UTF-8
Codec ID : S_TEXT/UTF8
Codec ID/Info : UTF-8 Plain Text
Duration : 1 h 56 min
Bit rate : 65 b/s
Frame rate : 0.250 FPS
Count of elements : 1740
Stream size : 56.0 KiB (0%)
Title : SDH
Language : Spanish
Default : No
Forced : No

Text #19
ID : 21
Format : UTF-8
Codec ID : S_TEXT/UTF8
Codec ID/Info : UTF-8 Plain Text
Duration : 2 h 0 min
Bit rate : 48 b/s
Frame rate : 0.190 FPS
Count of elements : 1371
Stream size : 43.2 KiB (0%)
Language : Basque
Default : No
Forced : No

Text #20
ID : 22
Format : UTF-8
Codec ID : S_TEXT/UTF8
Codec ID/Info : UTF-8 Plain Text
Duration : 2 h 0 min
Bit rate : 47 b/s
Frame rate : 0.180 FPS
Count of elements : 1297
Stream size : 42.0 KiB (0%)
Language : Finnish
Default : No
Forced : No

Text #21
ID : 23
Format : UTF-8
Codec ID : S_TEXT/UTF8
Codec ID/Info : UTF-8 Plain Text
Duration : 2 h 0 min
Bit rate : 48 b/s
Frame rate : 0.192 FPS
Count of elements : 1385
Stream size : 42.7 KiB (0%)
Language : fil
Default : No
Forced : No

Text #22
ID : 24
Format : UTF-8
Codec ID : S_TEXT/UTF8
Codec ID/Info : UTF-8 Plain Text
Duration : 2 h 0 min
Bit rate : 46 b/s
Frame rate : 0.180 FPS
Count of elements : 1302
Stream size : 41.0 KiB (0%)
Language : French
Default : No
Forced : No

Text #23
ID : 25
Format : UTF-8
Codec ID : S_TEXT/UTF8
Codec ID/Info : UTF-8 Plain Text
Duration : 2 h 1 min
Bit rate : 72 b/s
Frame rate : 0.248 FPS
Count of elements : 1801
Stream size : 64.3 KiB (0%)
Language : French
Default : No
Forced : No

Text #24
ID : 26
Format : UTF-8
Codec ID : S_TEXT/UTF8
Codec ID/Info : UTF-8 Plain Text
Duration : 2 h 1 min
Bit rate : 71 b/s
Frame rate : 0.251 FPS
Count of elements : 1825
Stream size : 63.2 KiB (0%)
Title : SDH
Language : French
Default : No
Forced : No

Text #25
ID : 27
Format : UTF-8
Codec ID : S_TEXT/UTF8
Codec ID/Info : UTF-8 Plain Text
Duration : 2 h 0 min
Bit rate : 45 b/s
Frame rate : 0.192 FPS
Count of elements : 1386
Stream size : 40.5 KiB (0%)
Language : Galician
Default : No
Forced : No

Text #26
ID : 28
Format : UTF-8
Codec ID : S_TEXT/UTF8
Codec ID/Info : UTF-8 Plain Text
Duration : 2 h 0 min
Bit rate : 81 b/s
Frame rate : 0.189 FPS
Count of elements : 1369
Stream size : 72.0 KiB (0%)
Language : Hebrew
Default : No
Forced : No

Text #27
ID : 29
Format : UTF-8
Codec ID : S_TEXT/UTF8
Codec ID/Info : UTF-8 Plain Text
Duration : 2 h 0 min
Bit rate : 44 b/s
Frame rate : 0.192 FPS
Count of elements : 1388
Stream size : 39.3 KiB (0%)
Language : Croatian
Default : No
Forced : No

Text #28
ID : 30
Format : UTF-8
Codec ID : S_TEXT/UTF8
Codec ID/Info : UTF-8 Plain Text
Duration : 1 h 55 min
Bit rate : 57 b/s
Frame rate : 0.214 FPS
Count of elements : 1487
Stream size : 48.4 KiB (0%)
Language : Hungarian
Default : No
Forced : No

Text #29
ID : 31
Format : UTF-8
Codec ID : S_TEXT/UTF8
Codec ID/Info : UTF-8 Plain Text
Duration : 2 h 0 min
Bit rate : 45 b/s
Frame rate : 0.183 FPS
Count of elements : 1324
Stream size : 40.4 KiB (0%)
Language : Hungarian
Default : No
Forced : No

Text #30
ID : 32
Format : UTF-8
Codec ID : S_TEXT/UTF8
Codec ID/Info : UTF-8 Plain Text
Duration : 1 h 56 min
Bit rate : 73 b/s
Frame rate : 0.265 FPS
Count of elements : 1849
Stream size : 62.1 KiB (0%)
Title : SDH
Language : Hungarian
Default : No
Forced : No

Text #31
ID : 33
Format : UTF-8
Codec ID : S_TEXT/UTF8
Codec ID/Info : UTF-8 Plain Text
Duration : 2 h 0 min
Bit rate : 52 b/s
Frame rate : 0.198 FPS
Count of elements : 1433
Stream size : 46.6 KiB (0%)
Language : Indonesian
Default : No
Forced : No

Text #32
ID : 34
Format : UTF-8
Codec ID : S_TEXT/UTF8
Codec ID/Info : UTF-8 Plain Text
Duration : 2 h 0 min
Bit rate : 50 b/s
Frame rate : 0.193 FPS
Count of elements : 1392
Stream size : 44.8 KiB (0%)
Language : Indonesian
Default : No
Forced : No

Text #33
ID : 35
Format : UTF-8
Codec ID : S_TEXT/UTF8
Codec ID/Info : UTF-8 Plain Text
Duration : 2 h 0 min
Bit rate : 62 b/s
Frame rate : 0.225 FPS
Count of elements : 1629
Stream size : 55.0 KiB (0%)
Title : SDH
Language : Indonesian
Default : No
Forced : No

Text #34
ID : 36
Format : UTF-8
Codec ID : S_TEXT/UTF8
Codec ID/Info : UTF-8 Plain Text
Duration : 2 h 0 min
Bit rate : 47 b/s
Frame rate : 0.191 FPS
Count of elements : 1379
Stream size : 41.9 KiB (0%)
Language : Italian
Default : No
Forced : No

Text #35
ID : 37
Format : UTF-8
Codec ID : S_TEXT/UTF8
Codec ID/Info : UTF-8 Plain Text
Duration : 1 h 56 min
Bit rate : 63 b/s
Frame rate : 0.234 FPS
Count of elements : 1630
Stream size : 54.2 KiB (0%)
Language : Italian
Default : No
Forced : No

Text #36
ID : 38
Format : UTF-8
Codec ID : S_TEXT/UTF8
Codec ID/Info : UTF-8 Plain Text
Duration : 1 h 56 min
Bit rate : 63 b/s
Frame rate : 0.234 FPS
Count of elements : 1630
Stream size : 54.2 KiB (0%)
Title : SDH
Language : Italian
Default : No
Forced : No

Text #37
ID : 39
Format : UTF-8
Codec ID : S_TEXT/UTF8
Codec ID/Info : UTF-8 Plain Text
Duration : 2 h 0 min
Bit rate : 48 b/s
Frame rate : 0.203 FPS
Count of elements : 1468
Stream size : 42.6 KiB (0%)
Language : Japanese
Default : No
Forced : No

Text #38
ID : 40
Format : UTF-8
Codec ID : S_TEXT/UTF8
Codec ID/Info : UTF-8 Plain Text
Duration : 2 h 0 min
Bit rate : 62 b/s
Frame rate : 0.198 FPS
Count of elements : 1431
Stream size : 54.9 KiB (0%)
Language : Korean
Default : No
Forced : No

Text #39
ID : 41
Format : UTF-8
Codec ID : S_TEXT/UTF8
Codec ID/Info : UTF-8 Plain Text
Duration : 2 h 0 min
Bit rate : 48 b/s
Frame rate : 0.192 FPS
Count of elements : 1389
Stream size : 43.0 KiB (0%)
Language : Malay
Default : No
Forced : No

Text #40
ID : 42
Format : UTF-8
Codec ID : S_TEXT/UTF8
Codec ID/Info : UTF-8 Plain Text
Duration : 2 h 0 min
Bit rate : 44 b/s
Frame rate : 0.179 FPS
Count of elements : 1294
Stream size : 39.1 KiB (0%)
Language : Norwegian Bokmal
Default : No
Forced : No

Text #41
ID : 43
Format : UTF-8
Codec ID : S_TEXT/UTF8
Codec ID/Info : UTF-8 Plain Text
Duration : 2 h 0 min
Bit rate : 44 b/s
Frame rate : 0.156 FPS
Count of elements : 1129
Stream size : 39.7 KiB (0%)
Language : Dutch
Default : No
Forced : No

Text #42
ID : 44
Format : UTF-8
Codec ID : S_TEXT/UTF8
Codec ID/Info : UTF-8 Plain Text
Duration : 1 h 55 min
Bit rate : 37 b/s
Frame rate : 0.163 FPS
Count of elements : 1131
Stream size : 31.8 KiB (0%)
Language : Polish
Default : No
Forced : No

Text #43
ID : 45
Format : UTF-8
Codec ID : S_TEXT/UTF8
Codec ID/Info : UTF-8 Plain Text
Duration : 2 h 0 min
Bit rate : 45 b/s
Frame rate : 0.184 FPS
Count of elements : 1333
Stream size : 40.5 KiB (0%)
Language : Polish
Default : No
Forced : No

Text #44
ID : 46
Format : UTF-8
Codec ID : S_TEXT/UTF8
Codec ID/Info : UTF-8 Plain Text
Duration : 1 h 56 min
Bit rate : 46 b/s
Frame rate : 0.199 FPS
Count of elements : 1385
Stream size : 39.2 KiB (0%)
Title : SDH
Language : Polish
Default : No
Forced : No

Text #45
ID : 47
Format : UTF-8
Codec ID : S_TEXT/UTF8
Codec ID/Info : UTF-8 Plain Text
Duration : 1 h 55 min
Bit rate : 55 b/s
Frame rate : 0.210 FPS
Count of elements : 1464
Stream size : 47.2 KiB (0%)
Title : Brazilian
Language : Portuguese
Default : No
Forced : No

Text #46
ID : 48
Format : UTF-8
Codec ID : S_TEXT/UTF8
Codec ID/Info : UTF-8 Plain Text
Duration : 2 h 0 min
Bit rate : 45 b/s
Frame rate : 0.191 FPS
Count of elements : 1378
Stream size : 40.3 KiB (0%)
Title : Brazilian
Language : Portuguese
Default : No
Forced : No

Text #47
ID : 49
Format : UTF-8
Codec ID : S_TEXT/UTF8
Codec ID/Info : UTF-8 Plain Text
Duration : 1 h 56 min
Bit rate : 63 b/s
Frame rate : 0.234 FPS
Count of elements : 1629
Stream size : 53.9 KiB (0%)
Title : Brazilian (SDH)
Language : Portuguese
Default : No
Forced : No

Text #48
ID : 50
Format : UTF-8
Codec ID : S_TEXT/UTF8
Codec ID/Info : UTF-8 Plain Text
Duration : 2 h 0 min
Bit rate : 47 b/s
Frame rate : 0.189 FPS
Count of elements : 1365
Stream size : 42.3 KiB (0%)
Language : Portuguese
Default : No
Forced : No

Text #49
ID : 51
Format : UTF-8
Codec ID : S_TEXT/UTF8
Codec ID/Info : UTF-8 Plain Text
Duration : 2 h 0 min
Bit rate : 52 b/s
Frame rate : 0.186 FPS
Count of elements : 1347
Stream size : 46.3 KiB (0%)
Language : Romanian
Default : No
Forced : No

Text #50
ID : 52
Format : UTF-8
Codec ID : S_TEXT/UTF8
Codec ID/Info : UTF-8 Plain Text
Duration : 2 h 0 min
Bit rate : 78 b/s
Frame rate : 0.197 FPS
Count of elements : 1420
Stream size : 69.4 KiB (0%)
Language : Russian
Default : No
Forced : No

Text #51
ID : 53
Format : UTF-8
Codec ID : S_TEXT/UTF8
Codec ID/Info : UTF-8 Plain Text
Duration : 2 h 0 min
Bit rate : 50 b/s
Frame rate : 0.179 FPS
Count of elements : 1292
Stream size : 44.5 KiB (0%)
Language : Swedish
Default : No
Forced : No

Text #52
ID : 54
Format : UTF-8
Codec ID : S_TEXT/UTF8
Codec ID/Info : UTF-8 Plain Text
Duration : 2 h 0 min
Bit rate : 119 b/s
Frame rate : 0.194 FPS
Count of elements : 1405
Stream size : 106 KiB (0%)
Language : Thai
Default : No
Forced : No

Text #53
ID : 55
Format : UTF-8
Codec ID : S_TEXT/UTF8
Codec ID/Info : UTF-8 Plain Text
Duration : 1 h 55 min
Bit rate : 55 b/s
Frame rate : 0.190 FPS
Count of elements : 1320
Stream size : 47.2 KiB (0%)
Language : Turkish
Default : No
Forced : No

Text #54
ID : 56
Format : UTF-8
Codec ID : S_TEXT/UTF8
Codec ID/Info : UTF-8 Plain Text
Duration : 2 h 0 min
Bit rate : 47 b/s
Frame rate : 0.190 FPS
Count of elements : 1373
Stream size : 41.9 KiB (0%)
Language : Turkish
Default : No
Forced : No

Text #55
ID : 57
Format : UTF-8
Codec ID : S_TEXT/UTF8
Codec ID/Info : UTF-8 Plain Text
Duration : 2 h 1 min
Bit rate : 72 b/s
Frame rate : 0.235 FPS
Count of elements : 1706
Stream size : 64.5 KiB (0%)
Title : SDH
Language : Turkish
Default : No
Forced : No

Text #56
ID : 58
Format : UTF-8
Codec ID : S_TEXT/UTF8
Codec ID/Info : UTF-8 Plain Text
Duration : 2 h 0 min
Bit rate : 77 b/s
Frame rate : 0.189 FPS
Count of elements : 1364
Stream size : 68.1 KiB (0%)
Language : Ukrainian
Default : No
Forced : No

Text #57
ID : 59
Format : UTF-8
Codec ID : S_TEXT/UTF8
Codec ID/Info : UTF-8 Plain Text
Duration : 2 h 0 min
Bit rate : 68 b/s
Frame rate : 0.188 FPS
Count of elements : 1357
Stream size : 60.1 KiB (0%)
Language : Vietnamese
Default : No
Forced : No

Text #58
ID : 60
Format : UTF-8
Codec ID : S_TEXT/UTF8
Codec ID/Info : UTF-8 Plain Text
Duration : 2 h 0 min
Bit rate : 53 b/s
Frame rate : 0.194 FPS
Count of elements : 1402
Stream size : 46.9 KiB (0%)
Title : Simplified
Language : Chinese
Default : No
Forced : No

Text #59
ID : 61
Format : UTF-8
Codec ID : S_TEXT/UTF8
Codec ID/Info : UTF-8 Plain Text
Duration : 2 h 0 min
Bit rate : 48 b/s
Frame rate : 0.201 FPS
Count of elements : 1453
Stream size : 43.0 KiB (0%)
Title : Traditional
Language : Chinese
Default : No
Forced : No

Menu
01:56:49.000 : en:End Credits

推荐使用qBittorrent、uTorrent、BitComet等下载软件,有条件的推荐115或会员软件下载!

下载地址:


游客,如果您要查看本帖隐藏内容请回复

游客,如果您要查看本帖隐藏内容请回复

游客,如果您要查看本帖隐藏内容请回复

游客,如果您要查看本帖隐藏内容请回复



良心护士.png

上一篇:女巫[繁粤中字] / The Witches (2020) 4K高清版本下载
下一篇:芝加哥七君子审判 [简繁中字] (2020) 4K高清版本下载
回复

使用道具 举报

您需要登录后才可以回帖 登录 | 立即注册

本版积分规则

精彩图文
Archiver|手机版|TAG|Sitemap|新帖|专题|联系我们:邮箱: 4kjia.com@gmail.com   

4k家园   ©2019