[4K电影] 芝加哥七君子审判 [简繁中字] (2020) 4K高清版本下载

[复制链接]

主题

帖子

0

积分

超级版主

Rank: 8Rank: 8

积分
0
 楼主| 发表于 2022-11-29 20:40:59 | 显示全部楼层 |阅读模式

芝加哥七君子审判.png

◎译  名 芝加哥七君子审判/芝加哥七人案:惊世审判(港/台)
◎片  名 The Trial of the Chicago 7
◎年  代 2020
◎产  地 美国/英国/印度
◎类  别 剧情/惊悚/历史
◎语  言 英语
◎上映日期 2020-09-25(美国)/2020-10-16(美国网络)
◎IMDb评分 7.7/10 from 177546 users 更新 : 2022-11-26
◎IMDb链接 https://www.imdb.com/title/tt1070874/
◎豆瓣评分 8.6/10 from 89463 users 更新 : 2022-11-29
◎豆瓣链接 https://douban.com/subject/2609258/
◎片  长 129分钟
◎导  演 艾伦·索金 Aaron Sorkin
◎编  剧 艾伦·索金 Aaron Sorkin
◎主  演 埃迪·雷德梅恩 Eddie Redmayne
       艾利克斯·夏普 Alex Sharp
       萨莎·拜伦·科恩 Sacha Baron Cohen
       杰瑞米·斯特朗 Jeremy Strong
       约翰·卡洛·林奇 John Carroll Lynch
       叶海亚·阿卜杜勒-迈丁 Yahya Abdul-Mateen II
       马克·里朗斯 Mark Rylance
       约瑟夫·高登-莱维特 Joseph Gordon-Levitt
       本·申克曼 Ben Shenkman
       J.C.麦肯泽 J.C. MacKenzie
       弗兰克·兰格拉 Frank Langella
       丹尼尔·弗莱厄蒂 Daniel Flaherty
       诺亚·罗宾斯 Noah Robbins
       约翰·道曼 John Doman
       迈克尔·基顿 Michael Keaton
       小凯文·哈里森 Kelvin Harrison Jr.
       凯特琳·菲茨杰拉德 Caitlin Fitzgerald
       茱丽叶·安吉洛 Juliette Angelo
       布伦丹·伯克 Brendan Burke
       凯文·奥多奈尔 Kevin O'Donnell
       爱丽丝·克雷梅尔堡 Alice Kremelberg
       拉里·米切尔 Larry Mitchell
       韦恩·杜瓦尔 Wayne Duvall
       迈克尔·布鲁里布 Michael Brunlieb
       达米安·杨 Damian Young
       米歇尔赫斯特 Michelle Hurst
       马修·勒弗沃 Matthew LeFevour
       克里斯蒂安·利特克 Christian Litke
       马克斯·阿德勒 Max Adler
       肖恩·帕森 Shawn Parsons
       爱德华德·弗莱彻 Edward Fletcher
       C·J·威尔逊 C.J.Wilson
       史蒂文· 加斯沃思 Steven Gaswirth
       大卫·菲耶罗 David Fierro
       伊恩·邦兹 Ian Bonds
       莱克斯·艾尔 Lex Elle
       威廉·赫特 William Hurt
       特里斯坦·莱恩·塔普斯科特 Tristan Layne Tapscott


◎简  介


  1968 年民主党全国代表大会上的和平抗议演变成了与警察和国民警卫队的暴力冲突。抗议活动的组织者包括艾比·霍夫曼、杰里·鲁宾、汤姆·海登和鲍勃·席勒,他们被指控阴谋煽动暴乱,随之而来的审判是历史上最臭名昭著的几场审判之一。


◎获奖情况 

  第78届金球奖 (2021)
  电影类 最佳剧情片(提名)
  电影类 最佳导演(提名) 艾伦·索金
  电影类 最佳男配角(提名) 萨莎·拜伦·科恩
  电影类 最佳编剧 艾伦·索金
  电影类 最佳原创歌曲(提名)

  第74届英国电影学院奖 (2021)
  电影奖 最佳影片(提名)
  电影奖 最佳原创剧本(提名)
  电影奖 最佳剪辑(提名)

  第73届美国导演工会奖 (2021)
  最佳电影导演(提名) 艾伦·索金

  第27届美国演员工会奖 (2021)
  电影奖 最佳男配角(提名) 萨莎·拜伦·科恩
  电影奖 最佳群戏
  电影最佳特技群戏(提名)

  第73届美国编剧工会奖 (2021)
  电影奖 最佳原创剧本(提名) 艾伦·索金

  第32届美国制片人工会奖 (2021)
  最佳电影制片人奖(提名)

  第35届美国摄影协会奖 (2021)
  电影长片最佳摄影(提名) 芬顿·帕帕迈可

  第71届美国剪辑工会奖 (2021)
  剧情片最佳剪辑 艾伦·鲍姆嘉通

  第25届美国艺术指导工会奖 (2021)
  电影奖 最佳历史电影艺术指导(提名) 肖恩·瓦伦蒂诺

  第68届美国音效剪辑协会奖 (2021)
  金卷轴奖 最佳电影对白剪辑
  金卷轴奖 最佳配乐剪辑(提名)

  第57届美国声音效果协会奖 (2021)
  真人电影最佳音效(提名)

  第26届美国评论家选择电影奖 (2021)
  最佳影片(提名)
  最佳导演(提名) 艾伦·索金
  最佳男配角(提名) 萨莎·拜伦·科恩
  最佳群戏
  最佳原创剧本(提名) 艾伦·索金
  最佳剪辑 艾伦·鲍姆嘉通

  第21届美国电影学会奖 (2020)
  年度佳片

  第25届金卫星奖 (2021)
  电影部门 最佳剧情片(提名)
  电影部门 最佳导演(提名) 艾伦·索金
  电影部门 最佳男配角(提名) 萨莎·拜伦·科恩
  电影部门 最佳原创剧本(提名) 艾伦·索金
  电影部门 最佳原创歌曲(提名)
  电影部门 最佳剪辑(提名) 艾伦·鲍姆嘉通
  电影最佳群像

  第41届伦敦影评人协会奖 (2021)
  年度编剧(提名) 艾伦·索金
  年度男配角(提名) 萨莎·拜伦·科恩
  年度英国/爱尔兰男演员(提名) 萨莎·拜伦·科恩

  第33届芝加哥影评人协会奖 (2020)
  最佳原创剧本(提名) 艾伦·索金
  最佳剪辑(提名) 艾伦·鲍姆嘉通

  第5届亚特兰大影评人协会奖 (2020)
  十佳影片
  最佳男配角(提名) 萨莎·拜伦·科恩
  最佳编剧(提名) 艾伦·索金
  最佳群戏

  第24届美国在线影评人协会奖 (2021)
  最佳影片(提名)
  最佳男配角(提名) 萨莎·拜伦·科恩
  最佳原创剧本(提名) 艾伦·索金
  最佳剪辑(提名) 艾伦·鲍姆嘉通

  第7届豆瓣电影年度榜单 (2020)
  年度冷门佳片(提名)

Video
ID : 1
Format : HEVC
Format/Info : High Efficiency Video Coding
Format profile : Main 10@L5@Main
HDR format : Dolby Vision, Version 1.0, dvhe.05.06, BL+RPU
Codec ID : V_MPEGH/ISO/HEVC
Duration : 2 h 10 min
Bit rate : 18.9 Mb/s
Width : 3 840 pixels
Height : 2 160 pixels
Display aspect ratio : 16:9
Frame rate mode : Constant
Frame rate : 24.000 FPS
Color space : YUV
Chroma subsampling : 4:2:0
Bit depth : 10 bits
Bits/(Pixel*Frame) : 0.095
Stream size : 17.2 GiB (97%)
Language : English
Default : Yes
Forced : No
Color range : Full

Audio
ID : 2
Format : E-AC-3
Format/Info : Enhanced AC-3
Commercial name : Dolby Digital Plus
Codec ID : A_EAC3
Duration : 2 h 10 min
Bit rate mode : Constant
Bit rate : 640 kb/s
Channel(s) : 6 channels
Channel layout : L R C LFE Ls Rs
Sampling rate : 48.0 kHz
Frame rate : 31.250 FPS (1536 SPF)
Compression mode : Lossy
Stream size : 597 MiB (3%)
Language : English
Service kind : Complete Main
Default : Yes
Forced : No

Text #1
ID : 3
Format : UTF-8
Codec ID : S_TEXT/UTF8
Codec ID/Info : UTF-8 Plain Text
Duration : 1 h 59 min
Bit rate : 96 b/s
Frame rate : 0.286 FPS
Count of elements : 2052
Stream size : 84.0 KiB (0%)
Language : English
Default : No
Forced : No

Text #2
ID : 4
Format : UTF-8
Codec ID : S_TEXT/UTF8
Codec ID/Info : UTF-8 Plain Text
Duration : 2 h 8 min
Bit rate : 95 b/s
Frame rate : 0.284 FPS
Count of elements : 2181
Stream size : 89.9 KiB (0%)
Title : SDH
Language : English
Default : No
Forced : No

Text #3
ID : 5
Format : UTF-8
Codec ID : S_TEXT/UTF8
Codec ID/Info : UTF-8 Plain Text
Duration : 2 h 1 min
Bit rate : 154 b/s
Frame rate : 0.284 FPS
Count of elements : 2074
Stream size : 138 KiB (0%)
Language : Arabic
Default : No
Forced : No

Text #4
ID : 6
Format : UTF-8
Codec ID : S_TEXT/UTF8
Codec ID/Info : UTF-8 Plain Text
Duration : 2 h 7 min
Bit rate : 84 b/s
Frame rate : 0.266 FPS
Count of elements : 2039
Stream size : 78.9 KiB (0%)
Language : Czech
Default : No
Forced : No

Text #5
ID : 7
Format : UTF-8
Codec ID : S_TEXT/UTF8
Codec ID/Info : UTF-8 Plain Text
Duration : 2 h 8 min
Bit rate : 77 b/s
Frame rate : 0.264 FPS
Count of elements : 2031
Stream size : 72.5 KiB (0%)
Language : Danish
Default : No
Forced : No

Text #6
ID : 8
Format : UTF-8
Codec ID : S_TEXT/UTF8
Codec ID/Info : UTF-8 Plain Text
Duration : 2 h 8 min
Bit rate : 80 b/s
Frame rate : 0.268 FPS
Count of elements : 2059
Stream size : 75.3 KiB (0%)
Language : German
Default : No
Forced : No

Text #7
ID : 9
Format : UTF-8
Codec ID : S_TEXT/UTF8
Codec ID/Info : UTF-8 Plain Text
Duration : 2 h 7 min
Bit rate : 139 b/s
Frame rate : 0.270 FPS
Count of elements : 2070
Stream size : 130 KiB (0%)
Language : Greek
Default : No
Forced : No

Text #8
ID : 10
Format : UTF-8
Codec ID : S_TEXT/UTF8
Codec ID/Info : UTF-8 Plain Text
Duration : 2 h 8 min
Bit rate : 84 b/s
Frame rate : 0.271 FPS
Count of elements : 2081
Stream size : 79.5 KiB (0%)
Title : Latin American
Language : Spanish
Default : No
Forced : No

Text #9
ID : 11
Format : UTF-8
Codec ID : S_TEXT/UTF8
Codec ID/Info : UTF-8 Plain Text
Duration : 2 h 7 min
Bit rate : 82 b/s
Frame rate : 0.272 FPS
Count of elements : 2088
Stream size : 77.5 KiB (0%)
Language : Spanish
Default : No
Forced : No

Text #10
ID : 12
Format : UTF-8
Codec ID : S_TEXT/UTF8
Codec ID/Info : UTF-8 Plain Text
Duration : 2 h 8 min
Bit rate : 79 b/s
Frame rate : 0.251 FPS
Count of elements : 1925
Stream size : 74.6 KiB (0%)
Language : Finnish
Default : No
Forced : No

Text #11
ID : 13
Format : UTF-8
Codec ID : S_TEXT/UTF8
Codec ID/Info : UTF-8 Plain Text
Duration : 2 h 7 min
Bit rate : 81 b/s
Frame rate : 0.268 FPS
Count of elements : 2054
Stream size : 76.4 KiB (0%)
Language : French
Default : No
Forced : No

Text #12
ID : 14
Format : UTF-8
Codec ID : S_TEXT/UTF8
Codec ID/Info : UTF-8 Plain Text
Duration : 2 h 8 min
Bit rate : 130 b/s
Frame rate : 0.272 FPS
Count of elements : 2087
Stream size : 123 KiB (0%)
Language : Hebrew
Default : No
Forced : No

Text #13
ID : 15
Format : UTF-8
Codec ID : S_TEXT/UTF8
Codec ID/Info : UTF-8 Plain Text
Duration : 2 h 7 min
Bit rate : 74 b/s
Frame rate : 0.267 FPS
Count of elements : 2048
Stream size : 70.1 KiB (0%)
Language : Croatian
Default : No
Forced : No

Text #14
ID : 16
Format : UTF-8
Codec ID : S_TEXT/UTF8
Codec ID/Info : UTF-8 Plain Text
Duration : 2 h 8 min
Bit rate : 80 b/s
Frame rate : 0.266 FPS
Count of elements : 2043
Stream size : 75.8 KiB (0%)
Language : Hungarian
Default : No
Forced : No

Text #15
ID : 17
Format : UTF-8
Codec ID : S_TEXT/UTF8
Codec ID/Info : UTF-8 Plain Text
Duration : 2 h 7 min
Bit rate : 78 b/s
Frame rate : 0.271 FPS
Count of elements : 2082
Stream size : 73.4 KiB (0%)
Language : Indonesian
Default : No
Forced : No

Text #16
ID : 18
Format : UTF-8
Codec ID : S_TEXT/UTF8
Codec ID/Info : UTF-8 Plain Text
Duration : 2 h 8 min
Bit rate : 80 b/s
Frame rate : 0.268 FPS
Count of elements : 2055
Stream size : 75.5 KiB (0%)
Language : Italian
Default : No
Forced : No

Text #17
ID : 19
Format : UTF-8
Codec ID : S_TEXT/UTF8
Codec ID/Info : UTF-8 Plain Text
Duration : 2 h 8 min
Bit rate : 83 b/s
Frame rate : 0.289 FPS
Count of elements : 2223
Stream size : 78.5 KiB (0%)
Language : Japanese
Default : No
Forced : No

Text #18
ID : 20
Format : UTF-8
Codec ID : S_TEXT/UTF8
Codec ID/Info : UTF-8 Plain Text
Duration : 2 h 7 min
Bit rate : 106 b/s
Frame rate : 0.274 FPS
Count of elements : 2101
Stream size : 99.2 KiB (0%)
Language : Korean
Default : No
Forced : No

Text #19
ID : 21
Format : UTF-8
Codec ID : S_TEXT/UTF8
Codec ID/Info : UTF-8 Plain Text
Duration : 2 h 8 min
Bit rate : 80 b/s
Frame rate : 0.270 FPS
Count of elements : 2075
Stream size : 75.9 KiB (0%)
Language : Malay
Default : No
Forced : No

Text #20
ID : 22
Format : UTF-8
Codec ID : S_TEXT/UTF8
Codec ID/Info : UTF-8 Plain Text
Duration : 2 h 8 min
Bit rate : 78 b/s
Frame rate : 0.261 FPS
Count of elements : 2007
Stream size : 73.8 KiB (0%)
Language : Norwegian Bokmal
Default : No
Forced : No

Text #21
ID : 23
Format : UTF-8
Codec ID : S_TEXT/UTF8
Codec ID/Info : UTF-8 Plain Text
Duration : 2 h 8 min
Bit rate : 72 b/s
Frame rate : 0.241 FPS
Count of elements : 1849
Stream size : 68.1 KiB (0%)
Language : Dutch
Default : No
Forced : No

Text #22
ID : 24
Format : UTF-8
Codec ID : S_TEXT/UTF8
Codec ID/Info : UTF-8 Plain Text
Duration : 2 h 8 min
Bit rate : 77 b/s
Frame rate : 0.263 FPS
Count of elements : 2020
Stream size : 73.0 KiB (0%)
Language : Polish
Default : No
Forced : No

Text #23
ID : 25
Format : UTF-8
Codec ID : S_TEXT/UTF8
Codec ID/Info : UTF-8 Plain Text
Duration : 2 h 8 min
Bit rate : 81 b/s
Frame rate : 0.272 FPS
Count of elements : 2087
Stream size : 76.7 KiB (0%)
Title : Brazilian
Language : Portuguese
Default : No
Forced : No

Text #24
ID : 26
Format : UTF-8
Codec ID : S_TEXT/UTF8
Codec ID/Info : UTF-8 Plain Text
Duration : 2 h 8 min
Bit rate : 81 b/s
Frame rate : 0.270 FPS
Count of elements : 2077
Stream size : 76.5 KiB (0%)
Language : Portuguese
Default : No
Forced : No

Text #25
ID : 27
Format : UTF-8
Codec ID : S_TEXT/UTF8
Codec ID/Info : UTF-8 Plain Text
Duration : 2 h 8 min
Bit rate : 89 b/s
Frame rate : 0.265 FPS
Count of elements : 2037
Stream size : 84.3 KiB (0%)
Language : Romanian
Default : No
Forced : No

Text #26
ID : 28
Format : UTF-8
Codec ID : S_TEXT/UTF8
Codec ID/Info : UTF-8 Plain Text
Duration : 2 h 8 min
Bit rate : 139 b/s
Frame rate : 0.272 FPS
Count of elements : 2092
Stream size : 131 KiB (0%)
Language : Russian
Default : No
Forced : No

Text #27
ID : 29
Format : UTF-8
Codec ID : S_TEXT/UTF8
Codec ID/Info : UTF-8 Plain Text
Duration : 2 h 8 min
Bit rate : 78 b/s
Frame rate : 0.249 FPS
Count of elements : 1909
Stream size : 73.6 KiB (0%)
Language : Swedish
Default : No
Forced : No

Text #28
ID : 30
Format : UTF-8
Codec ID : S_TEXT/UTF8
Codec ID/Info : UTF-8 Plain Text
Duration : 2 h 8 min
Bit rate : 197 b/s
Frame rate : 0.272 FPS
Count of elements : 2088
Stream size : 185 KiB (0%)
Language : Thai
Default : No
Forced : No

Text #29
ID : 31
Format : UTF-8
Codec ID : S_TEXT/UTF8
Codec ID/Info : UTF-8 Plain Text
Duration : 2 h 8 min
Bit rate : 83 b/s
Frame rate : 0.252 FPS
Count of elements : 1935
Stream size : 77.9 KiB (0%)
Language : Turkish
Default : No
Forced : No

Text #30
ID : 32
Format : UTF-8
Codec ID : S_TEXT/UTF8
Codec ID/Info : UTF-8 Plain Text
Duration : 2 h 7 min
Bit rate : 109 b/s
Frame rate : 0.266 FPS
Count of elements : 2042
Stream size : 102 KiB (0%)
Language : Vietnamese
Default : No
Forced : No

Text #31
ID : 33
Format : UTF-8
Codec ID : S_TEXT/UTF8
Codec ID/Info : UTF-8 Plain Text
Duration : 2 h 8 min
Bit rate : 92 b/s
Frame rate : 0.271 FPS
Count of elements : 2083
Stream size : 86.3 KiB (0%)
Title : 简体中字
Language : Chinese
Default : No
Forced : No

Text #32
ID : 34
Format : UTF-8
Codec ID : S_TEXT/UTF8
Codec ID/Info : UTF-8 Plain Text
Duration : 2 h 8 min
Bit rate : 83 b/s
Frame rate : 0.271 FPS
Count of elements : 2083
Stream size : 78.2 KiB (0%)
Title : 繁体中字
Language : Chinese
Default : No
Forced : No

Menu
02:03:22.000 : en:End Credits


推荐使用qBittorrent、uTorrent、BitComet等下载软件,有条件的推荐115或会员软件下载!

下载地址:


游客,如果您要查看本帖隐藏内容请回复

游客,如果您要查看本帖隐藏内容请回复

游客,如果您要查看本帖隐藏内容请回复








上一篇:良心护士[简繁中字] / The Good Nurse (2022) 4K高清版本下载
下一篇:倒数时刻 [简繁中字] / Tick, Tick…Boom! (2021) 4K高清版本下载
回复

使用道具 举报

0

主题

5

帖子

18

积分

新手上路

Rank: 1

积分
18
发表于 2022-11-29 20:49:47 | 显示全部楼层
非常好,谢谢分享
回复 支持 反对

使用道具 举报

0

主题

226

帖子

1016

积分

4K家园VIP

Rank: 9Rank: 9Rank: 9

积分
1016
发表于 2023-1-16 02:05:32 | 显示全部楼层
让 江小白 来看看帖子里藏了啥好东西~~~
回复 支持 反对

使用道具 举报

您需要登录后才可以回帖 登录 | 立即注册

本版积分规则

精彩图文
Archiver|手机版|TAG|Sitemap|新帖|专题|联系我们:邮箱: 4kjia.com@gmail.com   

4k家园   ©2019