[4K电影] 倒数时刻 [简繁中字] / Tick, Tick…Boom! (2021) 4K高清版本下载

[复制链接]

主题

帖子

0

积分

超级版主

Rank: 8Rank: 8

积分
0
 楼主| 发表于 2022-11-29 20:47:45 | 显示全部楼层 |阅读模式
倒数时刻.png

◎译  名 倒数时刻 / 滴答,滴答……轰隆隆
◎片  名 Tick, Tick…Boom!
◎年  代 2021
◎产  地 美国
◎类  别 剧情 / 歌舞 / 传记
◎语  言 英语
◎上映日期 2021-11-10(美国电影学会电影节) / 2021-11-12(美国) / 2021-11-19(美国网络)
◎IMDb评分 6.8/10 from 42525 users 更新 : 2022-11-28
◎IMDb链接 https://www.imdb.com/title/tt8721424/
◎豆瓣评分 7.0/10 from 10506 users 更新 : 2022-11-29
◎豆瓣链接 https://movie.douban.com/subject/30279170/
◎片  长 115分钟
◎导  演 林-曼努尔·米兰达 Lin-Manuel Miranda
◎编  剧 史蒂文·莱文森 Steven Levenson / 乔纳森·拉森 Jonathan Larson
◎演  员 安德鲁·加菲尔德 Andrew Garfield
       亚历山德拉·希普 Alexandra Shipp
       布莱德利·惠特福德 Bradley Whitford
       凡妮莎·哈金斯 Vanessa Hudgens
       朱迪斯·赖特 Judith Light
       约书亚·亨利 Joshua Henry
       乔安娜·阿德勒 Joanna Adler
       诺亚·罗宾斯 Noah Robbins
       乔丹·费舍 Jordan Fisher
       大卫·伊亚科诺 David Iacono


◎简  介



       1990年,年轻、雄心勃勃的音乐剧作曲家乔恩(安德鲁·加菲尔德 饰)在纽约一边当侍者,一边写一部叫《Superbia》的音乐剧,希望能平步青云,开启事业。但他从女友Susan那里感受到了压力,对方已经厌倦了任男友的职业前途牵制自己的人生;同时,乔恩的室友Michael也放弃了创作梦想,做了一份高收入的广告业工作。快30岁的乔恩非常焦虑:自己的梦想是否值得继续拼搏?
Video
ID : 1
Format : HEVC
Format/Info : High Efficiency Video Coding
Format profile : Main 10@L5@Main
Codec ID : V_MPEGH/ISO/HEVC
Duration : 2 h 1 min
Bit rate : 17.0 Mb/s
Width : 3 840 pixels
Height : 2 160 pixels
Display aspect ratio : 16:9
Frame rate mode : Constant
Frame rate : 24.000 FPS
Color space : YUV
Chroma subsampling : 4:2:0
Bit depth : 10 bits
Bits/(Pixel*Frame) : 0.086
Stream size : 14.5 GiB (96%)
Language : English
Default : Yes
Forced : No
Color range : Limited
Color primaries : BT.709
Transfer characteristics : BT.709
Matrix coefficients : BT.709

Audio
ID : 2
Format : E-AC-3 JOC
Format/Info : Enhanced AC-3 with Joint Object Coding
Commercial name : Dolby Digital Plus with Dolby Atmos
Codec ID : A_EAC3
Duration : 2 h 1 min
Bit rate mode : Constant
Bit rate : 768 kb/s
Channel(s) : 6 channels
Channel layout : L R C LFE Ls Rs
Sampling rate : 48.0 kHz
Frame rate : 31.250 FPS (1536 SPF)
Compression mode : Lossy
Stream size : 668 MiB (4%)
Language : English
Service kind : Complete Main
Default : Yes
Forced : No
Complexity index : 16
Number of dynamic objects : 15
Bed channel count : 1 channel
Bed channel configuration : LFE

Text #1
ID : 3
Format : UTF-8
Codec ID : S_TEXT/UTF8
Codec ID/Info : UTF-8 Plain Text
Duration : 1 h 56 min
Bit rate : 50 b/s
Frame rate : 0.161 FPS
Count of elements : 1119
Stream size : 42.9 KiB (0%)
Language : English
Default : No
Forced : No

Text #2
ID : 4
Format : UTF-8
Codec ID : S_TEXT/UTF8
Codec ID/Info : UTF-8 Plain Text
Duration : 1 h 57 min
Bit rate : 91 b/s
Frame rate : 0.276 FPS
Count of elements : 1948
Stream size : 78.8 KiB (0%)
Title : SDH
Language : English
Default : No
Forced : No

Text #3
ID : 5
Format : UTF-8
Codec ID : S_TEXT/UTF8
Codec ID/Info : UTF-8 Plain Text
Duration : 1 h 58 min
Bit rate : 107 b/s
Frame rate : 0.227 FPS
Count of elements : 1620
Stream size : 93.4 KiB (0%)
Language : Arabic
Default : No
Forced : No

Text #4
ID : 6
Format : UTF-8
Codec ID : S_TEXT/UTF8
Codec ID/Info : UTF-8 Plain Text
Duration : 1 h 58 min
Bit rate : 68 b/s
Frame rate : 0.223 FPS
Count of elements : 1592
Stream size : 59.5 KiB (0%)
Language : Czech
Default : No
Forced : No

Text #5
ID : 7
Format : UTF-8
Codec ID : S_TEXT/UTF8
Codec ID/Info : UTF-8 Plain Text
Duration : 1 h 58 min
Bit rate : 60 b/s
Frame rate : 0.190 FPS
Count of elements : 1356
Stream size : 52.8 KiB (0%)
Language : Danish
Default : No
Forced : No

Text #6
ID : 8
Format : UTF-8
Codec ID : S_TEXT/UTF8
Codec ID/Info : UTF-8 Plain Text
Duration : 1 h 58 min
Bit rate : 69 b/s
Frame rate : 0.227 FPS
Count of elements : 1616
Stream size : 60.1 KiB (0%)
Language : German
Default : No
Forced : No

Text #7
ID : 9
Format : UTF-8
Codec ID : S_TEXT/UTF8
Codec ID/Info : UTF-8 Plain Text
Duration : 1 h 58 min
Bit rate : 115 b/s
Frame rate : 0.228 FPS
Count of elements : 1626
Stream size : 101 KiB (0%)
Language : Greek
Default : No
Forced : No

Text #8
ID : 10
Format : UTF-8
Codec ID : S_TEXT/UTF8
Codec ID/Info : UTF-8 Plain Text
Duration : 1 h 58 min
Bit rate : 65 b/s
Frame rate : 0.226 FPS
Count of elements : 1614
Stream size : 57.0 KiB (0%)
Title : Latin American
Language : Spanish
Default : No
Forced : No

Text #9
ID : 11
Format : UTF-8
Codec ID : S_TEXT/UTF8
Codec ID/Info : UTF-8 Plain Text
Duration : 1 h 58 min
Bit rate : 69 b/s
Frame rate : 0.224 FPS
Count of elements : 1593
Stream size : 60.5 KiB (0%)
Language : Spanish
Default : No
Forced : No

Text #10
ID : 12
Format : UTF-8
Codec ID : S_TEXT/UTF8
Codec ID/Info : UTF-8 Plain Text
Duration : 1 h 58 min
Bit rate : 69 b/s
Frame rate : 0.222 FPS
Count of elements : 1580
Stream size : 60.3 KiB (0%)
Language : Finnish
Default : No
Forced : No

Text #11
ID : 13
Format : UTF-8
Codec ID : S_TEXT/UTF8
Codec ID/Info : UTF-8 Plain Text
Duration : 1 h 58 min
Bit rate : 68 b/s
Frame rate : 0.218 FPS
Count of elements : 1554
Stream size : 59.3 KiB (0%)
Language : French
Default : No
Forced : No

Text #12
ID : 14
Format : UTF-8
Codec ID : S_TEXT/UTF8
Codec ID/Info : UTF-8 Plain Text
Duration : 1 h 58 min
Bit rate : 94 b/s
Frame rate : 0.225 FPS
Count of elements : 1605
Stream size : 81.9 KiB (0%)
Language : Hebrew
Default : No
Forced : No

Text #13
ID : 15
Format : UTF-8
Codec ID : S_TEXT/UTF8
Codec ID/Info : UTF-8 Plain Text
Duration : 1 h 58 min
Bit rate : 66 b/s
Frame rate : 0.229 FPS
Count of elements : 1635
Stream size : 58.1 KiB (0%)
Language : Croatian
Default : No
Forced : No

Text #14
ID : 16
Format : UTF-8
Codec ID : S_TEXT/UTF8
Codec ID/Info : UTF-8 Plain Text
Duration : 1 h 58 min
Bit rate : 65 b/s
Frame rate : 0.224 FPS
Count of elements : 1596
Stream size : 57.3 KiB (0%)
Language : Hungarian
Default : No
Forced : No

Text #15
ID : 17
Format : UTF-8
Codec ID : S_TEXT/UTF8
Codec ID/Info : UTF-8 Plain Text
Duration : 1 h 58 min
Bit rate : 67 b/s
Frame rate : 0.226 FPS
Count of elements : 1610
Stream size : 58.5 KiB (0%)
Language : Indonesian
Default : No
Forced : No

Text #16
ID : 18
Format : UTF-8
Codec ID : S_TEXT/UTF8
Codec ID/Info : UTF-8 Plain Text
Duration : 1 h 58 min
Bit rate : 69 b/s
Frame rate : 0.226 FPS
Count of elements : 1608
Stream size : 60.7 KiB (0%)
Language : Italian
Default : No
Forced : No

Text #17
ID : 19
Format : UTF-8
Codec ID : S_TEXT/UTF8
Codec ID/Info : UTF-8 Plain Text
Duration : 1 h 58 min
Bit rate : 63 b/s
Frame rate : 0.242 FPS
Count of elements : 1725
Stream size : 55.1 KiB (0%)
Language : Japanese
Default : No
Forced : No

Text #18
ID : 20
Format : UTF-8
Codec ID : S_TEXT/UTF8
Codec ID/Info : UTF-8 Plain Text
Duration : 1 h 49 min
Bit rate : 73 b/s
Frame rate : 0.253 FPS
Count of elements : 1652
Stream size : 58.9 KiB (0%)
Language : Korean
Default : No
Forced : No

Text #19
ID : 21
Format : UTF-8
Codec ID : S_TEXT/UTF8
Codec ID/Info : UTF-8 Plain Text
Duration : 1 h 49 min
Bit rate : 73 b/s
Frame rate : 0.246 FPS
Count of elements : 1607
Stream size : 58.6 KiB (0%)
Language : Malay
Default : No
Forced : No

Text #20
ID : 22
Format : UTF-8
Codec ID : S_TEXT/UTF8
Codec ID/Info : UTF-8 Plain Text
Duration : 1 h 58 min
Bit rate : 58 b/s
Frame rate : 0.207 FPS
Count of elements : 1472
Stream size : 50.5 KiB (0%)
Language : Norwegian Bokmal
Default : No
Forced : No

Text #21
ID : 23
Format : UTF-8
Codec ID : S_TEXT/UTF8
Codec ID/Info : UTF-8 Plain Text
Duration : 1 h 58 min
Bit rate : 61 b/s
Frame rate : 0.184 FPS
Count of elements : 1313
Stream size : 53.5 KiB (0%)
Language : Dutch
Default : No
Forced : No

Text #22
ID : 24
Format : UTF-8
Codec ID : S_TEXT/UTF8
Codec ID/Info : UTF-8 Plain Text
Duration : 1 h 58 min
Bit rate : 59 b/s
Frame rate : 0.220 FPS
Count of elements : 1569
Stream size : 51.4 KiB (0%)
Language : Polish
Default : No
Forced : No

Text #23
ID : 25
Format : UTF-8
Codec ID : S_TEXT/UTF8
Codec ID/Info : UTF-8 Plain Text
Duration : 1 h 58 min
Bit rate : 69 b/s
Frame rate : 0.226 FPS
Count of elements : 1610
Stream size : 60.6 KiB (0%)
Title : Brazilian
Language : Portuguese
Default : No
Forced : No

Text #24
ID : 26
Format : UTF-8
Codec ID : S_TEXT/UTF8
Codec ID/Info : UTF-8 Plain Text
Duration : 1 h 58 min
Bit rate : 69 b/s
Frame rate : 0.225 FPS
Count of elements : 1604
Stream size : 60.3 KiB (0%)
Language : Portuguese
Default : No
Forced : No

Text #25
ID : 27
Format : UTF-8
Codec ID : S_TEXT/UTF8
Codec ID/Info : UTF-8 Plain Text
Duration : 1 h 58 min
Bit rate : 77 b/s
Frame rate : 0.225 FPS
Count of elements : 1607
Stream size : 67.5 KiB (0%)
Language : Romanian
Default : No
Forced : No

Text #26
ID : 28
Format : UTF-8
Codec ID : S_TEXT/UTF8
Codec ID/Info : UTF-8 Plain Text
Duration : 1 h 58 min
Bit rate : 110 b/s
Frame rate : 0.229 FPS
Count of elements : 1635
Stream size : 95.9 KiB (0%)
Language : Russian
Default : No
Forced : No

Text #27
ID : 29
Format : UTF-8
Codec ID : S_TEXT/UTF8
Codec ID/Info : UTF-8 Plain Text
Duration : 1 h 58 min
Bit rate : 58 b/s
Frame rate : 0.199 FPS
Count of elements : 1415
Stream size : 51.2 KiB (0%)
Language : Swedish
Default : No
Forced : No

Text #28
ID : 30
Format : UTF-8
Codec ID : S_TEXT/UTF8
Codec ID/Info : UTF-8 Plain Text
Duration : 1 h 49 min
Bit rate : 158 b/s
Frame rate : 0.246 FPS
Count of elements : 1611
Stream size : 127 KiB (0%)
Language : Thai
Default : No
Forced : No

Text #29
ID : 31
Format : UTF-8
Codec ID : S_TEXT/UTF8
Codec ID/Info : UTF-8 Plain Text
Duration : 1 h 58 min
Bit rate : 67 b/s
Frame rate : 0.225 FPS
Count of elements : 1606
Stream size : 58.7 KiB (0%)
Language : Turkish
Default : No
Forced : No

Text #30
ID : 32
Format : UTF-8
Codec ID : S_TEXT/UTF8
Codec ID/Info : UTF-8 Plain Text
Duration : 1 h 58 min
Bit rate : 104 b/s
Frame rate : 0.223 FPS
Count of elements : 1591
Stream size : 90.7 KiB (0%)
Language : Ukrainian
Default : No
Forced : No

Text #31
ID : 33
Format : UTF-8
Codec ID : S_TEXT/UTF8
Codec ID/Info : UTF-8 Plain Text
Duration : 1 h 58 min
Bit rate : 99 b/s
Frame rate : 0.228 FPS
Count of elements : 1625
Stream size : 86.7 KiB (0%)
Language : Vietnamese
Default : No
Forced : No

Text #32
ID : 34
Format : UTF-8
Codec ID : S_TEXT/UTF8
Codec ID/Info : UTF-8 Plain Text
Duration : 1 h 58 min
Bit rate : 62 b/s
Frame rate : 0.225 FPS
Count of elements : 1604
Stream size : 54.1 KiB (0%)
Title : 简体中字
Language : Chinese
Default : No
Forced : No

Text #33
ID : 35
Format : UTF-8
Codec ID : S_TEXT/UTF8
Codec ID/Info : UTF-8 Plain Text
Duration : 1 h 58 min
Bit rate : 58 b/s
Frame rate : 0.226 FPS
Count of elements : 1610
Stream size : 51.3 KiB (0%)
Title : 繁体中字
Language : Chinese
Default : No
Forced : No


推荐使用qBittorrent、uTorrent、BitComet等下载软件,有条件的推荐115或会员软件下载!

下载地址:


游客,如果您要查看本帖隐藏内容请回复






上一篇:芝加哥七君子审判 [简繁中字] (2020) 4K高清版本下载
下一篇:戴安娜:音乐剧 [简繁中字] (2021) 4K高清版下载
回复

使用道具 举报

您需要登录后才可以回帖 登录 | 立即注册

本版积分规则

精彩图文
Archiver|手机版|TAG|Sitemap|新帖|专题|联系我们:邮箱: 4kjia.com@gmail.com   

4k家园   ©2019