[4K电影] 红色通缉令 [简繁中字] / Red Notice (2021) 4K高清版下载

  [复制链接]

主题

帖子

0

积分

超级版主

Rank: 8Rank: 8

积分
0
 楼主| 发表于 2022-11-29 22:04:12 | 显示全部楼层 |阅读模式
本帖最后由 最爱4K哟 于 2023-1-2 18:26 编辑

红色通缉令.png

◎标  题 红色通缉令
◎译  名 红色大贱谍
◎片  名 Red Notice
◎年  代 2021
◎产  地 美国
◎类  别 喜剧 / 动作 / 惊悚 / 犯罪
◎语  言 英语
◎上映日期 2021-11-12(美国)
◎IMDb评分 6.3/10 from 274891 users 更新 : 2022-11-27
◎IMDb链接 https://www.imdb.com/title/tt7991608/
◎豆瓣评分 6.3/10 from 81280 users 更新 : 2022-11-29
◎豆瓣链接 https://movie.douban.com/subject/30143331/
◎片  长 117分钟
◎导  演 罗森·马歇尔·瑟伯 Rawson Marshall Thurber
◎编  剧 罗森·马歇尔·瑟伯 Rawson Marshall Thurber
◎演  员 瑞安·雷诺兹 Ryan Reynolds
       道恩·强森 Dwayne Johnson
       盖尔·加朵 Gal Gadot
       里图·阿亚 Ritu Arya
       克里斯·迪亚曼托普洛斯 Chris Diamantopoulos
       伊万·姆巴科普 Ivan Mbakop
       温琴佐·阿马托 Vincenzo Amato
       帕斯卡尔·佩塔尔迪 Rafael Petardi
       塞思·迈克尔斯 Seth Michaels
       罗伯特·廷斯利 Robert Tinsley
       汤姆·蔡 Tom Choi
       马丁·威廉·哈里斯 Martin William Harris
       盖·纳尔杜利 Guy Nardulli
       杰伊·古铁雷斯 Jay Gutierrez
       Ray Siegle Ray Siegle
       詹姆斯·威廉·巴拉德 James William Ballard
       埃尔文·费利西达 Erwin Felicilda
       约瑟夫·波多尔斯基 Yosef Podolski
       维多利亚·佩吉·沃特金斯 Victoria Paige Watkins
       塞巴斯蒂安·拉格 Sebastien Large
       罗森·马歇尔·瑟伯 Rawson Marshall Thurber
      达妮·加西亚 Dany Garcia
      海拉姆·加西亚 Hiram Garcia
      斯蒂夫·贾布隆斯基 Steve Jablonsky
      马库斯·福德勒 Markus Förderer
      瑞秋·特纳 Rachel Tenner
      安迪·尼克尔森 Andy Nicholson
      詹森·诺克斯·约翰斯顿 Jason Knox-Johnston
      玛丽·E·沃格特 Mary E. Vogt


◎简  介



  当国际刑警发布的红色通缉令(追捕世界头号通缉犯的最高级别通缉令)出炉时,联邦调查局的顶尖犯罪侧写师约翰·哈特利(道恩·强森饰)正在调查此案。在调查一起大胆的抢劫案中,约翰陷入了困境,被迫与世界头号艺术品大盗诺兰·布斯(瑞安·雷诺兹饰)合作,以抓捕世界头号通缉的艺术品窃贼“主教”(盖尔·加朵饰)。激动人心的冒险之旅将带领三人环游世界,他们的经历包括穿过舞池、被困在一个隐蔽的监狱、进入丛林,最糟糕的是,他们彼此间的默契不断增加。里图·阿亚和克里斯·迪亚曼托波洛斯加入了全明星阵容。《红色通缉令》由罗森·马歇尔·瑟伯(《乌龙特工》和《摩天营救》)担任导演和编剧,制片人团队包括 Seven Bucks Productions 的海拉姆·加西亚、道恩·强森和丹妮·加西亚,Flynn Picture Co. 的比尤·弗林,以及 Bad Version, Inc. 的瑟伯,该片是一部紧跟潮流的全球猫捉老鼠(还有猫)游戏。
Video
ID : 1
Format : HEVC
Format/Info : High Efficiency Video Coding
Format profile : Main 10@L5@Main
Codec ID : V_MPEGH/ISO/HEVC
Duration : 1 h 58 min
Bit rate : 17.2 Mb/s
Width : 3 840 pixels
Height : 2 160 pixels
Display aspect ratio : 16:9
Frame rate mode : Constant
Frame rate : 24.000 FPS
Color space : YUV
Chroma subsampling : 4:2:0
Bit depth : 10 bits
Bits/(Pixel*Frame) : 0.086
Stream size : 14.2 GiB (96%)
Language : English
Default : Yes
Forced : No
Color range : Limited
Color primaries : BT.709
Transfer characteristics : BT.709
Matrix coefficients : BT.709

Audio
ID : 2
Format : E-AC-3 JOC
Format/Info : Enhanced AC-3 with Joint Object Coding
Commercial name : Dolby Digital Plus with Dolby Atmos
Codec ID : A_EAC3
Duration : 1 h 58 min
Bit rate mode : Constant
Bit rate : 768 kb/s
Channel(s) : 6 channels
Channel layout : L R C LFE Ls Rs
Sampling rate : 48.0 kHz
Frame rate : 31.250 FPS (1536 SPF)
Compression mode : Lossy
Stream size : 649 MiB (4%)
Language : English
Service kind : Complete Main
Default : Yes
Forced : No
Complexity index : 16
Number of dynamic objects : 15
Bed channel count : 1 channel
Bed channel configuration : LFE

Text #1
ID : 3
Format : UTF-8
Codec ID : S_TEXT/UTF8
Codec ID/Info : UTF-8 Plain Text
Duration : 1 h 38 min
Bit rate : 1 b/s
Frame rate : 0.006 FPS
Count of elements : 33
Stream size : 816 Bytes (0%)
Title : Forced
Language : English
Default : Yes
Forced : Yes

Text #2
ID : 4
Format : UTF-8
Codec ID : S_TEXT/UTF8
Codec ID/Info : UTF-8 Plain Text
Duration : 1 h 54 min
Bit rate : 60 b/s
Frame rate : 0.203 FPS
Count of elements : 1399
Stream size : 50.7 KiB (0%)
Language : English
Default : No
Forced : No

Text #3
ID : 5
Format : UTF-8
Codec ID : S_TEXT/UTF8
Codec ID/Info : UTF-8 Plain Text
Duration : 1 h 54 min
Bit rate : 70 b/s
Frame rate : 0.249 FPS
Count of elements : 1718
Stream size : 59.2 KiB (0%)
Title : SDH
Language : English
Default : No
Forced : No

Text #4
ID : 6
Format : UTF-8
Codec ID : S_TEXT/UTF8
Codec ID/Info : UTF-8 Plain Text
Duration : 1 h 55 min
Bit rate : 95 b/s
Frame rate : 0.211 FPS
Count of elements : 1456
Stream size : 80.7 KiB (0%)
Language : Arabic
Default : No
Forced : No

Text #5
ID : 7
Format : UTF-8
Codec ID : S_TEXT/UTF8
Codec ID/Info : UTF-8 Plain Text
Duration : 1 h 55 min
Bit rate : 49 b/s
Frame rate : 0.198 FPS
Count of elements : 1370
Stream size : 42.0 KiB (0%)
Language : Czech
Default : No
Forced : No

Text #6
ID : 8
Format : UTF-8
Codec ID : S_TEXT/UTF8
Codec ID/Info : UTF-8 Plain Text
Duration : 1 h 54 min
Bit rate : 65 b/s
Frame rate : 0.210 FPS
Count of elements : 1444
Stream size : 54.7 KiB (0%)
Language : Welsh
Default : No
Forced : No

Text #7
ID : 9
Format : UTF-8
Codec ID : S_TEXT/UTF8
Codec ID/Info : UTF-8 Plain Text
Duration : 1 h 55 min
Bit rate : 49 b/s
Frame rate : 0.186 FPS
Count of elements : 1282
Stream size : 41.9 KiB (0%)
Language : Danish
Default : No
Forced : No

Text #8
ID : 10
Format : UTF-8
Codec ID : S_TEXT/UTF8
Codec ID/Info : UTF-8 Plain Text
Duration : 1 h 55 min
Bit rate : 52 b/s
Frame rate : 0.198 FPS
Count of elements : 1369
Stream size : 43.8 KiB (0%)
Language : German
Default : No
Forced : No

Text #9
ID : 11
Format : UTF-8
Codec ID : S_TEXT/UTF8
Codec ID/Info : UTF-8 Plain Text
Duration : 1 h 55 min
Bit rate : 88 b/s
Frame rate : 0.207 FPS
Count of elements : 1430
Stream size : 74.3 KiB (0%)
Language : Greek
Default : No
Forced : No

Text #10
ID : 12
Format : UTF-8
Codec ID : S_TEXT/UTF8
Codec ID/Info : UTF-8 Plain Text
Duration : 1 h 55 min
Bit rate : 51 b/s
Frame rate : 0.206 FPS
Count of elements : 1422
Stream size : 43.2 KiB (0%)
Title : Latin American
Language : Spanish
Default : No
Forced : No

Text #11
ID : 13
Format : UTF-8
Codec ID : S_TEXT/UTF8
Codec ID/Info : UTF-8 Plain Text
Duration : 1 h 55 min
Bit rate : 49 b/s
Frame rate : 0.201 FPS
Count of elements : 1390
Stream size : 41.9 KiB (0%)
Language : Spanish
Default : No
Forced : No

Text #12
ID : 14
Format : UTF-8
Codec ID : S_TEXT/UTF8
Codec ID/Info : UTF-8 Plain Text
Duration : 1 h 55 min
Bit rate : 49 b/s
Frame rate : 0.174 FPS
Count of elements : 1198
Stream size : 41.9 KiB (0%)
Language : Finnish
Default : No
Forced : No

Text #13
ID : 15
Format : UTF-8
Codec ID : S_TEXT/UTF8
Codec ID/Info : UTF-8 Plain Text
Duration : 1 h 55 min
Bit rate : 49 b/s
Frame rate : 0.204 FPS
Count of elements : 1406
Stream size : 41.8 KiB (0%)
Language : fil
Default : No
Forced : No

Text #14
ID : 16
Format : UTF-8
Codec ID : S_TEXT/UTF8
Codec ID/Info : UTF-8 Plain Text
Duration : 1 h 55 min
Bit rate : 54 b/s
Frame rate : 0.207 FPS
Count of elements : 1426
Stream size : 45.7 KiB (0%)
Language : French
Default : No
Forced : No

Text #15
ID : 17
Format : UTF-8
Codec ID : S_TEXT/UTF8
Codec ID/Info : UTF-8 Plain Text
Duration : 1 h 55 min
Bit rate : 79 b/s
Frame rate : 0.204 FPS
Count of elements : 1408
Stream size : 67.0 KiB (0%)
Language : Hebrew
Default : No
Forced : No

Text #16
ID : 18
Format : UTF-8
Codec ID : S_TEXT/UTF8
Codec ID/Info : UTF-8 Plain Text
Duration : 1 h 55 min
Bit rate : 48 b/s
Frame rate : 0.207 FPS
Count of elements : 1429
Stream size : 41.2 KiB (0%)
Language : Croatian
Default : No
Forced : No

Text #17
ID : 19
Format : UTF-8
Codec ID : S_TEXT/UTF8
Codec ID/Info : UTF-8 Plain Text
Duration : 1 h 55 min
Bit rate : 51 b/s
Frame rate : 0.198 FPS
Count of elements : 1369
Stream size : 43.7 KiB (0%)
Language : Hungarian
Default : No
Forced : No

Text #18
ID : 20
Format : UTF-8
Codec ID : S_TEXT/UTF8
Codec ID/Info : UTF-8 Plain Text
Duration : 1 h 55 min
Bit rate : 51 b/s
Frame rate : 0.204 FPS
Count of elements : 1405
Stream size : 43.8 KiB (0%)
Language : Indonesian
Default : No
Forced : No

Text #19
ID : 21
Format : UTF-8
Codec ID : S_TEXT/UTF8
Codec ID/Info : UTF-8 Plain Text
Duration : 1 h 55 min
Bit rate : 51 b/s
Frame rate : 0.192 FPS
Count of elements : 1324
Stream size : 43.3 KiB (0%)
Language : Italian
Default : No
Forced : No

Text #20
ID : 22
Format : UTF-8
Codec ID : S_TEXT/UTF8
Codec ID/Info : UTF-8 Plain Text
Duration : 1 h 55 min
Bit rate : 45 b/s
Frame rate : 0.192 FPS
Count of elements : 1328
Stream size : 38.2 KiB (0%)
Language : Japanese
Default : No
Forced : No

Text #21
ID : 23
Format : UTF-8
Codec ID : S_TEXT/UTF8
Codec ID/Info : UTF-8 Plain Text
Duration : 1 h 55 min
Bit rate : 60 b/s
Frame rate : 0.205 FPS
Count of elements : 1416
Stream size : 50.7 KiB (0%)
Language : Korean
Default : No
Forced : No

Text #22
ID : 24
Format : UTF-8
Codec ID : S_TEXT/UTF8
Codec ID/Info : UTF-8 Plain Text
Duration : 1 h 55 min
Bit rate : 51 b/s
Frame rate : 0.200 FPS
Count of elements : 1378
Stream size : 43.6 KiB (0%)
Language : Malay
Default : No
Forced : No

Text #23
ID : 25
Format : UTF-8
Codec ID : S_TEXT/UTF8
Codec ID/Info : UTF-8 Plain Text
Duration : 1 h 55 min
Bit rate : 50 b/s
Frame rate : 0.183 FPS
Count of elements : 1265
Stream size : 42.6 KiB (0%)
Language : Norwegian Bokmal
Default : No
Forced : No

Text #24
ID : 26
Format : UTF-8
Codec ID : S_TEXT/UTF8
Codec ID/Info : UTF-8 Plain Text
Duration : 1 h 55 min
Bit rate : 47 b/s
Frame rate : 0.169 FPS
Count of elements : 1167
Stream size : 39.8 KiB (0%)
Language : Dutch
Default : No
Forced : No

Text #25
ID : 27
Format : UTF-8
Codec ID : S_TEXT/UTF8
Codec ID/Info : UTF-8 Plain Text
Duration : 1 h 54 min
Bit rate : 49 b/s
Frame rate : 0.204 FPS
Count of elements : 1407
Stream size : 42.0 KiB (0%)
Language : Polish
Default : No
Forced : No

Text #26
ID : 28
Format : UTF-8
Codec ID : S_TEXT/UTF8
Codec ID/Info : UTF-8 Plain Text
Duration : 1 h 54 min
Bit rate : 60 b/s
Frame rate : 0.200 FPS
Count of elements : 1376
Stream size : 51.0 KiB (0%)
Title : Brazilian
Language : Portuguese
Default : No
Forced : No

Text #27
ID : 29
Format : UTF-8
Codec ID : S_TEXT/UTF8
Codec ID/Info : UTF-8 Plain Text
Duration : 1 h 55 min
Bit rate : 52 b/s
Frame rate : 0.194 FPS
Count of elements : 1342
Stream size : 43.8 KiB (0%)
Title : Brazilian
Language : Portuguese
Default : No
Forced : No

Text #28
ID : 30
Format : UTF-8
Codec ID : S_TEXT/UTF8
Codec ID/Info : UTF-8 Plain Text
Duration : 1 h 54 min
Bit rate : 75 b/s
Frame rate : 0.271 FPS
Count of elements : 1870
Stream size : 63.2 KiB (0%)
Title : Brazilian (SDH)
Language : Portuguese
Default : No
Forced : No

Text #29
ID : 31
Format : UTF-8
Codec ID : S_TEXT/UTF8
Codec ID/Info : UTF-8 Plain Text
Duration : 1 h 55 min
Bit rate : 55 b/s
Frame rate : 0.199 FPS
Count of elements : 1376
Stream size : 47.0 KiB (0%)
Language : Portuguese
Default : No
Forced : No

Text #30
ID : 32
Format : UTF-8
Codec ID : S_TEXT/UTF8
Codec ID/Info : UTF-8 Plain Text
Duration : 1 h 55 min
Bit rate : 57 b/s
Frame rate : 0.191 FPS
Count of elements : 1319
Stream size : 48.6 KiB (0%)
Language : Romanian
Default : No
Forced : No

Text #31
ID : 33
Format : UTF-8
Codec ID : S_TEXT/UTF8
Codec ID/Info : UTF-8 Plain Text
Duration : 1 h 55 min
Bit rate : 81 b/s
Frame rate : 0.201 FPS
Count of elements : 1385
Stream size : 68.6 KiB (0%)
Language : Russian
Default : No
Forced : No

Text #32
ID : 34
Format : UTF-8
Codec ID : S_TEXT/UTF8
Codec ID/Info : UTF-8 Plain Text
Duration : 1 h 55 min
Bit rate : 52 b/s
Frame rate : 0.179 FPS
Count of elements : 1237
Stream size : 44.4 KiB (0%)
Language : Swedish
Default : No
Forced : No

Text #33
ID : 35
Format : UTF-8
Codec ID : S_TEXT/UTF8
Codec ID/Info : UTF-8 Plain Text
Duration : 1 h 55 min
Bit rate : 134 b/s
Frame rate : 0.205 FPS
Count of elements : 1415
Stream size : 113 KiB (0%)
Language : Thai
Default : No
Forced : No

Text #34
ID : 36
Format : UTF-8
Codec ID : S_TEXT/UTF8
Codec ID/Info : UTF-8 Plain Text
Duration : 1 h 55 min
Bit rate : 53 b/s
Frame rate : 0.204 FPS
Count of elements : 1411
Stream size : 45.2 KiB (0%)
Language : Turkish
Default : No
Forced : No

Text #35
ID : 37
Format : UTF-8
Codec ID : S_TEXT/UTF8
Codec ID/Info : UTF-8 Plain Text
Duration : 1 h 55 min
Bit rate : 85 b/s
Frame rate : 0.204 FPS
Count of elements : 1410
Stream size : 72.2 KiB (0%)
Language : Ukrainian
Default : No
Forced : No

Text #36
ID : 38
Format : UTF-8
Codec ID : S_TEXT/UTF8
Codec ID/Info : UTF-8 Plain Text
Duration : 1 h 55 min
Bit rate : 75 b/s
Frame rate : 0.206 FPS
Count of elements : 1421
Stream size : 63.3 KiB (0%)
Language : Vietnamese
Default : No
Forced : No

Text #37
ID : 39
Format : UTF-8
Codec ID : S_TEXT/UTF8
Codec ID/Info : UTF-8 Plain Text
Duration : 1 h 55 min
Bit rate : 55 b/s
Frame rate : 0.206 FPS
Count of elements : 1424
Stream size : 46.3 KiB (0%)
Title : 简体中字
Language : Chinese
Default : No
Forced : No

Text #38
ID : 40
Format : UTF-8
Codec ID : S_TEXT/UTF8
Codec ID/Info : UTF-8 Plain Text
Duration : 1 h 55 min
Bit rate : 49 b/s
Frame rate : 0.215 FPS
Count of elements : 1487
Stream size : 41.4 KiB (0%)
Title : 繁体中字
Language : Chinese
Default : No
Forced : No

推荐使用qBittorrent、uTorrent、BitComet等下载软件,有条件的推荐115或会员软件下载!

下载地址:

游客,如果您要查看本帖隐藏内容请回复

游客,如果您要查看本帖隐藏内容请回复

游客,如果您要查看本帖隐藏内容请回复

游客,如果您要查看本帖隐藏内容请回复






上一篇:父女之战:解放布兰妮 [简繁中字] (2021) 4K高清版下载
下一篇:爱情跑调 [简繁中字] / Sounds.Like.Love (2021) 4K高清版下载
回复

使用道具 举报

0

主题

2

帖子

15

积分

新手上路

Rank: 1

积分
15
发表于 2022-11-30 10:09:13 | 显示全部楼层
这个有附中文字幕么
回复 支持 反对

使用道具 举报

0

主题

2

帖子

12

积分

新手上路

Rank: 1

积分
12
发表于 2022-11-30 11:25:46 | 显示全部楼层
感谢楼主分享
回复 支持 反对

使用道具 举报

0

主题

3

帖子

12

积分

新手上路

Rank: 1

积分
12
发表于 2022-11-30 16:56:21 | 显示全部楼层
66666666666666666666666666666
回复 支持 反对

使用道具 举报

0

主题

226

帖子

1016

积分

4K家园VIP

Rank: 9Rank: 9Rank: 9

积分
1016
发表于 2022-11-30 20:35:45 | 显示全部楼层
楼主辛苦了,谢谢楼主,感谢楼主分享,楼主好人一生平安!!!
回复 支持 反对

使用道具 举报

主题

帖子

0

积分

超级版主

Rank: 8Rank: 8

积分
0
 楼主| 发表于 2022-11-30 21:01:35 | 显示全部楼层
alexyzp 发表于 2022-11-30 10:09
这个有附中文字幕么

是的
回复 支持 反对

使用道具 举报

主题

帖子

0

积分

新手上路

Rank: 1

积分
0
发表于 2022-11-30 21:28:12 | 显示全部楼层
asdfasdfasdfasdf
回复 支持 反对

使用道具 举报

主题

帖子

0

积分

新手上路

Rank: 1

积分
0
发表于 2022-12-1 01:05:21 | 显示全部楼层
试看影片下载质量
回复 支持 反对

使用道具 举报

0

主题

2

帖子

9

积分

新手上路

Rank: 1

积分
9
发表于 2022-12-1 07:42:56 来自手机 | 显示全部楼层
我要睡觉了
回复 支持 反对

使用道具 举报

0

主题

1

帖子

6

积分

新手上路

Rank: 1

积分
6
发表于 2022-12-1 10:06:00 | 显示全部楼层
辛苦辛苦
回复

使用道具 举报

您需要登录后才可以回帖 登录 | 立即注册

本版积分规则

精彩图文
Archiver|手机版|TAG|Sitemap|新帖|专题|联系我们:邮箱: 4kjia.com@gmail.com   

4k家园   ©2019