[4K电影] 爱情跑调 [简繁中字] / Sounds.Like.Love (2021) 4K高清版下载

[复制链接]

主题

帖子

0

积分

超级版主

Rank: 8Rank: 8

积分
0
 楼主| 发表于 2022-11-29 22:12:11 | 显示全部楼层 |阅读模式
爱情跑调.png

◎标  题 爱情跑调
◎译  名 We Were Songs / Sounds Like Love
◎片  名 Fuimos canciones
◎年  代 2021
◎产  地 西班牙
◎类  别 剧情 / 喜剧 / 爱情 / 音乐
◎语  言 西班牙语
◎上映日期 2021-09-29(西班牙)
◎IMDb评分 5.4/10 from 2316 users 更新 : 2022-11-27
◎IMDb链接 https://www.imdb.com/title/tt11698662/
◎豆瓣评分 6.0/10 from 439 users 更新 : 2022-11-29
◎豆瓣链接 https://movie.douban.com/subject/35504041/
◎片  长 112分钟
◎导  演 胡安娜·马西亚斯 Juana Macías
◎演  员 玛利亚·瓦沃德 María Valverde
       亚历克斯·冈萨雷斯 Álex González
       卡洛·科斯坦齐亚 Carlo Costanzia
       苏珊娜·阿巴图纳·戈麦斯 Susana Abaituna Gómez
       伊格纳西奥·蒙特斯 Ignacio Montes
       ‎伊丽莎白·‎‎卡萨诺瓦斯‎ Elisabet Casanovas
       罗杰·贝鲁佐 Roger Berruezo


◎简  介


       玛卡(玛丽亚·瓦尔韦德饰),30岁,天生笨手笨脚,充分利用生活,努力追求幸福。马卡的才华被浪费在为一个压抑而可怕的时尚影响者做助手上,她把时间花在了那些她从未与之建立情感纽带的男人身上。与吉梅纳(Elísabet Casanovas饰)和阿德里安娜(Susana Abaitúa饰)一起,马卡成功地将马德里打造成了一个一切皆有可能的城市。吉梅纳和阿德里安娜是她的两位独特而可爱的朋友,他们总是愿意不惜一切代价让自己的问题看起来不那么糟糕。一切似乎都很顺利,直到那个不具名的人回到她的生活中。利奥(Alex González饰)是她一生中最爱和最大的错误,这个男人撕裂了她的心,摧毁了她的自尊和对男人的信心,回到她的生活中,把一切都颠倒过来。马卡曾试图忘记他,但现在她不得不接受他已经回来了,并面对她已经锁定的情绪,以处理过去和过去的难忘记忆。旧的伤口重新愈合,马卡必须勇敢面对自己的冲突、恐惧和不安全感,才能最终控制自己的生活。
Video
ID : 1
Format : HEVC
Format/Info : High Efficiency Video Coding
Format profile : Main 10@L5@Main
Codec ID : V_MPEGH/ISO/HEVC
Duration : 1 h 51 min
Bit rate : 17.0 Mb/s
Width : 3 840 pixels
Height : 2 160 pixels
Display aspect ratio : 16:9
Frame rate mode : Constant
Frame rate : 24.000 FPS
Color space : YUV
Chroma subsampling : 4:2:0
Bit depth : 10 bits
Bits/(Pixel*Frame) : 0.086
Stream size : 13.2 GiB (92%)
Language : Spanish
Default : Yes
Forced : No
Color range : Limited
Color primaries : BT.709
Transfer characteristics : BT.709
Matrix coefficients : BT.709

Audio #1
ID : 2
Format : E-AC-3 JOC
Format/Info : Enhanced AC-3 with Joint Object Coding
Commercial name : Dolby Digital Plus with Dolby Atmos
Codec ID : A_EAC3
Duration : 1 h 51 min
Bit rate mode : Constant
Bit rate : 768 kb/s
Channel(s) : 6 channels
Channel layout : L R C LFE Ls Rs
Sampling rate : 48.0 kHz
Frame rate : 31.250 FPS (1536 SPF)
Compression mode : Lossy
Stream size : 611 MiB (4%)
Language : Spanish
Service kind : Complete Main
Default : Yes
Forced : No
Complexity index : 16
Number of dynamic objects : 15
Bed channel count : 1 channel
Bed channel configuration : LFE

Audio #2
ID : 3
Format : E-AC-3
Format/Info : Enhanced AC-3
Commercial name : Dolby Digital Plus
Codec ID : A_EAC3
Duration : 1 h 51 min
Bit rate mode : Constant
Bit rate : 640 kb/s
Channel(s) : 6 channels
Channel layout : L R C LFE Ls Rs
Sampling rate : 48.0 kHz
Frame rate : 31.250 FPS (1536 SPF)
Compression mode : Lossy
Stream size : 509 MiB (3%)
Language : English
Service kind : Complete Main
Default : No
Forced : No

Text #1
ID : 4
Format : UTF-8
Codec ID : S_TEXT/UTF8
Codec ID/Info : UTF-8 Plain Text
Duration : 20 min 35 s
Bit rate : 1 b/s
Frame rate : 0.006 FPS
Count of elements : 8
Stream size : 190 Bytes (0%)
Title : Forced
Language : Spanish
Default : Yes
Forced : Yes

Text #2
ID : 5
Format : UTF-8
Codec ID : S_TEXT/UTF8
Codec ID/Info : UTF-8 Plain Text
Duration : 1 h 45 min
Bit rate : 63 b/s
Frame rate : 0.230 FPS
Count of elements : 1452
Stream size : 48.7 KiB (0%)
Language : Spanish
Default : No
Forced : No

Text #3
ID : 6
Format : UTF-8
Codec ID : S_TEXT/UTF8
Codec ID/Info : UTF-8 Plain Text
Duration : 1 h 49 min
Bit rate : 71 b/s
Frame rate : 0.265 FPS
Count of elements : 1748
Stream size : 57.3 KiB (0%)
Title : SDH
Language : Spanish
Default : No
Forced : No

Text #4
ID : 7
Format : UTF-8
Codec ID : S_TEXT/UTF8
Codec ID/Info : UTF-8 Plain Text
Duration : 1 h 45 min
Bit rate : 1 b/s
Frame rate : 0.008 FPS
Count of elements : 53
Stream size : 1.38 KiB (0%)
Title : Forced
Language : English
Default : No
Forced : Yes

Text #5
ID : 8
Format : UTF-8
Codec ID : S_TEXT/UTF8
Codec ID/Info : UTF-8 Plain Text
Duration : 1 h 45 min
Bit rate : 68 b/s
Frame rate : 0.245 FPS
Count of elements : 1554
Stream size : 53.0 KiB (0%)
Language : English
Default : No
Forced : No

Text #6
ID : 9
Format : UTF-8
Codec ID : S_TEXT/UTF8
Codec ID/Info : UTF-8 Plain Text
Duration : 1 h 45 min
Bit rate : 62 b/s
Frame rate : 0.214 FPS
Count of elements : 1356
Stream size : 48.3 KiB (0%)
Language : English
Default : No
Forced : No

Text #7
ID : 10
Format : UTF-8
Codec ID : S_TEXT/UTF8
Codec ID/Info : UTF-8 Plain Text
Duration : 1 h 47 min
Bit rate : 85 b/s
Frame rate : 0.294 FPS
Count of elements : 1899
Stream size : 67.0 KiB (0%)
Title : SDH
Language : English
Default : No
Forced : No

Text #8
ID : 11
Format : UTF-8
Codec ID : S_TEXT/UTF8
Codec ID/Info : UTF-8 Plain Text
Duration : 1 h 49 min
Bit rate : 98 b/s
Frame rate : 0.206 FPS
Count of elements : 1362
Stream size : 79.1 KiB (0%)
Language : Arabic
Default : No
Forced : No

Text #9
ID : 12
Format : UTF-8
Codec ID : S_TEXT/UTF8
Codec ID/Info : UTF-8 Plain Text
Duration : 1 h 49 min
Bit rate : 58 b/s
Frame rate : 0.202 FPS
Count of elements : 1335
Stream size : 47.0 KiB (0%)
Language : Czech
Default : No
Forced : No

Text #10
ID : 13
Format : UTF-8
Codec ID : S_TEXT/UTF8
Codec ID/Info : UTF-8 Plain Text
Duration : 1 h 49 min
Bit rate : 61 b/s
Frame rate : 0.207 FPS
Count of elements : 1364
Stream size : 49.4 KiB (0%)
Language : Danish
Default : No
Forced : No

Text #11
ID : 14
Format : UTF-8
Codec ID : S_TEXT/UTF8
Codec ID/Info : UTF-8 Plain Text
Duration : 1 h 49 min
Bit rate : 54 b/s
Frame rate : 0.219 FPS
Count of elements : 1443
Stream size : 43.7 KiB (0%)
Language : German
Default : No
Forced : No

Text #12
ID : 15
Format : UTF-8
Codec ID : S_TEXT/UTF8
Codec ID/Info : UTF-8 Plain Text
Duration : 1 h 49 min
Bit rate : 96 b/s
Frame rate : 0.207 FPS
Count of elements : 1364
Stream size : 77.5 KiB (0%)
Language : Greek
Default : No
Forced : No

Text #13
ID : 16
Format : UTF-8
Codec ID : S_TEXT/UTF8
Codec ID/Info : UTF-8 Plain Text
Duration : 1 h 49 min
Bit rate : 56 b/s
Frame rate : 0.199 FPS
Count of elements : 1312
Stream size : 45.6 KiB (0%)
Language : Finnish
Default : No
Forced : No

Text #14
ID : 17
Format : UTF-8
Codec ID : S_TEXT/UTF8
Codec ID/Info : UTF-8 Plain Text
Duration : 1 h 49 min
Bit rate : 58 b/s
Frame rate : 0.201 FPS
Count of elements : 1328
Stream size : 46.8 KiB (0%)
Language : French
Default : No
Forced : No

Text #15
ID : 18
Format : UTF-8
Codec ID : S_TEXT/UTF8
Codec ID/Info : UTF-8 Plain Text
Duration : 1 h 49 min
Bit rate : 94 b/s
Frame rate : 0.207 FPS
Count of elements : 1363
Stream size : 75.9 KiB (0%)
Language : Hebrew
Default : No
Forced : No

Text #16
ID : 19
Format : UTF-8
Codec ID : S_TEXT/UTF8
Codec ID/Info : UTF-8 Plain Text
Duration : 1 h 49 min
Bit rate : 52 b/s
Frame rate : 0.212 FPS
Count of elements : 1396
Stream size : 42.1 KiB (0%)
Language : Croatian
Default : No
Forced : No

Text #17
ID : 20
Format : UTF-8
Codec ID : S_TEXT/UTF8
Codec ID/Info : UTF-8 Plain Text
Duration : 1 h 49 min
Bit rate : 59 b/s
Frame rate : 0.206 FPS
Count of elements : 1360
Stream size : 47.6 KiB (0%)
Language : Hungarian
Default : No
Forced : No

Text #18
ID : 21
Format : UTF-8
Codec ID : S_TEXT/UTF8
Codec ID/Info : UTF-8 Plain Text
Duration : 1 h 49 min
Bit rate : 59 b/s
Frame rate : 0.208 FPS
Count of elements : 1373
Stream size : 47.7 KiB (0%)
Language : Indonesian
Default : No
Forced : No

Text #19
ID : 22
Format : UTF-8
Codec ID : S_TEXT/UTF8
Codec ID/Info : UTF-8 Plain Text
Duration : 1 h 49 min
Bit rate : 57 b/s
Frame rate : 0.204 FPS
Count of elements : 1341
Stream size : 46.2 KiB (0%)
Language : Italian
Default : No
Forced : No

Text #20
ID : 23
Format : UTF-8
Codec ID : S_TEXT/UTF8
Codec ID/Info : UTF-8 Plain Text
Duration : 1 h 49 min
Bit rate : 52 b/s
Frame rate : 0.219 FPS
Count of elements : 1443
Stream size : 42.3 KiB (0%)
Language : Japanese
Default : No
Forced : No

Text #21
ID : 24
Format : UTF-8
Codec ID : S_TEXT/UTF8
Codec ID/Info : UTF-8 Plain Text
Duration : 1 h 49 min
Bit rate : 75 b/s
Frame rate : 0.218 FPS
Count of elements : 1440
Stream size : 60.6 KiB (0%)
Language : Korean
Default : No
Forced : No

Text #22
ID : 25
Format : UTF-8
Codec ID : S_TEXT/UTF8
Codec ID/Info : UTF-8 Plain Text
Duration : 1 h 49 min
Bit rate : 55 b/s
Frame rate : 0.206 FPS
Count of elements : 1357
Stream size : 44.7 KiB (0%)
Language : Malay
Default : No
Forced : No

Text #23
ID : 26
Format : UTF-8
Codec ID : S_TEXT/UTF8
Codec ID/Info : UTF-8 Plain Text
Duration : 1 h 49 min
Bit rate : 57 b/s
Frame rate : 0.200 FPS
Count of elements : 1322
Stream size : 46.0 KiB (0%)
Language : Norwegian Bokmal
Default : No
Forced : No

Text #24
ID : 27
Format : UTF-8
Codec ID : S_TEXT/UTF8
Codec ID/Info : UTF-8 Plain Text
Duration : 1 h 49 min
Bit rate : 55 b/s
Frame rate : 0.190 FPS
Count of elements : 1252
Stream size : 44.9 KiB (0%)
Language : Dutch
Default : No
Forced : No

Text #25
ID : 28
Format : UTF-8
Codec ID : S_TEXT/UTF8
Codec ID/Info : UTF-8 Plain Text
Duration : 1 h 49 min
Bit rate : 48 b/s
Frame rate : 0.200 FPS
Count of elements : 1320
Stream size : 38.9 KiB (0%)
Language : Polish
Default : No
Forced : No

Text #26
ID : 29
Format : UTF-8
Codec ID : S_TEXT/UTF8
Codec ID/Info : UTF-8 Plain Text
Duration : 1 h 49 min
Bit rate : 55 b/s
Frame rate : 0.209 FPS
Count of elements : 1378
Stream size : 44.9 KiB (0%)
Title : Brazilian
Language : Portuguese
Default : No
Forced : No

Text #27
ID : 30
Format : UTF-8
Codec ID : S_TEXT/UTF8
Codec ID/Info : UTF-8 Plain Text
Duration : 1 h 49 min
Bit rate : 56 b/s
Frame rate : 0.205 FPS
Count of elements : 1350
Stream size : 45.7 KiB (0%)
Language : Portuguese
Default : No
Forced : No

Text #28
ID : 31
Format : UTF-8
Codec ID : S_TEXT/UTF8
Codec ID/Info : UTF-8 Plain Text
Duration : 1 h 49 min
Bit rate : 63 b/s
Frame rate : 0.202 FPS
Count of elements : 1334
Stream size : 50.8 KiB (0%)
Language : Romanian
Default : No
Forced : No

Text #29
ID : 32
Format : UTF-8
Codec ID : S_TEXT/UTF8
Codec ID/Info : UTF-8 Plain Text
Duration : 1 h 49 min
Bit rate : 89 b/s
Frame rate : 0.207 FPS
Count of elements : 1364
Stream size : 71.9 KiB (0%)
Language : Russian
Default : No
Forced : No

Text #30
ID : 33
Format : UTF-8
Codec ID : S_TEXT/UTF8
Codec ID/Info : UTF-8 Plain Text
Duration : 1 h 49 min
Bit rate : 56 b/s
Frame rate : 0.204 FPS
Count of elements : 1348
Stream size : 45.8 KiB (0%)
Language : Swedish
Default : No
Forced : No

Text #31
ID : 34
Format : UTF-8
Codec ID : S_TEXT/UTF8
Codec ID/Info : UTF-8 Plain Text
Duration : 1 h 49 min
Bit rate : 157 b/s
Frame rate : 0.255 FPS
Count of elements : 1685
Stream size : 127 KiB (0%)
Language : Thai
Default : No
Forced : No

Text #32
ID : 35
Format : UTF-8
Codec ID : S_TEXT/UTF8
Codec ID/Info : UTF-8 Plain Text
Duration : 1 h 49 min
Bit rate : 58 b/s
Frame rate : 0.196 FPS
Count of elements : 1290
Stream size : 46.9 KiB (0%)
Language : Turkish
Default : No
Forced : No

Text #33
ID : 36
Format : UTF-8
Codec ID : S_TEXT/UTF8
Codec ID/Info : UTF-8 Plain Text
Duration : 1 h 45 min
Bit rate : 96 b/s
Frame rate : 0.225 FPS
Count of elements : 1428
Stream size : 74.4 KiB (0%)
Language : Ukrainian
Default : No
Forced : No

Text #34
ID : 37
Format : UTF-8
Codec ID : S_TEXT/UTF8
Codec ID/Info : UTF-8 Plain Text
Duration : 1 h 49 min
Bit rate : 79 b/s
Frame rate : 0.217 FPS
Count of elements : 1433
Stream size : 63.8 KiB (0%)
Language : Vietnamese
Default : No
Forced : No

Text #35
ID : 38
Format : UTF-8
Codec ID : S_TEXT/UTF8
Codec ID/Info : UTF-8 Plain Text
Duration : 1 h 49 min
Bit rate : 64 b/s
Frame rate : 0.230 FPS
Count of elements : 1516
Stream size : 52.0 KiB (0%)
Title : 简体中字
Language : Chinese
Default : No
Forced : No

Text #36
ID : 39
Format : UTF-8
Codec ID : S_TEXT/UTF8
Codec ID/Info : UTF-8 Plain Text
Duration : 1 h 49 min
Bit rate : 59 b/s
Frame rate : 0.235 FPS
Count of elements : 1548
Stream size : 48.1 KiB (0%)
Title : 繁体中字
Language : Chinese
Default : No
Forced : No

Menu
01:45:51.000 : en:End Credits

推荐使用qBittorrent、uTorrent、BitComet等下载软件,有条件的推荐115或会员软件下载!

下载地址:

游客,如果您要查看本帖隐藏内容请回复






上一篇:红色通缉令 [简繁中字] / Red Notice (2021) 4K高清版下载
下一篇:泳舞姐妹 [简繁中字] / The Swimmers (2022) 4K高清版下载
回复

使用道具 举报

您需要登录后才可以回帖 登录 | 立即注册

本版积分规则

精彩图文
Archiver|手机版|TAG|Sitemap|新帖|专题|联系我们:邮箱: 4kjia.com@gmail.com   

4k家园   ©2019