[4K电影] 誓血五人组 [简繁中字] / Da 5 Bloods (2020) 4K高清版下载

[复制链接]

主题

帖子

0

积分

超级版主

Rank: 8Rank: 8

积分
0
 楼主| 发表于 2022-11-30 12:58:26 | 显示全部楼层 |阅读模式
本帖最后由 最爱4K哟 于 2022-11-30 19:13 编辑

QQ图片20221130191504_副本.png

◎译  名 誓血五人组 / 五滴血
◎片  名 Da 5 Bloods
◎年  代 2020
◎产  地 美国
◎类  别 剧情 / 战争
◎语  言 英语
◎上映日期 2020-06-12(美国)
◎IMDb评分 6.5/10 from 51882 users 更新 : 2022-11-29
◎IMDb链接 https://www.imdb.com/title/tt9777644
◎豆瓣评分 6.1/10 from 5710 users 更新 : 2022-11-30
◎豆瓣链接 https://movie.douban.com/subject/30425206/
◎片  长 155分钟
◎导  演 斯派克·李 Spike Lee
◎编  剧 丹尼·比尔森 Danny Bilson / 保罗·德米奥 Paul De Meo / 凯文·威尔默特 Kevin Willmott / 斯派克·李 Spike Lee
◎主  演 查德维克·博斯曼 Chadwick Boseman
       让·雷诺 Jean Reno
       德尔罗伊·林多 Delroy Lindo
       乔纳森·梅杰斯 Jonathan Majors
       克拉克·彼得斯 Clarke Peters
       小伊塞亚·维特洛克 Isiah Whitlock Jr.
       保罗·沃尔特·豪泽 Paul Walter Hauser
       诺姆·刘易斯 Norm Lewis
       梅兰尼·蒂埃里 Mélanie Thierry
       加斯帕·帕科农 Jasper P??kk?nen
       吴青芸 Thanh Van Ngo
       阮明智 Johnny Nguyen
       亚历山大·威特斯 Alexander Winters
       德文·鲁默 Devin Rumer
       里克·舒斯特 Rick Shuster
       Mav Kang Mav Kang
       安德烈·卡苏什金 Andrey Kasushkin



◎简  介

  荣获奥斯卡金像奖的斯派克·李为我们带来了全新作品,这个故事讲述了四个非裔美国退伍军人返回越南的故事。他们前去寻找死去的队长(查德维克·博斯曼饰演)的遗体和埋藏的宝藏。在对抗人与自然的力量的同时,我们的英雄们还要面对越南战争中的残暴行径所带来的持久破坏。

Video
ID : 1
Format : HEVC
Format/Info : High Efficiency Video Coding
Format profile : Main 10@L5@Main
Codec ID : V_MPEGH/ISO/HEVC
Duration : 2 h 35 min
Bit rate : 16.6 Mb/s
Width : 3 840 pixels
Height : 2 160 pixels
Display aspect ratio : 16:9
Frame rate mode : Constant
Frame rate : 24.000 FPS
Color space : YUV
Chroma subsampling : 4:2:0
Bit depth : 10 bits
Bits/(Pixel*Frame) : 0.084
Stream size : 18.1 GiB (96%)
Language : English
Default : Yes
Forced : No
Color range : Limited
Color primaries : BT.709
Transfer characteristics : BT.709
Matrix coefficients : BT.709

Audio
ID : 2
Format : E-AC-3 JOC
Format/Info : Enhanced AC-3 with Joint Object Coding
Commercial name : Dolby Digital Plus with Dolby Atmos
Codec ID : A_EAC3
Duration : 2 h 35 min
Bit rate mode : Constant
Bit rate : 768 kb/s
Channel(s) : 6 channels
Channel layout : L R C LFE Ls Rs
Sampling rate : 48.0 kHz
Frame rate : 31.250 FPS (1536 SPF)
Compression mode : Lossy
Stream size : 856 MiB (4%)
Language : English
Service kind : Complete Main
Default : Yes
Forced : No
Complexity index : 16
Number of dynamic objects : 15
Bed channel count : 1 channel
Bed channel configuration : LFE

Text #1
ID : 3
Format : UTF-8
Codec ID : S_TEXT/UTF8
Codec ID/Info : UTF-8 Plain Text
Duration : 2 h 34 min
Bit rate : 51 b/s
Frame rate : 0.186 FPS
Count of elements : 1722
Stream size : 58.8 KiB (0%)
Language : English
Default : No
Forced : No

Text #2
ID : 4
Format : UTF-8
Codec ID : S_TEXT/UTF8
Codec ID/Info : UTF-8 Plain Text
Duration : 2 h 34 min
Bit rate : 62 b/s
Frame rate : 0.221 FPS
Count of elements : 2050
Stream size : 71.2 KiB (0%)
Title : SDH
Language : English
Default : No
Forced : No

Text #3
ID : 5
Format : UTF-8
Codec ID : S_TEXT/UTF8
Codec ID/Info : UTF-8 Plain Text
Duration : 2 h 34 min
Bit rate : 86 b/s
Frame rate : 0.203 FPS
Count of elements : 1887
Stream size : 98.3 KiB (0%)
Language : Arabic
Default : No
Forced : No

Text #4
ID : 6
Format : UTF-8
Codec ID : S_TEXT/UTF8
Codec ID/Info : UTF-8 Plain Text
Duration : 2 h 34 min
Bit rate : 45 b/s
Frame rate : 0.198 FPS
Count of elements : 1836
Stream size : 51.0 KiB (0%)
Language : Czech
Default : No
Forced : No

Text #5
ID : 7
Format : UTF-8
Codec ID : S_TEXT/UTF8
Codec ID/Info : UTF-8 Plain Text
Duration : 2 h 34 min
Bit rate : 47 b/s
Frame rate : 0.191 FPS
Count of elements : 1774
Stream size : 53.3 KiB (0%)
Language : Danish
Default : No
Forced : No

Text #6
ID : 8
Format : UTF-8
Codec ID : S_TEXT/UTF8
Codec ID/Info : UTF-8 Plain Text
Duration : 2 h 34 min
Bit rate : 50 b/s
Frame rate : 0.193 FPS
Count of elements : 1787
Stream size : 57.1 KiB (0%)
Language : German
Default : No
Forced : No

Text #7
ID : 9
Format : UTF-8
Codec ID : S_TEXT/UTF8
Codec ID/Info : UTF-8 Plain Text
Duration : 2 h 34 min
Bit rate : 83 b/s
Frame rate : 0.204 FPS
Count of elements : 1890
Stream size : 94.6 KiB (0%)
Language : Greek
Default : No
Forced : No

Text #8
ID : 10
Format : UTF-8
Codec ID : S_TEXT/UTF8
Codec ID/Info : UTF-8 Plain Text
Duration : 2 h 34 min
Bit rate : 51 b/s
Frame rate : 0.196 FPS
Count of elements : 1816
Stream size : 58.4 KiB (0%)
Title : Latin American
Language : Spanish
Default : No
Forced : No

Text #9
ID : 11
Format : UTF-8
Codec ID : S_TEXT/UTF8
Codec ID/Info : UTF-8 Plain Text
Duration : 2 h 34 min
Bit rate : 47 b/s
Frame rate : 0.193 FPS
Count of elements : 1794
Stream size : 53.3 KiB (0%)
Language : Spanish
Default : No
Forced : No

Text #10
ID : 12
Format : UTF-8
Codec ID : S_TEXT/UTF8
Codec ID/Info : UTF-8 Plain Text
Duration : 2 h 34 min
Bit rate : 46 b/s
Frame rate : 0.190 FPS
Count of elements : 1761
Stream size : 52.1 KiB (0%)
Language : Finnish
Default : No
Forced : No

Text #11
ID : 13
Format : UTF-8
Codec ID : S_TEXT/UTF8
Codec ID/Info : UTF-8 Plain Text
Duration : 2 h 34 min
Bit rate : 50 b/s
Frame rate : 0.192 FPS
Count of elements : 1776
Stream size : 57.4 KiB (0%)
Language : French
Default : No
Forced : No

Text #12
ID : 14
Format : UTF-8
Codec ID : S_TEXT/UTF8
Codec ID/Info : UTF-8 Plain Text
Duration : 2 h 34 min
Bit rate : 84 b/s
Frame rate : 0.200 FPS
Count of elements : 1852
Stream size : 95.3 KiB (0%)
Language : Hebrew
Default : No
Forced : No

Text #13
ID : 15
Format : UTF-8
Codec ID : S_TEXT/UTF8
Codec ID/Info : UTF-8 Plain Text
Duration : 2 h 34 min
Bit rate : 48 b/s
Frame rate : 0.193 FPS
Count of elements : 1789
Stream size : 54.6 KiB (0%)
Language : Hungarian
Default : No
Forced : No

Text #14
ID : 16
Format : UTF-8
Codec ID : S_TEXT/UTF8
Codec ID/Info : UTF-8 Plain Text
Duration : 2 h 34 min
Bit rate : 47 b/s
Frame rate : 0.206 FPS
Count of elements : 1908
Stream size : 53.6 KiB (0%)
Language : Indonesian
Default : No
Forced : No

Text #15
ID : 17
Format : UTF-8
Codec ID : S_TEXT/UTF8
Codec ID/Info : UTF-8 Plain Text
Duration : 2 h 34 min
Bit rate : 48 b/s
Frame rate : 0.198 FPS
Count of elements : 1838
Stream size : 54.5 KiB (0%)
Language : Italian
Default : No
Forced : No

Text #16
ID : 18
Format : UTF-8
Codec ID : S_TEXT/UTF8
Codec ID/Info : UTF-8 Plain Text
Duration : 2 h 34 min
Bit rate : 48 b/s
Frame rate : 0.192 FPS
Count of elements : 1781
Stream size : 54.9 KiB (0%)
Language : Japanese
Default : No
Forced : No

Text #17
ID : 19
Format : UTF-8
Codec ID : S_TEXT/UTF8
Codec ID/Info : UTF-8 Plain Text
Duration : 2 h 34 min
Bit rate : 60 b/s
Frame rate : 0.214 FPS
Count of elements : 1989
Stream size : 69.1 KiB (0%)
Language : Korean
Default : No
Forced : No

Text #18
ID : 20
Format : UTF-8
Codec ID : S_TEXT/UTF8
Codec ID/Info : UTF-8 Plain Text
Duration : 2 h 34 min
Bit rate : 43 b/s
Frame rate : 0.189 FPS
Count of elements : 1755
Stream size : 49.5 KiB (0%)
Language : Norwegian Bokmal
Default : No
Forced : No

Text #19
ID : 21
Format : UTF-8
Codec ID : S_TEXT/UTF8
Codec ID/Info : UTF-8 Plain Text
Duration : 2 h 34 min
Bit rate : 43 b/s
Frame rate : 0.174 FPS
Count of elements : 1610
Stream size : 49.2 KiB (0%)
Language : Dutch
Default : No
Forced : No

Text #20
ID : 22
Format : UTF-8
Codec ID : S_TEXT/UTF8
Codec ID/Info : UTF-8 Plain Text
Duration : 2 h 34 min
Bit rate : 45 b/s
Frame rate : 0.194 FPS
Count of elements : 1795
Stream size : 52.1 KiB (0%)
Language : Polish
Default : No
Forced : No

Text #21
ID : 23
Format : UTF-8
Codec ID : S_TEXT/UTF8
Codec ID/Info : UTF-8 Plain Text
Duration : 2 h 34 min
Bit rate : 46 b/s
Frame rate : 0.195 FPS
Count of elements : 1805
Stream size : 52.4 KiB (0%)
Title : Brazilian
Language : Portuguese
Default : No
Forced : No

Text #22
ID : 24
Format : UTF-8
Codec ID : S_TEXT/UTF8
Codec ID/Info : UTF-8 Plain Text
Duration : 2 h 34 min
Bit rate : 48 b/s
Frame rate : 0.195 FPS
Count of elements : 1810
Stream size : 55.4 KiB (0%)
Language : Portuguese
Default : No
Forced : No

Text #23
ID : 25
Format : UTF-8
Codec ID : S_TEXT/UTF8
Codec ID/Info : UTF-8 Plain Text
Duration : 2 h 34 min
Bit rate : 56 b/s
Frame rate : 0.193 FPS
Count of elements : 1787
Stream size : 63.6 KiB (0%)
Language : Romanian
Default : No
Forced : No

Text #24
ID : 26
Format : UTF-8
Codec ID : S_TEXT/UTF8
Codec ID/Info : UTF-8 Plain Text
Duration : 2 h 34 min
Bit rate : 82 b/s
Frame rate : 0.193 FPS
Count of elements : 1786
Stream size : 93.3 KiB (0%)
Language : Russian
Default : No
Forced : No

Text #25
ID : 27
Format : UTF-8
Codec ID : S_TEXT/UTF8
Codec ID/Info : UTF-8 Plain Text
Duration : 2 h 34 min
Bit rate : 48 b/s
Frame rate : 0.189 FPS
Count of elements : 1754
Stream size : 54.9 KiB (0%)
Language : Swedish
Default : No
Forced : No

Text #26
ID : 28
Format : UTF-8
Codec ID : S_TEXT/UTF8
Codec ID/Info : UTF-8 Plain Text
Duration : 2 h 34 min
Bit rate : 133 b/s
Frame rate : 0.196 FPS
Count of elements : 1813
Stream size : 151 KiB (0%)
Language : Thai
Default : No
Forced : No

Text #27
ID : 29
Format : UTF-8
Codec ID : S_TEXT/UTF8
Codec ID/Info : UTF-8 Plain Text
Duration : 2 h 34 min
Bit rate : 50 b/s
Frame rate : 0.196 FPS
Count of elements : 1814
Stream size : 57.2 KiB (0%)
Language : Turkish
Default : No
Forced : No

Text #28
ID : 30
Format : UTF-8
Codec ID : S_TEXT/UTF8
Codec ID/Info : UTF-8 Plain Text
Duration : 2 h 34 min
Bit rate : 69 b/s
Frame rate : 0.188 FPS
Count of elements : 1744
Stream size : 78.8 KiB (0%)
Language : Vietnamese
Default : No
Forced : No

Text #29
ID : 31
Format : UTF-8
Codec ID : S_TEXT/UTF8
Codec ID/Info : UTF-8 Plain Text
Duration : 2 h 34 min
Bit rate : 54 b/s
Frame rate : 0.195 FPS
Count of elements : 1811
Stream size : 61.4 KiB (0%)
Title : 简体中字
Language : Chinese
Default : No
Forced : No

Text #30
ID : 32
Format : UTF-8
Codec ID : S_TEXT/UTF8
Codec ID/Info : UTF-8 Plain Text
Duration : 2 h 34 min
Bit rate : 52 b/s
Frame rate : 0.194 FPS
Count of elements : 1798
Stream size : 59.2 KiB (0%)
Title : 繁体中字
Language : Chinese
Default : No
Forced : No


Menu
02:28:10.000 : en:End Credits

推荐使用qBittorrent、uTorrent、BitComet等下载软件,有条件的推荐115或会员软件下载!

下载地址:


游客,如果您要查看本帖隐藏内容请回复

游客,如果您要查看本帖隐藏内容请回复

游客,如果您要查看本帖隐藏内容请回复

游客,如果您要查看本帖隐藏内容请回复





上一篇:风云际会 [简繁中字] / Willow (1988) 4K高清版下载
下一篇:大卫·爱登堡:地球上的一段生命旅程 [简繁] (2020) 4K高清下载
回复

使用道具 举报

0

主题

4

帖子

15

积分

新手上路

Rank: 1

积分
15
发表于 2022-11-30 15:19:02 | 显示全部楼层
一直想看的电影
回复 支持 反对

使用道具 举报

0

主题

225

帖子

1010

积分

4K家园VIP

Rank: 9Rank: 9Rank: 9

积分
1010
发表于 2022-11-30 20:35:55 | 显示全部楼层
楼主辛苦了,谢谢楼主,感谢楼主分享,楼主好人一生平安!!!
回复 支持 反对

使用道具 举报

您需要登录后才可以回帖 登录 | 立即注册

本版积分规则

精彩图文
Archiver|手机版|TAG|Sitemap|新帖|专题|联系我们:邮箱: 4kjia.com@gmail.com   

4k家园   ©2019