[4K电影] 李尔王 / King Lear (2018) 4K高清版本下载

[复制链接]

主题

帖子

0

积分

超级版主

Rank: 8Rank: 8

积分
0
 楼主| 发表于 2022-11-30 20:19:15 | 显示全部楼层 |阅读模式
QQ图片20221130200248_副本.png

◎标  题 李尔王
◎片  名 King Lear
◎年  代 2018
◎产  地 英国
◎类  别 剧情
◎语  言 英语
◎上映日期 2018-05-28(英国)
◎IMDb评分 6.1/10 from 3863 users 更新 : 2022-11-30
◎IMDb链接 https://www.imdb.com/title/tt7473890/
◎豆瓣评分 7.1/10 from 4348 users 更新 : 2022-11-30
◎豆瓣链接 https://movie.douban.com/subject/26743470/
◎片  长 115分钟
◎导  演 理查德·艾尔 Richard Eyre
◎编  剧 理查德·艾尔 Richard Eyre
◎演  员 安东尼·霍普金斯 Anthony Hopkins
       艾玛·汤普森 Emma Thompson
       艾米丽·沃森 Emily Watson
       弗洛伦丝·皮尤 Florence Pugh
       吉姆·布劳德本特 Jim Broadbent
       吉姆·卡特 Jim Carter
       托比亚斯·门基斯 Tobias Menzies
       约翰·麦克米兰 John MacMillan
       安东尼·凯尔夫 Anthony Calf
       西蒙·曼勇达 Simon Manyonda
       楚克武迪·武吉 Chukwudi Iwuji
       卡尔·约翰逊 Karl Johnson
       Samuel Valentine Samuel Valentine
       安德鲁·斯科特 Andrew Scott
       克里斯托弗·埃克莱斯顿 Christopher Eccleston
       阿琳泽·科纳 Arinzé Kene
       约翰·斯坦丁 John Standing
       拉裴尔·德普雷 Raphael Desprez
       肖恩·狄克逊 Shawn Dixon
         通恰伊·古奈什 Tuncay Gunes
       所罗门·塔伊沃·贾斯提费尔德 Solomon Taiwo Justified
       伯纳多·桑托斯 Bernardo Santos


◎简  介



        李尔王(安东尼·霍普金斯 Anthony Hopkins 饰)年事已高,他决定将广袤的国土分给自己的三个女儿科迪莉亚(佛罗伦斯·珀 Florence Pugh 饰)、格纳利尔(艾玛·汤普森 Emma Thompson 饰)和里根(艾米丽·沃森 Emily Watson 饰)。李尔王让三个女儿说出各自心中对父王的爱戴,格纳利尔和里根极尽花言巧语之所能,得到了李尔王的赞赏,小女儿科迪莉亚质朴而诚实,反而遭到了无情的驱逐。
  失去了家园的科迪莉亚成为了法国的王后,而得到了父亲大片疆土的大女儿和二女儿则将李尔王赶出了家门。直到流落荒野无处可去,李尔王才明白自己犯了天大的错误,他一边责怪自己的愚昧,一边心痛科迪莉亚的遭遇。得知了李尔王的境遇,科迪莉亚组织了军队准备向老家进攻,不幸的是,军队遭遇惨败,科迪莉亚也遭到了逮捕。最终,科迪莉亚被处死,年迈的李尔王在痛苦中亦追随而去。

Video
ID : 1
Format : HEVC
Format/Info : High Efficiency Video Coding
Format profile : Main 10@L5@Main
HDR format : SMPTE ST 2094 App 4, Version 1, HDR10+ Profile B compatible
Codec ID : V_MPEGH/ISO/HEVC
Duration : 1 h 55 min
Bit rate : 14.9 Mb/s
Width : 3 840 pixels
Height : 2 160 pixels
Display aspect ratio : 16:9
Frame rate mode : Constant
Frame rate : 25.000 FPS
Color space : YUV
Chroma subsampling : 4:2:0
Bit depth : 10 bits
Bits/(Pixel*Frame) : 0.072
Stream size : 12.0 GiB (96%)
Language : English
Default : Yes
Forced : No
Color range : Limited
Color primaries : BT.2020
Transfer characteristics : PQ
Matrix coefficients : BT.2020 non-constant
Mastering display color primaries : Display P3
Mastering display luminance : min: 0.0001 cd/m2, max: 1000 cd/m2
Maximum Content Light Level : 843 cd/m2
Maximum Frame-Average Light Level : 390 cd/m2

Audio
ID : 2
Format : E-AC-3
Format/Info : Enhanced AC-3
Commercial name : Dolby Digital Plus
Codec ID : A_EAC3
Duration : 1 h 55 min
Bit rate mode : Constant
Bit rate : 640 kb/s
Channel(s) : 6 channels
Channel layout : L R C LFE Ls Rs
Sampling rate : 48.0 kHz
Frame rate : 31.250 FPS (1536 SPF)
Compression mode : Lossy
Stream size : 528 MiB (4%)
Title : Dolby Digital Plus / 5.1 / 48 kHz / 640 kbps
Language : English
Service kind : Complete Main
Default : Yes
Forced : No

Text #1
ID : 3
Format : UTF-8
Codec ID : S_TEXT/UTF8
Codec ID/Info : UTF-8 Plain Text
Duration : 1 h 52 min
Bit rate : 69 b/s
Frame rate : 0.234 FPS
Count of elements : 1575
Stream size : 57.4 KiB (0%)
Language : English
Default : No
Forced : No

Text #2
ID : 4
Format : UTF-8
Codec ID : S_TEXT/UTF8
Codec ID/Info : UTF-8 Plain Text
Duration : 1 h 53 min
Bit rate : 73 b/s
Frame rate : 0.250 FPS
Count of elements : 1697
Stream size : 60.7 KiB (0%)
Title : SDH
Language : English
Default : No
Forced : No

Text #3
ID : 5
Format : UTF-8
Codec ID : S_TEXT/UTF8
Codec ID/Info : UTF-8 Plain Text
Duration : 1 h 53 min
Bit rate : 71 b/s
Frame rate : 0.230 FPS
Count of elements : 1562
Stream size : 59.3 KiB (0%)
Language : German
Default : No
Forced : No


推荐使用qBittorrent、uTorrent、BitComet等下载软件,有条件的推荐115或会员软件下载!

下载地址


游客,如果您要查看本帖隐藏内容请回复

游客,如果您要查看本帖隐藏内容请回复





上一篇:金发梦露 [简繁中字]/ Blonde (2022) 4K高清版本下载
下一篇:特雷弗·诺亚:但愿你可以 [简繁中字] (2022) 4K高清版本下载
回复

使用道具 举报

主题

帖子

0

积分

4K家园VIP

Rank: 9Rank: 9Rank: 9

积分
0
发表于 2022-11-30 20:46:42 | 显示全部楼层
太好啦&萬分感謝版主的無私發佈分享%
回复 支持 反对

使用道具 举报

0

主题

323

帖子

1920

积分

4K家园VIP

Rank: 9Rank: 9Rank: 9

积分
1920
QQ
发表于 2022-12-1 18:36:32 | 显示全部楼层
让 江小白 来看看帖子里藏了啥好东西~~~
回复 支持 反对

使用道具 举报

您需要登录后才可以回帖 登录 | 立即注册

本版积分规则

精彩图文
Archiver|手机版|TAG|Sitemap|新帖|专题|联系我们:邮箱: 4kjia.com@gmail.com   

4k家园   ©2019