[4K电影] 特雷弗·诺亚:但愿你可以 [简繁中字] (2022) 4K高清版本下载

[复制链接]

主题

帖子

0

积分

超级版主

Rank: 8Rank: 8

积分
0
 楼主| 发表于 2022-11-30 20:43:46 | 显示全部楼层 |阅读模式
QQ图片20221130203411_副本.png

◎译  名 特雷弗·诺亚:但愿你可以
◎片  名 I Wish You Would
◎年  代 2022
◎产  地 美国
◎类  别 喜剧 / 脱口秀
◎语  言 英语
◎上映日期 2022-11-22(netflix)
◎IMDb评分 6.6/10 from 764 users 更新 : 2022-11-30
◎IMDb链接 https://www.imdb.com/title/tt22890438/
◎豆瓣评分 7.6/10 from 533 users 更新 : 2022-11-30
◎豆瓣链接 https://movie.douban.com/subject/36162984/
◎片  长 120分钟
◎导  演 大卫·保罗·迈耶 David Paul Meyer
◎编  剧 特雷弗·诺亚 Trevor Noah
◎演  员 特雷弗·诺亚 Trevor Noah



◎简  介


         在他的第三个特别节目中,喜剧演员特雷弗·诺亚讲述了学习德语、恶语相向、在恐怖电影中评判人物、处理现代在苏格兰,您可以通过电话、通信和订购印度食品。

Video
ID : 1
Format : HEVC
Format/Info : High Efficiency Video Coding
Format profile : Main 10@L5@Main
Codec ID : V_MPEGH/ISO/HEVC
Duration : 1 h 8 min
Bit rate : 12.0 Mb/s
Width : 3 840 pixels
Height : 2 160 pixels
Display aspect ratio : 16:9
Frame rate mode : Constant
Frame rate : 23.976 (24000/1001) FPS
Color space : YUV
Chroma subsampling : 4:2:0
Bit depth : 10 bits
Bits/(Pixel*Frame) : 0.061
Stream size : 5.74 GiB (95%)
Default : Yes
Forced : No
Color range : Limited
Color primaries : BT.709
Transfer characteristics : BT.709
Matrix coefficients : BT.709

Audio
ID : 2
Format : E-AC-3
Format/Info : Enhanced AC-3
Commercial name : Dolby Digital Plus
Codec ID : A_EAC3
Duration : 1 h 8 min
Bit rate mode : Constant
Bit rate : 640 kb/s
Channel(s) : 6 channels
Channel layout : L R C LFE Ls Rs
Sampling rate : 48.0 kHz
Frame rate : 31.250 FPS (1536 SPF)
Compression mode : Lossy
Stream size : 312 MiB (5%)
Language : English
Service kind : Complete Main
Default : Yes
Forced : No

Text #1
ID : 3
Format : UTF-8
Codec ID : S_TEXT/UTF8
Codec ID/Info : UTF-8 Plain Text
Duration : 1 h 7 min
Bit rate : 109 b/s
Frame rate : 0.353 FPS
Count of elements : 1437
Stream size : 54.5 KiB (0%)
Title : English [SDH]
Language : English
Default : No
Forced : No

Text #2
ID : 4
Format : UTF-8
Codec ID : S_TEXT/UTF8
Codec ID/Info : UTF-8 Plain Text
Duration : 1 h 7 min
Bit rate : 143 b/s
Frame rate : 0.297 FPS
Count of elements : 1203
Stream size : 70.7 KiB (0%)
Title : Arabic
Language : Arabic
Default : No
Forced : No

Text #3
ID : 5
Format : UTF-8
Codec ID : S_TEXT/UTF8
Codec ID/Info : UTF-8 Plain Text
Duration : 1 h 7 min
Bit rate : 95 b/s
Frame rate : 0.299 FPS
Count of elements : 1210
Stream size : 47.1 KiB (0%)
Title : 简体中字
Language : Chinese
Default : No
Forced : No

Text #4
ID : 6
Format : UTF-8
Codec ID : S_TEXT/UTF8
Codec ID/Info : UTF-8 Plain Text
Duration : 1 h 7 min
Bit rate : 95 b/s
Frame rate : 0.297 FPS
Count of elements : 1204
Stream size : 47.1 KiB (0%)
Title : 繁体中字
Language : Chinese
Default : No
Forced : No


Text #5
ID : 7
Format : UTF-8
Codec ID : S_TEXT/UTF8
Codec ID/Info : UTF-8 Plain Text
Duration : 1 h 7 min
Bit rate : 80 b/s
Frame rate : 0.297 FPS
Count of elements : 1204
Stream size : 39.6 KiB (0%)
Title : Croatian
Language : Croatian
Default : No
Forced : No

Text #6
ID : 8
Format : UTF-8
Codec ID : S_TEXT/UTF8
Codec ID/Info : UTF-8 Plain Text
Duration : 1 h 7 min
Bit rate : 78 b/s
Frame rate : 0.281 FPS
Count of elements : 1137
Stream size : 39.1 KiB (0%)
Title : Czech
Language : Czech
Default : No
Forced : No

Text #7
ID : 9
Format : UTF-8
Codec ID : S_TEXT/UTF8
Codec ID/Info : UTF-8 Plain Text
Duration : 1 h 7 min
Bit rate : 78 b/s
Frame rate : 0.257 FPS
Count of elements : 1040
Stream size : 38.9 KiB (0%)
Title : Danish
Language : Danish
Default : No
Forced : No

Text #8
ID : 10
Format : UTF-8
Codec ID : S_TEXT/UTF8
Codec ID/Info : UTF-8 Plain Text
Duration : 1 h 7 min
Bit rate : 83 b/s
Frame rate : 0.276 FPS
Count of elements : 1116
Stream size : 41.2 KiB (0%)
Title : Dutch
Language : Dutch
Default : No
Forced : No

Text #9
ID : 11
Format : UTF-8
Codec ID : S_TEXT/UTF8
Codec ID/Info : UTF-8 Plain Text
Duration : 1 h 7 min
Bit rate : 83 b/s
Frame rate : 0.285 FPS
Count of elements : 1153
Stream size : 41.3 KiB (0%)
Title : European Spanish
Language : Spanish
Default : No
Forced : No

Text #10
ID : 12
Format : UTF-8
Codec ID : S_TEXT/UTF8
Codec ID/Info : UTF-8 Plain Text
Duration : 1 h 7 min
Bit rate : 91 b/s
Frame rate : 0.295 FPS
Count of elements : 1196
Stream size : 45.1 KiB (0%)
Title : Filipino
Language : fil
Default : No
Forced : No

Text #11
ID : 13
Format : UTF-8
Codec ID : S_TEXT/UTF8
Codec ID/Info : UTF-8 Plain Text
Duration : 1 h 7 min
Bit rate : 76 b/s
Frame rate : 0.297 FPS
Count of elements : 1201
Stream size : 37.9 KiB (0%)
Title : Finnish
Language : Finnish
Default : No
Forced : No

Text #12
ID : 14
Format : UTF-8
Codec ID : S_TEXT/UTF8
Codec ID/Info : UTF-8 Plain Text
Duration : 1 h 7 min
Bit rate : 88 b/s
Frame rate : 0.297 FPS
Count of elements : 1202
Stream size : 44.0 KiB (0%)
Title : French
Language : French
Default : No
Forced : No

Text #13
ID : 15
Format : UTF-8
Codec ID : S_TEXT/UTF8
Codec ID/Info : UTF-8 Plain Text
Duration : 1 h 7 min
Bit rate : 87 b/s
Frame rate : 0.273 FPS
Count of elements : 1107
Stream size : 43.3 KiB (0%)
Title : German
Language : German
Default : No
Forced : No

Text #14
ID : 16
Format : UTF-8
Codec ID : S_TEXT/UTF8
Codec ID/Info : UTF-8 Plain Text
Duration : 1 h 7 min
Bit rate : 140 b/s
Frame rate : 0.289 FPS
Count of elements : 1171
Stream size : 69.5 KiB (0%)
Title : Greek
Language : Greek
Default : No
Forced : No

Text #15
ID : 17
Format : UTF-8
Codec ID : S_TEXT/UTF8
Codec ID/Info : UTF-8 Plain Text
Duration : 1 h 7 min
Bit rate : 121 b/s
Frame rate : 0.294 FPS
Count of elements : 1192
Stream size : 60.2 KiB (0%)
Title : Hebrew
Language : Hebrew
Default : No
Forced : No

Text #16
ID : 18
Format : UTF-8
Codec ID : S_TEXT/UTF8
Codec ID/Info : UTF-8 Plain Text
Duration : 1 h 7 min
Bit rate : 85 b/s
Frame rate : 0.255 FPS
Count of elements : 1033
Stream size : 42.4 KiB (0%)
Title : Hungarian
Language : Hungarian
Default : No
Forced : No

Text #17
ID : 19
Format : UTF-8
Codec ID : S_TEXT/UTF8
Codec ID/Info : UTF-8 Plain Text
Duration : 1 h 7 min
Bit rate : 86 b/s
Frame rate : 0.297 FPS
Count of elements : 1203
Stream size : 42.9 KiB (0%)
Title : Indonesian
Language : Indonesian
Default : No
Forced : No

Text #18
ID : 20
Format : UTF-8
Codec ID : S_TEXT/UTF8
Codec ID/Info : UTF-8 Plain Text
Duration : 1 h 7 min
Bit rate : 81 b/s
Frame rate : 0.297 FPS
Count of elements : 1204
Stream size : 40.5 KiB (0%)
Title : Italian
Language : Italian
Default : No
Forced : No

Text #19
ID : 21
Format : UTF-8
Codec ID : S_TEXT/UTF8
Codec ID/Info : UTF-8 Plain Text
Duration : 1 h 7 min
Bit rate : 94 b/s
Frame rate : 0.298 FPS
Count of elements : 1207
Stream size : 46.9 KiB (0%)
Title : Japanese
Language : Japanese
Default : No
Forced : No

Text #20
ID : 22
Format : UTF-8
Codec ID : S_TEXT/UTF8
Codec ID/Info : UTF-8 Plain Text
Duration : 1 h 7 min
Bit rate : 115 b/s
Frame rate : 0.297 FPS
Count of elements : 1204
Stream size : 57.0 KiB (0%)
Title : Korean
Language : Korean
Default : No
Forced : No

Text #21
ID : 23
Format : UTF-8
Codec ID : S_TEXT/UTF8
Codec ID/Info : UTF-8 Plain Text
Duration : 1 h 7 min
Bit rate : 74 b/s
Frame rate : 0.278 FPS
Count of elements : 1126
Stream size : 36.8 KiB (0%)
Title : Malay
Language : Malay
Default : No
Forced : No

Text #22
ID : 24
Format : UTF-8
Codec ID : S_TEXT/UTF8
Codec ID/Info : UTF-8 Plain Text
Duration : 1 h 7 min
Bit rate : 75 b/s
Frame rate : 0.259 FPS
Count of elements : 1050
Stream size : 37.5 KiB (0%)
Title : Norwegian Bokmål
Language : Norwegian Bokmal
Default : No
Forced : No

Text #23
ID : 25
Format : UTF-8
Codec ID : S_TEXT/UTF8
Codec ID/Info : UTF-8 Plain Text
Duration : 1 h 7 min
Bit rate : 81 b/s
Frame rate : 0.297 FPS
Count of elements : 1203
Stream size : 40.1 KiB (0%)
Title : Polish
Language : Polish
Default : No
Forced : No

Text #24
ID : 26
Format : UTF-8
Codec ID : S_TEXT/UTF8
Codec ID/Info : UTF-8 Plain Text
Duration : 1 h 7 min
Bit rate : 83 b/s
Frame rate : 0.297 FPS
Count of elements : 1203
Stream size : 41.3 KiB (0%)
Title : Portuguese
Language : Portuguese
Default : No
Forced : No

Text #25
ID : 27
Format : UTF-8
Codec ID : S_TEXT/UTF8
Codec ID/Info : UTF-8 Plain Text
Duration : 1 h 7 min
Bit rate : 80 b/s
Frame rate : 0.297 FPS
Count of elements : 1204
Stream size : 39.7 KiB (0%)
Title : Portuguese Brazilian
Language : Portuguese
Default : No
Forced : No

Text #26
ID : 28
Format : UTF-8
Codec ID : S_TEXT/UTF8
Codec ID/Info : UTF-8 Plain Text
Duration : 1 h 7 min
Bit rate : 95 b/s
Frame rate : 0.282 FPS
Count of elements : 1143
Stream size : 47.2 KiB (0%)
Title : Romanian
Language : Romanian
Default : No
Forced : No

Text #27
ID : 29
Format : UTF-8
Codec ID : S_TEXT/UTF8
Codec ID/Info : UTF-8 Plain Text
Duration : 1 h 7 min
Bit rate : 94 b/s
Frame rate : 0.297 FPS
Count of elements : 1201
Stream size : 46.5 KiB (0%)
Title : Spanish
Language : Spanish
Default : No
Forced : No

Text #28
ID : 30
Format : UTF-8
Codec ID : S_TEXT/UTF8
Codec ID/Info : UTF-8 Plain Text
Duration : 1 h 7 min
Bit rate : 84 b/s
Frame rate : 0.297 FPS
Count of elements : 1204
Stream size : 41.8 KiB (0%)
Title : Swedish
Language : Swedish
Default : No
Forced : No

Text #29
ID : 31
Format : UTF-8
Codec ID : S_TEXT/UTF8
Codec ID/Info : UTF-8 Plain Text
Duration : 1 h 7 min
Bit rate : 224 b/s
Frame rate : 0.297 FPS
Count of elements : 1203
Stream size : 111 KiB (0%)
Title : Thai
Language : Thai
Default : No
Forced : No

Text #30
ID : 32
Format : UTF-8
Codec ID : S_TEXT/UTF8
Codec ID/Info : UTF-8 Plain Text
Duration : 1 h 7 min
Bit rate : 82 b/s
Frame rate : 0.294 FPS
Count of elements : 1191
Stream size : 40.8 KiB (0%)
Title : Turkish
Language : Turkish
Default : No
Forced : No

Text #31
ID : 33
Format : UTF-8
Codec ID : S_TEXT/UTF8
Codec ID/Info : UTF-8 Plain Text
Duration : 1 h 7 min
Bit rate : 152 b/s
Frame rate : 0.297 FPS
Count of elements : 1203
Stream size : 75.3 KiB (0%)
Title : Ukrainian
Language : Ukrainian
Default : No
Forced : No

Text #32
ID : 34
Format : UTF-8
Codec ID : S_TEXT/UTF8
Codec ID/Info : UTF-8 Plain Text
Duration : 1 h 7 min
Bit rate : 112 b/s
Frame rate : 0.296 FPS
Count of elements : 1200
Stream size : 55.6 KiB (0%)
Title : Vietnamese
Language : Vietnamese
Default : No
Forced : No


推荐使用qBittorrent、uTorrent、BitComet等下载软件,有条件的推荐115或会员软件下载!

下载地址


游客,如果您要查看本帖隐藏内容请回复

游客,如果您要查看本帖隐藏内容请回复

游客,如果您要查看本帖隐藏内容请回复

游客,如果您要查看本帖隐藏内容请回复






上一篇:李尔王 / King Lear (2018) 4K高清版本下载
下一篇:多莉·帕顿:MusiCares致敬演唱会[简繁中字](2022)4K高清版本下载
回复

使用道具 举报

主题

帖子

0

积分

新手上路

Rank: 1

积分
0
发表于 2022-12-1 12:05:04 | 显示全部楼层
开心开心
回复

使用道具 举报

您需要登录后才可以回帖 登录 | 立即注册

本版积分规则

精彩图文
Archiver|手机版|TAG|Sitemap|新帖|专题|联系我们:邮箱: 4kjia.com@gmail.com   

4k家园   ©2019