[4K电影] 永恒的女儿 / The Eternal Daughter (2022) 4K高清版本下载

[复制链接]

主题

帖子

0

积分

超级版主

Rank: 8Rank: 8

积分
0
 楼主| 发表于 2022-12-3 23:39:00 | 显示全部楼层 |阅读模式
本帖最后由 最爱4K哟 于 2022-12-4 00:18 编辑

QQ图片20221204000257_副本.png

◎标  题 永恒的女儿
◎片  名 The Eternal Daughter
◎年  代 2022
◎产  地 美国 / 英国
◎类  别 剧情 / 悬疑
◎语  言 英语
◎上映日期 2022-09-06(威尼斯电影节) / 2022-12-02(美国)
◎IMDb评分 6.8/10 from 393 users 更新 : 2022-12-03
◎IMDb链接 https://www.imdb.com/title/tt13874422/
◎豆瓣评分 6.3/10 (135 users 更新 : 2022-12-03
◎豆瓣链接 https://movie.douban.com/subject/35332885/
◎片  长 96分钟
◎导  演 乔安娜·霍格 Joanna Hogg
◎编  剧 乔安娜·霍格 Joanna Hogg
◎演  员 蒂尔达·斯文顿 Tilda Swinton
       卡尔利-索菲娅·戴维斯 Carly-Sophia Davies
       津尼娅·戴维斯-库克 Zinnia Davies-Cooke
       奥古斯特·乔希 August Joshi
       路易斯 Louis
       约瑟夫·迈德尔 Joseph Mydell
       阿尔菲·桑凯-格林 Alfie Sankey-Green
       乔安娜·霍格 Joanna Hogg
       格蕾丝·斯内尔 Grace Snell


◎简  介


  蒂尔达·斯文顿的秘密主演新片曝光:她于疫情期间在威尔士拍摄了一部鬼故事片《永恒的女儿》(The Eternal Daughter),继《纪念品》后再次与导演乔安娜·霍格合作。
A24最新拿下该片全球版权,已拍完进入后期制作阶段,讲述一个中年女子与年迈母亲回到她们以前的家——一个旧日的大庄园,如今变成了一间空荡荡的酒店,充满神秘,母女俩将必须面对一些埋藏了很长时间的秘密。
该片演员阵容还包括约瑟夫·迈德尔、卡莉·戴维斯和阿尔菲·桑基·格林,由Element Pictures(《宠儿》《房间》)和JWH Films(《纪念品》)制作,BBC影业也加入,马丁·斯科塞斯担任执行制片人。

Video
ID : 1
Format : HEVC
Format/Info : High Efficiency Video Coding
Format profile : Main 10@L5@High
HDR format : Dolby Vision, Version 1.0, dvhe.05.06, BL+RPU
Codec ID : dvhe
Codec ID/Info : High Efficiency Video Coding with Dolby Vision
Duration : 1 h 35 min
Bit rate : 24.9 Mb/s
Width : 3 600 pixels
Original width : 3 596 pixels
Height : 2 160 pixels
Original height : 2 156 pixels
Display aspect ratio : 5:3
Original display aspect ratio : 5:3
Frame rate mode : Constant
Frame rate : 23.976 (24000/1001) FPS
Color space : YUV
Chroma subsampling : 4:2:0
Bit depth : 10 bits
Bits/(Pixel*Frame) : 0.133
Stream size : 16.7 GiB (97%)
Default : Yes
Alternate group : 1
Encoded date : UTC 2022-12-03 10:56:24
Tagged date : UTC 2022-12-03 10:59:12
Codec configuration box : hvcC+dvcC

Audio
ID : 2
Format : E-AC-3 JOC
Format/Info : Enhanced AC-3 with Joint Object Coding
Commercial name : Dolby Digital Plus with Dolby Atmos
Codec ID : ec-3
Duration : 1 h 35 min
Bit rate mode : Constant
Bit rate : 768 kb/s
Maximum bit rate : 811 kb/s
Channel(s) : 6 channels
Channel layout : L R C LFE Ls Rs
Sampling rate : 48.0 kHz
Frame rate : 31.250 FPS (1536 SPF)
Compression mode : Lossy
Stream size : 527 MiB (3%)
Title : English
Language : English
Service kind : Complete Main
Default : Yes
Alternate group : 1
Tagged date : UTC 2022-12-03 10:59:12
Complexity index : Not present / 16
Number of dynamic objects : 15
Bed channel count : 1 channel
Bed channel configuration : LFE

Text #1
ID : 3
Format : Timed Text
Codec ID : tx3g
Duration : 1 h 31 min
Bit rate mode : Variable
Bit rate : 51 b/s
Frame rate : 0.383 FPS
Stream size : 34.0 KiB (0%)
Title : English
Language : English
Forced : No
Encoded date : UTC 2022-12-03 10:59:12
Tagged date : UTC 2022-12-03 10:59:12

Text #2
ID : 4
Format : Timed Text
Codec ID : tx3g
Duration : 1 h 30 min
Bit rate mode : Variable
Bit rate : 38 b/s
Frame rate : 0.291 FPS
Stream size : 25.3 KiB (0%)
Title : Spanish
Language : Spanish
Forced : No
Encoded date : UTC 2022-12-03 10:59:12
Tagged date : UTC 2022-12-03 10:59:12

推荐使用qBittorrent、uTorrent、BitComet等下载软件,有条件的推荐115或会员软件下载!

下载地址


游客,如果您要查看本帖隐藏内容请回复

游客,如果您要查看本帖隐藏内容请回复

游客,如果您要查看本帖隐藏内容请回复

游客,如果您要查看本帖隐藏内容请回复





上一篇:圣诞前夕的骑士 [简繁中字] (2019) 4K高清版本下载
下一篇:三方国界[简繁中字] / Triple Frontier (2019) 4K高清版本下载
回复

使用道具 举报

0

主题

27

帖子

367

积分

新手上路

Rank: 1

积分
367
发表于 2022-12-4 15:40:24 | 显示全部楼层
先谢楼主分享!!!
回复 支持 反对

使用道具 举报

您需要登录后才可以回帖 登录 | 立即注册

本版积分规则

精彩图文
Archiver|手机版|TAG|Sitemap|新帖|专题|联系我们:邮箱: 4kjia.com@gmail.com   

4k家园   ©2019