[4K电影] 三方国界[简繁中字] / Triple Frontier (2019) 4K高清版本下载

[复制链接]

主题

帖子

0

积分

超级版主

Rank: 8Rank: 8

积分
0
 楼主| 发表于 2022-12-4 09:48:35 | 显示全部楼层 |阅读模式
QQ图片20221204095009_副本.png

◎标  题 三方国界
◎译  名 三重边界(台) / 三重国境
◎片  名 Triple Frontier
◎年  代 2019
◎产  地 美国
◎类  别 动作 / 犯罪 / 冒险
◎语  言 英语 / 西班牙语 / 葡萄牙语
◎上映日期 2019-03-13(美国)
◎IMDb评分 6.4/10 from 129567 users 更新 : 2022-12-03
◎IMDb链接 https://www.imdb.com/title/tt1488606/
◎豆瓣评分 6.4/10 from 18503 users 更新 : 2022-12-04
◎豆瓣链接 https://movie.douban.com/subject/3927789/
◎片  长 125分钟
◎导  演 J·C·尚多尔 J.C. Chandor
◎编  剧 J·C·尚多尔 J.C. Chandor / 马克·鲍尔 Mark Boal
◎演  员 本·阿弗莱克 Ben Affleck
       查理·汉纳姆 Charlie Hunnam
       佩德罗·帕斯卡 Pedro Pascal
       奥斯卡·伊萨克 Oscar Isaac
       加内特·赫德兰 Garrett Hedlund
       阿德里娅·阿霍纳 Adria Arjona
       希拉·凡德 Sheila Vand
       雷纳尔多·加列戈斯 Reynaldo Gallegos
       克里斯汀·霍恩 Christine Horn
       穆罕默德·哈肯沙迪 Mohamed Hakeemshady
       迈克尔·本杰明·埃尔南德斯 Michael Benjamin Hernandez
       佩德罗·洛佩兹 Pedro Lopez
       肖恩·麦克布莱德 Shawn McBride
       杰森·奎恩 Jason Quinn
       卡洛斯·利纳雷斯 Carlos Linares


◎简  介

  本·阿弗莱克、奥斯卡·伊萨克、查理·汉纳姆、加内特·赫德兰、佩德罗·帕斯卡和亚德里亚·霍纳主演《三方国界》,J·C·尚多尔将用他在马克·鲍尔的基础上重写过的剧本执导。讲述五个朋友为扳倒一个大毒枭而再度联合起来,结果却导致一系列意想不到的后果。“三方国界”是指巴拉圭、阿根廷和巴西之间臭名昭著的边界地带,伊瓜苏河和巴拉那河在这里交汇,使这片区域难以监控,成为了有组织犯罪的庇护所。   本项目最早能追溯到2009年,当时还是凯瑟琳·毕格罗准备在《拆弹部队》之后拍摄的电影。2017年4月,据悉由于很不满意J·C·尚多尔改写过的剧本,汤姆·哈迪和查宁·塔图姆双双退出,当时距本片原定的开拍时间仅有四周。就在不到一个月后的5月初,外媒首次报道了Netflix有意接手该项目,并想邀请本·阿弗莱克与卡西·阿弗莱克兄弟补缺,与马赫沙拉·阿里共同主演。
Video
ID : 1
Format : HEVC
Format/Info : High Efficiency Video Coding
Format profile : Main 10@L5@Main
HDR format : Dolby Vision, Version 1.0, dvhe.08.06, BL+RPU, HDR10 compatible / SMPTE ST 2086, HDR10 compatible
Codec ID : V_MPEGH/ISO/HEVC
Duration : 2 h 5 min
Bit rate : 15.2 Mb/s
Width : 3 840 pixels
Height : 2 160 pixels
Display aspect ratio : 16:9
Frame rate mode : Constant
Frame rate : 24.000 FPS
Color space : YUV
Chroma subsampling : 4:2:0 (Type 2)
Bit depth : 10 bits
Bits/(Pixel*Frame) : 0.076
Stream size : 13.3 GiB (95%)
Default : Yes
Forced : No
Color range : Limited
Color primaries : BT.2020
Transfer characteristics : PQ
Matrix coefficients : BT.2020 non-constant
Mastering display color primaries : Display P3
Mastering display luminance : min: 0.0001 cd/m2, max: 1000 cd/m2
Maximum Content Light Level : 1137 cd/m2
Maximum Frame-Average Light Level : 205 cd/m2

Audio
ID : 2
Format : E-AC-3 JOC
Format/Info : Enhanced AC-3 with Joint Object Coding
Commercial name : Dolby Digital Plus with Dolby Atmos
Codec ID : A_EAC3
Duration : 2 h 5 min
Bit rate mode : Constant
Bit rate : 768 kb/s
Channel(s) : 6 channels
Channel layout : L R C LFE Ls Rs
Sampling rate : 48.0 kHz
Frame rate : 31.250 FPS (1536 SPF)
Compression mode : Lossy
Stream size : 688 MiB (5%)
Language : English
Service kind : Complete Main
Default : Yes
Forced : No
Complexity index : 16
Number of dynamic objects : 15
Bed channel count : 1 channel
Bed channel configuration : LFE

Text #1
ID : 3
Format : UTF-8
Codec ID : S_TEXT/UTF8
Codec ID/Info : UTF-8 Plain Text
Duration : 1 h 53 min
Bit rate : 5 b/s
Frame rate : 0.026 FPS
Count of elements : 175
Stream size : 4.33 KiB (0%)
Title : Forced
Language : English
Default : No
Forced : Yes

Text #2
ID : 4
Format : UTF-8
Codec ID : S_TEXT/UTF8
Codec ID/Info : UTF-8 Plain Text
Duration : 1 h 56 min
Bit rate : 51 b/s
Frame rate : 0.204 FPS
Count of elements : 1429
Stream size : 43.8 KiB (0%)
Language : English
Default : No
Forced : No

Text #3
ID : 5
Format : UTF-8
Codec ID : S_TEXT/UTF8
Codec ID/Info : UTF-8 Plain Text
Duration : 1 h 57 min
Bit rate : 66 b/s
Frame rate : 0.251 FPS
Count of elements : 1763
Stream size : 57.2 KiB (0%)
Title : SDH
Language : English
Default : No
Forced : No

Text #4
ID : 6
Format : UTF-8
Codec ID : S_TEXT/UTF8
Codec ID/Info : UTF-8 Plain Text
Duration : 1 h 57 min
Bit rate : 91 b/s
Frame rate : 0.210 FPS
Count of elements : 1481
Stream size : 78.4 KiB (0%)
Language : Arabic
Default : No
Forced : No

Text #5
ID : 7
Format : UTF-8
Codec ID : S_TEXT/UTF8
Codec ID/Info : UTF-8 Plain Text
Duration : 2 h 4 min
Bit rate : 45 b/s
Frame rate : 0.197 FPS
Count of elements : 1475
Stream size : 41.4 KiB (0%)
Title : 简体中字
Language : Chinese

Default : No
Forced : No

Text #6
ID : 8
Format : UTF-8
Codec ID : S_TEXT/UTF8
Codec ID/Info : UTF-8 Plain Text
Duration : 2 h 4 min
Bit rate : 45 b/s
Frame rate : 0.199 FPS
Count of elements : 1489
Stream size : 41.5 KiB (0%)
Title : 繁体中字
Language : Chinese

Default : No
Forced : No

Text #7
ID : 9
Format : UTF-8
Codec ID : S_TEXT/UTF8
Codec ID/Info : UTF-8 Plain Text
Duration : 2 h 4 min
Bit rate : 40 b/s
Frame rate : 0.185 FPS
Count of elements : 1386
Stream size : 37.4 KiB (0%)
Language : Czech
Default : No
Forced : No

Text #8
ID : 10
Format : UTF-8
Codec ID : S_TEXT/UTF8
Codec ID/Info : UTF-8 Plain Text
Duration : 2 h 4 min
Bit rate : 37 b/s
Frame rate : 0.193 FPS
Count of elements : 1442
Stream size : 34.5 KiB (0%)
Language : Danish
Default : No
Forced : No

Text #9
ID : 11
Format : UTF-8
Codec ID : S_TEXT/UTF8
Codec ID/Info : UTF-8 Plain Text
Duration : 2 h 4 min
Bit rate : 38 b/s
Frame rate : 0.162 FPS
Count of elements : 1210
Stream size : 35.2 KiB (0%)
Language : Dutch
Default : No
Forced : No

Text #10
ID : 12
Format : UTF-8
Codec ID : S_TEXT/UTF8
Codec ID/Info : UTF-8 Plain Text
Duration : 1 h 57 min
Bit rate : 44 b/s
Frame rate : 0.172 FPS
Count of elements : 1206
Stream size : 38.5 KiB (0%)
Language : Finnish
Default : No
Forced : No

Text #11
ID : 13
Format : UTF-8
Codec ID : S_TEXT/UTF8
Codec ID/Info : UTF-8 Plain Text
Duration : 2 h 4 min
Bit rate : 47 b/s
Frame rate : 0.195 FPS
Count of elements : 1461
Stream size : 43.7 KiB (0%)
Language : French
Default : No
Forced : No

Text #12
ID : 14
Format : UTF-8
Codec ID : S_TEXT/UTF8
Codec ID/Info : UTF-8 Plain Text
Duration : 2 h 4 min
Bit rate : 44 b/s
Frame rate : 0.194 FPS
Count of elements : 1456
Stream size : 41.1 KiB (0%)
Language : German
Default : No
Forced : No

Text #13
ID : 15
Format : UTF-8
Codec ID : S_TEXT/UTF8
Codec ID/Info : UTF-8 Plain Text
Duration : 2 h 4 min
Bit rate : 71 b/s
Frame rate : 0.194 FPS
Count of elements : 1455
Stream size : 65.3 KiB (0%)
Language : Greek
Default : No
Forced : No

Text #14
ID : 16
Format : UTF-8
Codec ID : S_TEXT/UTF8
Codec ID/Info : UTF-8 Plain Text
Duration : 2 h 4 min
Bit rate : 69 b/s
Frame rate : 0.197 FPS
Count of elements : 1475
Stream size : 63.9 KiB (0%)
Language : Hebrew
Default : No
Forced : No

Text #15
ID : 17
Format : UTF-8
Codec ID : S_TEXT/UTF8
Codec ID/Info : UTF-8 Plain Text
Duration : 2 h 4 min
Bit rate : 41 b/s
Frame rate : 0.190 FPS
Count of elements : 1423
Stream size : 38.2 KiB (0%)
Language : Hungarian
Default : No
Forced : No

Text #16
ID : 18
Format : UTF-8
Codec ID : S_TEXT/UTF8
Codec ID/Info : UTF-8 Plain Text
Duration : 2 h 4 min
Bit rate : 43 b/s
Frame rate : 0.196 FPS
Count of elements : 1465
Stream size : 39.5 KiB (0%)
Language : Indonesian
Default : No
Forced : No

Text #17
ID : 19
Format : UTF-8
Codec ID : S_TEXT/UTF8
Codec ID/Info : UTF-8 Plain Text
Duration : 2 h 4 min
Bit rate : 45 b/s
Frame rate : 0.197 FPS
Count of elements : 1475
Stream size : 41.5 KiB (0%)
Language : Italian
Default : No
Forced : No

Text #18
ID : 20
Format : UTF-8
Codec ID : S_TEXT/UTF8
Codec ID/Info : UTF-8 Plain Text
Duration : 2 h 4 min
Bit rate : 40 b/s
Frame rate : 0.194 FPS
Count of elements : 1449
Stream size : 37.4 KiB (0%)
Language : Japanese
Default : No
Forced : No

Text #19
ID : 21
Format : UTF-8
Codec ID : S_TEXT/UTF8
Codec ID/Info : UTF-8 Plain Text
Duration : 1 h 57 min
Bit rate : 56 b/s
Frame rate : 0.210 FPS
Count of elements : 1478
Stream size : 48.4 KiB (0%)
Language : Korean
Default : No
Forced : No

Text #20
ID : 22
Format : UTF-8
Codec ID : S_TEXT/UTF8
Codec ID/Info : UTF-8 Plain Text
Duration : 2 h 4 min
Bit rate : 37 b/s
Frame rate : 0.194 FPS
Count of elements : 1452
Stream size : 34.6 KiB (0%)
Language : Norwegian Bokmal
Default : No
Forced : No

Text #21
ID : 23
Format : UTF-8
Codec ID : S_TEXT/UTF8
Codec ID/Info : UTF-8 Plain Text
Duration : 2 h 4 min
Bit rate : 41 b/s
Frame rate : 0.197 FPS
Count of elements : 1471
Stream size : 37.8 KiB (0%)
Language : Polish
Default : No
Forced : No

Text #22
ID : 24
Format : UTF-8
Codec ID : S_TEXT/UTF8
Codec ID/Info : UTF-8 Plain Text
Duration : 2 h 4 min
Bit rate : 46 b/s
Frame rate : 0.192 FPS
Count of elements : 1440
Stream size : 42.2 KiB (0%)
Title : Brazilian
Language : Portuguese
Default : No
Forced : No

Text #23
ID : 25
Format : UTF-8
Codec ID : S_TEXT/UTF8
Codec ID/Info : UTF-8 Plain Text
Duration : 2 h 4 min
Bit rate : 44 b/s
Frame rate : 0.198 FPS
Count of elements : 1479
Stream size : 41.0 KiB (0%)
Title : Iberian
Language : Portuguese
Default : No
Forced : No

Text #24
ID : 26
Format : UTF-8
Codec ID : S_TEXT/UTF8
Codec ID/Info : UTF-8 Plain Text
Duration : 2 h 4 min
Bit rate : 48 b/s
Frame rate : 0.187 FPS
Count of elements : 1403
Stream size : 44.3 KiB (0%)
Language : Romanian
Default : No
Forced : No

Text #25
ID : 27
Format : UTF-8
Codec ID : S_TEXT/UTF8
Codec ID/Info : UTF-8 Plain Text
Duration : 2 h 4 min
Bit rate : 66 b/s
Frame rate : 0.191 FPS
Count of elements : 1433
Stream size : 61.0 KiB (0%)
Language : Russian
Default : No
Forced : No

Text #26
ID : 28
Format : UTF-8
Codec ID : S_TEXT/UTF8
Codec ID/Info : UTF-8 Plain Text
Duration : 2 h 4 min
Bit rate : 45 b/s
Frame rate : 0.198 FPS
Count of elements : 1479
Stream size : 41.2 KiB (0%)
Title : Castilian
Language : Spanish
Default : No
Forced : No

Text #27
ID : 29
Format : UTF-8
Codec ID : S_TEXT/UTF8
Codec ID/Info : UTF-8 Plain Text
Duration : 2 h 4 min
Bit rate : 38 b/s
Frame rate : 0.169 FPS
Count of elements : 1265
Stream size : 35.4 KiB (0%)
Title : Latin American
Language : Spanish
Default : No
Forced : No

Text #28
ID : 30
Format : UTF-8
Codec ID : S_TEXT/UTF8
Codec ID/Info : UTF-8 Plain Text
Duration : 2 h 4 min
Bit rate : 41 b/s
Frame rate : 0.193 FPS
Count of elements : 1442
Stream size : 38.2 KiB (0%)
Language : Swedish
Default : No
Forced : No

Text #29
ID : 31
Format : UTF-8
Codec ID : S_TEXT/UTF8
Codec ID/Info : UTF-8 Plain Text
Duration : 2 h 4 min
Bit rate : 110 b/s
Frame rate : 0.198 FPS
Count of elements : 1481
Stream size : 101 KiB (0%)
Language : Thai
Default : No
Forced : No

Text #30
ID : 32
Format : UTF-8
Codec ID : S_TEXT/UTF8
Codec ID/Info : UTF-8 Plain Text
Duration : 2 h 4 min
Bit rate : 46 b/s
Frame rate : 0.197 FPS
Count of elements : 1477
Stream size : 42.5 KiB (0%)
Language : Turkish
Default : No
Forced : No

Text #31
ID : 33
Format : UTF-8
Codec ID : S_TEXT/UTF8
Codec ID/Info : UTF-8 Plain Text
Duration : 2 h 4 min
Bit rate : 58 b/s
Frame rate : 0.198 FPS
Count of elements : 1480
Stream size : 53.3 KiB (0%)
Language : Vietnamese
Default : No
Forced : No

推荐使用qBittorrent、uTorrent、BitComet等下载软件,有条件的推荐115或会员软件下载!

下载地址

游客,如果您要查看本帖隐藏内容请回复









上一篇:永恒的女儿 / The Eternal Daughter (2022) 4K高清版本下载
下一篇:体坛秘史:奥本山宫殿斗殴[简繁中字] (2021) 4K高清版本下载
回复

使用道具 举报

主题

帖子

0

积分

新手上路

Rank: 1

积分
0
发表于 2022-12-4 12:02:17 | 显示全部楼层
谢谢楼主分享
回复 支持 反对

使用道具 举报

主题

帖子

0

积分

新手上路

Rank: 1

积分
0
发表于 2022-12-4 14:43:35 | 显示全部楼层
谢谢楼主分享
回复 支持 反对

使用道具 举报

0

主题

4

帖子

15

积分

新手上路

Rank: 1

积分
15
发表于 2022-12-4 16:05:41 | 显示全部楼层
比影院视觉效果更好
回复 支持 反对

使用道具 举报

您需要登录后才可以回帖 登录 | 立即注册

本版积分规则

精彩图文
Archiver|手机版|TAG|Sitemap|新帖|专题|联系我们:邮箱: 4kjia.com@gmail.com   

4k家园   ©2019